#VERSION:0.81;
#TITLE:will o' the wisp;
#SUBTITLE:;
#ARTIST:XIzE;
#TITLETRANSLIT:;
#SUBTITLETRANSLIT:;
#ARTISTTRANSLIT:;
#GENRE:;
#ORIGIN:;
#CREDIT:;
#BANNER:[Round 4 Singles] - will o' the wisp.png;
#BACKGROUND:[Round 4 Singles] - will o' the wisp-background.png;
#PREVIEWVID:;
#JACKET:[Round 4 Singles] - will o' the wisp-jacket.png;
#CDIMAGE:;
#DISCIMAGE:;
#LYRICSPATH:;
#CDTITLE:cdtitle.png;
#MUSIC:[Round 4 Singles] - will o' the wisp.mp3;
#OFFSET:-0.058330;
#SAMPLESTART:24.161995;
#SAMPLELENGTH:24.150999;
#SELECTABLE:YES;
#BPMS:0.000=159.000;
#STOPS:;
#DELAYS:;
#WARPS:;
#TIMESIGNATURES:0.000=4=4;
#TICKCOUNTS:0.000=4;
#COMBOS:0.000=1;
#SPEEDS:0.000=1.000=0.000=0;
#SCROLLS:0.000=1.000;
#FAKES:;
#LABELS:0.000=Song Start;
#BGCHANGES:;
#KEYSOUNDS:;
#ATTACKS:
;

//---------------dance-single - ----------------
#NOTEDATA:;
#CHARTNAME:;
#STEPSTYPE:dance-single;
#DESCRIPTION:;
#CHARTSTYLE:;
#DIFFICULTY:Hard;
#METER:9;
#RADARVALUES:0.624598,0.644156,0.125689,0.260356,0.170578,444.000000,14.000000,29.000000,0.000000,0.000000,0.000000,0.000000,0.000000,0.624598,0.644156,0.125689,0.260356,0.170578,444.000000,14.000000,29.000000,0.000000,0.000000,0.000000,0.000000,0.000000;
#CREDIT:;
#NOTES:
// measure 0
0000
0000
0000
0000
,  // measure 1
0000
0000
0000
0000
,  // measure 2
0000
0000
0000
0000
,  // measure 3
0000
0000
0000
0000
,  // measure 4
0000
0000
0000
0000
,  // measure 5
0000
0000
0000
0000
,  // measure 6
0000
0000
0000
0000
,  // measure 7
1000
0100
0010
0100
0001
0100
1000
0000
,  // measure 8
1001
0001
0010
0100
0001
0100
1000
0020
,  // measure 9
0000
0130
0010
0100
0001
1000
0100
0000
,  // measure 10
1100
1000
0001
0100
0010
0100
0001
2000
,  // measure 11
0000
3100
0010
0100
1000
0001
0010
0100
,  // measure 12
1000
0001
0010
0001
0100
0010
1000
0200
,  // measure 13
0000
1300
0010
1000
0001
0010
0100
0000
,  // measure 14
1000
0001
1000
0010
0100
1000
0100
0020
,  // measure 15
0000
0000
0130
0010
0100
0010
0100
0000
0001
0100
0001
0000
1000
0100
1000
0000
,  // measure 16
0100
1000
0100
0001
0100
1000
0010
0100
,  // measure 17
0001
1000
0100
0010
0001
0000
0000
0000
,  // measure 18
0100
0010
0100
0001
0100
1000
0100
0010
,  // measure 19
1000
0100
0010
0001
0100
0000
0000
0000
,  // measure 20
0001
1000
0100
0010
0100
1000
0010
0100
,  // measure 21
0001
1000
0100
0010
0001
0000
0000
0000
,  // measure 22
1000
0001
0100
0010
0100
0001
0010
0100
,  // measure 23
0010
1000
0010
0001
0100
0100
0001
0001
,  // measure 24
1000
0000
0000
1000
0100
0000
0000
0100
0010
0000
0000
0010
0001
0000
0000
0001
,  // measure 25
0100
0000
0000
0100
0010
0000
0000
0010
1000
0000
1000
0000
0010
0000
0010
0000
,  // measure 26
0100
0000
0000
0100
0001
0000
0000
0001
1000
0000
0000
1000
0100
0000
0000
0100
,  // measure 27
0010
0000
0000
0010
0001
0000
0000
0001
0100
0000
0001
0000
0001
0000
0001
0000
,  // measure 28
1000
0000
0000
1000
0100
0000
0000
0100
0001
0000
0000
0001
1000
0000
0000
1000
,  // measure 29
0010
0000
0000
0010
0001
0000
0000
0001
0100
0000
0100
0000
0001
0000
0001
0000
,  // measure 30
1000
0000
0000
1000
0010
0000
0000
0010
0001
0000
0000
0001
0010
0000
0000
0010
,  // measure 31
1000
0000
0000
0001
0000
0000
1000
0000
0001
1000
0001
0000
1001
0000
0000
0000
,  // measure 32
1000
0100
0010
0001
0010
0100
1000
0010
,  // measure 33
0100
1000
0100
0010
1000
0001
0001
0000
,  // measure 34
0100
0010
1000
0001
0010
0100
1000
0001
,  // measure 35
0010
1000
0010
0001
0100
0010
0010
0000
,  // measure 36
1000
0001
0010
0001
0100
0010
1000
0100
,  // measure 37
0010
0100
0001
0100
1000
0001
0001
0000
,  // measure 38
0010
0001
0100
0001
1000
0010
0100
0010
,  // measure 39
0001
0010
0100
0010
1000
0001
0010
0100
,  // measure 40
2000
0000
3200
0000
0320
0000
0030
0100
,  // measure 41
0002
0003
0200
0300
,  // measure 42
2000
0000
3000
0010
0002
0000
0003
0010
,  // measure 43
2000
0000
3000
0000
,  // measure 44
2000
0000
3200
0000
0320
0000
0030
0100
,  // measure 45
0002
0003
0200
0300
,  // measure 46
0020
0000
0030
0001
2000
0000
3000
0100
,  // measure 47
0200
0000
0000
0300
,  // measure 48
1100
1000
0100
1000
0001
0100
1000
0100
,  // measure 49
0001
1000
0001
1000
0100
0001
0100
1000
,  // measure 50
0001
0010
0001
0010
0100
1000
0001
0100
,  // measure 51
1000
0100
0010
0100
0001
0100
0010
1000
,  // measure 52
0100
0010
0100
0010
0001
0010
1000
0010
,  // measure 53
0001
0100
0001
0100
0010
0001
1000
0100
,  // measure 54
0010
1000
0010
1000
0001
0010
0100
0010
,  // measure 55
0001
0100
0010
0100
1000
0100
0010
0100
,  // measure 56
0110
0000
0101
0000
0001
0100
0001
2000
,  // measure 57
0000
0000
3100
0000
0010
0000
0001
0000
0100
0001
0100
0000
0001
0000
0010
0000
,  // measure 58
0200
0000
0000
0000
0300
0000
1000
0010
0002
0000
0000
0000
0003
0000
0001
0010
,  // measure 59
2000
0000
0000
0000
3000
0000
0010
0100
0020
0000
0000
0000
0130
0000
0000
0000
,  // measure 60
0110
0000
1010
0000
0010
1000
0001
0020
,  // measure 61
0000
0000
0031
0000
0010
0000
0100
0000
0010
0100
0010
0000
0001
0000
0010
0000
,  // measure 62
0200
0000
0000
0000
0300
0000
1000
0100
0020
0000
0000
0000
0030
0000
0010
0001
,  // measure 63
0020
0000
0000
0000
0030
0000
0000
0000
0001
0010
0001
0000
1000
0010
1000
0000
,  // measure 64
0001
0100
0010
0100
0001
0010
0100
1100
,  // measure 65
0000
1000
0100
1000
0010
0001
0010
1000
,  // measure 66
0100
0010
0001
0100
0010
1000
0010
0110
,  // measure 67
0000
0100
0001
0010
1000
0010
0001
0100
,  // measure 68
0010
1000
0001
0100
0001
0010
0100
1100
,  // measure 69
0000
1000
0010
0100
0001
0010
0100
1000
,  // measure 70
0010
0100
0001
1000
0001
0010
0100
1001
,  // measure 71
0000
0000
0110
0000
0000
0000
1001
0000
0000
0000
0010
0100
0010
0000
0000
0000
;

//---------------dance-single - ----------------
#NOTEDATA:;
#CHARTNAME:;
#STEPSTYPE:dance-single;
#DESCRIPTION:;
#CHARTSTYLE:;
#DIFFICULTY:Medium;
#METER:7;
#RADARVALUES:0.462997,0.515325,0.278311,0.341156,0.004489,292.000000,31.000000,38.000000,0.000000,0.000000,0.000000,0.000000,0.000000,0.462997,0.515325,0.278311,0.341156,0.004489,292.000000,31.000000,38.000000,0.000000,0.000000,0.000000,0.000000,0.000000;
#CREDIT:;
#NOTES:
0000
0000
0000
0000
,
0000
0000
0000
0000
,
0000
0000
0000
0000
,
0000
0000
0000
0000
,
0000
0000
0000
0000
,
0000
0000
0000
0000
,
0000
0000
0000
0000
,
0000
0000
0000
0000
,
0001
1000
0100
0000
1000
0001
0000
0100
,
0000
0100
0001
0000
1000
0001
0100
0000
,
0001
1000
0010
0000
1000
0001
0000
0010
,
0000
0010
0001
0000
1000
0001
0001
0000
,
1000
0001
0100
0000
0001
1000
0000
0100
,
0000
0100
1000
0000
0001
1000
0100
0000
,
1000
0001
0010
0000
0001
1000
0000
0010
,
0000
0010
0010
0000
0010
0000
0100
0000
,
0001
0000
0001
0000
1000
0010
1000
0000
,
0010
1000
0100
0010
0001
0000
0000
0000
,
1000
0000
1000
0000
0001
0100
0001
0000
,
0100
0001
0010
0100
1000
0000
0000
0000
,
0010
0000
0010
0000
1000
0010
0100
0000
,
0010
1000
0010
0100
0001
0000
0000
0000
,
0100
0000
0100
0000
0001
0010
0100
0000
,
0010
0001
0100
0010
1000
0000
0000
0000
,
0002
0203
2300
3200
,
0302
0000
2003
0000
3100
0100
0100
0000
,
2000
3200
0302
0203
,
2300
0000
3002
0000
0103
0001
0001
0001
,
2000
3020
0032
0023
,
2030
0000
3002
0000
0013
0010
0010
0000
,
0002
0023
2030
3020
,
0031
0000
0000
0001
0000
0000
0001
0000
1000
0000
0000
0000
0000
0000
0000
0000
,
1001
0000
0101
0000
0001
1000
0100
0000
,
0100
1000
0100
0010
0001
0000
0000
0000
,
1001
0000
1010
0000
1000
0001
0010
0000
,
0010
0001
0010
0100
1000
0000
0000
0000
,
0110
0000
1001
0000
0001
0010
0100
0000
,
0100
0010
0100
1000
0001
0000
0000
0000
,
0110
0000
1001
0000
1000
0010
0100
0000
,
0100
0010
1000
0001
0010
0100
1000
0000
,
0100
0000
0100
0000
0010
0000
0000
0010
,
0001
0000
0010
0000
,
0100
0000
0000
1000
0001
0000
0000
0001
,
1000
0000
0000
0000
,
0010
0000
0010
0000
0100
0000
0000
0100
,
0001
0000
1000
0000
,
0100
0000
0000
0010
0100
0000
0000
1000
,
2000
0000
0000
3000
,
1100
0000
1001
0000
0001
0100
0000
0100
,
0001
0000
1001
0000
1000
0100
0000
0100
,
0010
0000
0011
0000
0001
1000
0000
1000
,
0020
0230
0302
2003
,
3100
0000
1100
0000
1000
0001
0000
0001
,
0010
0000
0110
0000
0100
1000
0000
1000
,
0001
0000
0101
0000
0100
0010
0000
0010
,
2000
3200
0320
0230
,
1300
0000
1100
0000
0101
0000
0000
1001
,
0000
0001
0100
0000
0010
0000
1000
0000
,
0200
0000
0000
1300
2000
0000
0000
3001
,
0002
0000
0000
0103
0200
0000
0310
0000
,
0110
0000
0101
0000
1100
0000
0000
1001
,
0000
1000
0010
0000
0100
0000
0001
0000
,
2000
0000
0000
3010
0020
0000
0000
0130
,
0200
0000
0000
0300
0001
0000
1000
0000
,
0001
0010
0001
0000
1000
0100
0000
0100
,
0000
0010
0001
0000
0100
0010
0100
0000
,
0001
0100
0001
0000
1000
0010
0000
0010
,
0000
0100
0001
0000
1000
0100
1000
0001
,
0100
0000
0110
0000
1001
0000
0000
0110
,
0000
0001
1000
0000
0100
0010
0100
0000
,
0110
0000
1001
0000
0110
0000
0000
1001
,
0000
0110
0000
1001
0000
0010
0010
0000
;

//---------------dance-single - ----------------
#NOTEDATA:;
#CHARTNAME:;
#STEPSTYPE:dance-single;
#DESCRIPTION:;
#CHARTSTYLE:;
#DIFFICULTY:Easy;
#METER:4;
#RADARVALUES:0.309092,0.384474,0.233423,0.143645,0.000000,199.000000,26.000000,16.000000,0.000000,0.000000,0.000000,0.000000,0.000000,0.309092,0.384474,0.233423,0.143645,0.000000,199.000000,26.000000,16.000000,0.000000,0.000000,0.000000,0.000000,0.000000;
#CREDIT:;
#NOTES:
0000
0000
0000
0000
,
0000
0000
0000
0000
,
0000
0000
0000
0000
,
0000
0000
0000
0000
,
0000
0000
0000
0000
,
0000
0000
0000
0000
,
0000
0000
0000
0000
,
0000
0000
0000
0000
,
0001
0000
0100
0000
0010
0000
0000
0010
,
0000
1000
1000
0100
,
0010
0000
0001
0000
0010
0000
0000
0010
,
0000
0100
1000
0001
,
1000
0000
0010
0000
0100
0000
0000
0100
,
0000
0001
1000
0001
,
0010
0000
0100
0000
1000
0000
0000
1001
,
0000
0000
0001
1000
,
0100
0100
0010
0010
,
0001
1000
0001
0000
,
0100
0100
0010
0010
,
1000
0001
1000
0000
,
0010
0010
0100
0100
,
0001
1000
0001
0000
,
0010
0010
0100
0100
,
1000
0001
1000
0000
,
0020
0030
0200
0300
,
0001
1000
0001
1000
,
0200
0300
0020
0030
,
0001
1000
0001
0001
,
0200
0300
0020
0030
,
1000
0100
0010
0001
,
0200
0300
0020
0030
,
1000
0000
1001
0000
,
0001
0001
1000
1000
,
0010
0100
0010
0010
,
1000
1000
0001
0001
,
0010
0100
0010
0010
,
0001
0001
1000
1000
,
0100
0010
0100
0100
,
1000
1000
0001
0001
,
0100
0010
0100
0100
,
0100
0000
0001
0000
,
1000
0000
0100
0000
,
1000
0000
0001
0000
,
0100
0000
0000
0000
,
0100
0000
0001
0000
,
0010
0000
0100
0000
,
0010
0000
0001
0000
,
2000
0000
3000
0000
,
0110
0110
1001
0000
,
1001
1001
0110
0000
,
1100
1100
1001
0000
,
0001
0010
0100
1000
,
1100
1100
1001
0000
,
1001
1001
0101
0000
,
0101
0101
0110
0000
,
0001
0100
0010
1000
,
0001
0000
0001
0000
0100
0000
0000
0100
,
0000
0001
0010
0001
,
2000
3000
0200
0300
,
2000
3000
0002
0003
,
0100
0000
0100
0000
0001
0000
0000
0001
,
0000
1000
0010
1000
,
0002
0003
0020
0030
,
0002
0003
1000
0001
,
0100
0000
0001
0000
1000
0000
0000
1001
,
0000
0001
0010
0100
,
1000
0000
0010
0000
0100
0000
0000
0110
,
0000
0010
1000
0001
,
0010
0000
0100
0000
1000
0000
0000
1100
,
0000
0100
0010
0100
,
1000
0000
0001
0000
1000
0000
0000
1001
,
0000
0110
0000
1001
0000
0000
0000
0000
;

//---------------dance-single - ----------------
#NOTEDATA:;
#CHARTNAME:;
#STEPSTYPE:dance-single;
#DESCRIPTION:;
#CHARTSTYLE:;
#DIFFICULTY:Beginner;
#METER:3;
#RADARVALUES:0.159035,0.256316,0.107733,0.134667,0.000000,97.000000,12.000000,15.000000,0.000000,0.000000,0.000000,0.000000,0.000000,0.159035,0.256316,0.107733,0.134667,0.000000,97.000000,12.000000,15.000000,0.000000,0.000000,0.000000,0.000000,0.000000;
#CREDIT:;
#NOTES:
0000
0000
0000
0000
,
0000
0000
0000
0000
,
0000
0000
0000
0000
,
0000
0000
0000
0000
,
0000
0000
0000
0000
,
0000
0000
0000
0000
,
0000
0000
0000
0000
,
0000
0000
0000
0000
,
1000
0000
0000
0000
,
0100
0000
0000
0000
,
0001
0000
0000
0000
,
0010
0000
0000
0000
,
1000
0000
0000
0000
,
0100
0000
0000
0000
,
0001
0000
0000
0000
,
0010
0000
0000
0000
,
1000
0000
0001
0000
,
0100
0000
0100
0000
,
0001
0000
1000
0000
,
0100
0000
0100
0000
,
1000
0000
0001
0000
,
0010
0000
0010
0000
,
0001
0000
1000
0000
,
0010
0000
0010
0000
,
1001
0000
0000
0000
,
0010
0000
0000
0000
,
1001
0000
0000
0000
,
0100
0000
0000
0000
,
1001
0000
0000
0000
,
0010
0000
0000
0000
,
1001
0000
0000
0000
,
0100
0000
0100
0000
,
0001
0000
1000
0000
,
0010
0000
0010
0000
,
1000
0000
0001
0000
,
0100
0000
0100
0000
,
0001
0000
1000
0000
,
0100
0000
0100
0000
,
1000
0000
0001
0000
,
0010
0000
0010
0000
,
0200
0000
0300
0000
,
2000
0000
3000
0000
,
0002
0000
0003
0000
,
0200
0000
0300
0000
,
0002
0000
0003
0000
,
0020
0000
0030
0000
,
2000
0000
3000
0000
,
0020
0000
0030
0000
,
1001
0000
0000
0000
,
1001
0000
0000
0000
,
0110
0000
0000
0000
,
0110
0000
0000
0000
,
1001
0000
0000
0000
,
0110
0000
0000
0000
,
1001
0000
0000
0000
,
0110
0000
0000
0000
,
0001
0000
1000
0000
,
0100
0000
0010
0000
,
0002
0003
2000
3000
,
0020
0030
0200
0300
,
0010
0000
1000
0000
,
0100
0000
0001
0000
,
0020
0030
0200
0300
,
0020
0030
0000
0000
,
1000
0000
0001
0000
,
0100
0000
0100
0000
,
0001
0000
1000
0000
,
0100
0000
0010
0000
,
0001
0000
1000
0000
,
0010
0000
0010
0000
,
1000
0000
0000
0000
0001
0000
0000
0100
,
0000
0100
0000
0100
0000
0000
0000
0000
;
