#TITLE:Night Trip;
#SUBTITLE:;
#ARTIST:encX;
#TITLETRANSLIT:;
#SUBTITLETRANSLIT:;
#ARTISTTRANSLIT:;
#GENRE:Electro House;
#CREDIT:Telperion;
#BANNER:[Round 4 Singles & Round 3 Doubles] - Night Trip.png;
#BACKGROUND:[Round 4 Singles & Round 3 Doubles] - Night Trip-bg.png;
#JACKET:[Round 4 Singles & Round 3 Doubles] - Night Trip-jacket.png;
#LYRICSPATH:;
#CDTITLE:cdtitle.png;
#MUSIC:Night Trip.ogg;
#OFFSET:-0.581;
#SAMPLESTART:17.061;
#SAMPLELENGTH:14.637;
#SELECTABLE:YES;
#DISPLAYBPM:131;
#BPMS:0=131
;
#STOPS:
;
#BGCHANGES:;
#KEYSOUNDS:;
#ATTACKS:;

//---------------dance-double - Telperion----------------
#NOTES:
     dance-double:
     Telperion:
     Hard:
     8:
     0.526005,0.528283,0.153064,0.263610,0.348645,384.000000,18.000000,31.000000,0.000000,0.000000,0.000000,0.526005,0.528283,0.153064,0.263610,0.348645,384.000000,18.000000,31.000000,0.000000,0.000000,0.000000:
00000000
00000000
00000000
00000000
,
00000000
00000000
00000000
00000000
,
00000000
00000000
00000000
00000000
,
00000000
00000000
00000000
00000000
,
00001000
00000000
00000000
00100000
00001000
00000000
00010000
00000000
00000000
00000000
00000000
00000010
00010000
00000000
00001000
00000000
,
00100000
00000000
00000000
00100000
00001000
00000000
00010000
00000000
00001000
00100000
00000000
00000000
00110000
00000000
00000000
00000000
,
00010000
00000000
00000000
00010000
10000000
00000000
00100000
00000000
00000000
00000000
00000000
00100000
10000000
00000000
00010000
00000000
,
00100000
00000000
00000000
00100000
01000000
00000000
00100000
00000000
00010000
00100000
00000000
00000000
01100000
00000000
01000000
00000000
,
10000000
00000000
00000000
01000000
00000000
00000000
00010000
00000000
00000000
00001000
00000000
00000000
00000010
00000000
00000100
00000000
00001000
00000000
00000010
00000000
00000000
00000100
00000000
00000000
,
00000101
00000000
00000000
00000000
00000100
00000000
00000010
00000000
00010000
00000000
00000001
00001000
00000001
00000000
00000010
00000000
,
00000100
00000000
00000000
00000000
00000000
00000000
00000000
00000000
00000000
00000000
00000000
00000000
00000100
00000000
00000000
00000000
00000000
00000000
00000000
00000000
00000000
00000000
00000000
00000000
00010000
00000000
00000000
00001000
00000000
00000000
00000000
00000000
00000000
00010000
00000000
00000000
00000100
00000000
00000000
00000000
00001000
00000000
00000000
00000000
00000100
00000000
00000000
00000000
,
00000010
00000000
00000000
00000001
00000010
00000000
00000100
00000000
00010000
00001000
00000000
00000000
00010000
00000000
00000100
00000000
,
00001000
00000001
00000100
00000010
00000100
00001000
00010000
00001000
00100000
02000000
00000000
00000000
,
13000000
00000000
10000000
00010000
00000000
00000000
01000000
00000000
00001000
00000000
00100000
00000000
00001000
00000000
01000000
00000000
,
00010000
00000000
10000000
00100000
00000000
00000000
00100000
00010000
00000000
00000000
00010000
00001000
00000000
00000000
00001000
00100000
,
00000000
00000000
01000000
00100000
00000000
00000000
00100000
00001000
00000000
00000000
00010000
00001000
00000000
00000000
00001000
00000000
,
00000200
00000300
00000100
00000001
00000020
00000030
00000200
00000000
,
00020300
00001000
00000100
00001000
,
00030020
00001000
00000100
00001000
,
00020030
00001000
00000100
00001000
,
01030000
00010000
00002000
00000000
01000000
00000000
00003100
00001000
,
00010000
00000100
00001000
00000100
00000010
00001000
00000010
00000100
,
00010000
00000100
00010000
00001000
00010000
00100000
01000000
00100000
,
10000000
00010000
10000000
01000000
10000000
00010000
00100000
00001000
00010000
00000010
00001000
00000001
,
00000100
00000000
00000000
00000010
,
00000000
00000000
00000000
00000000
00000000
00000000
00000020
00000030
,
00001002
00000000
00000103
00000010
00001010
00001000
00000001
00000010
,
00000210
00000000
00001300
00000100
00010100
00010000
00001000
00100000
,
00120000
00000000
10030000
00100000
01100000
00100000
01000000
00010000
,
02010000
00000000
13000000
01000000
00100000
00010000
00001000
00000010
,
00000002
00000000
00001003
00000100
00010100
00010000
00000010
00000010
,
00000200
00000000
00000000
00000000
00000301
00000000
00001000
00000001
00000000
00000000
00001000
00000100
00000000
00000000
00000100
00010000
,
00000000
00000000
00010000
00000000
00001000
00000000
00100000
00001000
00000000
00000000
00001000
01000000
00000000
00000000
01000000
00010000
,
01000000
00000000
00000000
00000000
00000000
00000000
00000000
00000000
01100000
00000000
00000000
10000000
00010000
00000000
00100000
00000000
,
11000000
00000000
00000000
00000000
01000000
00000000
00100000
00000000
00001000
00000000
10000000
00010000
10000000
00000000
00100000
00000000
,
01000000
00000000
00000000
00000000
01000000
00000000
00001000
00000000
00001000
00000000
00010000
00001000
00000000
00000000
00100000
00000000
,
02000000
00000000
00000000
00000000
13000000
00000000
00100000
00000000
01000000
00000000
00001000
00010000
00000000
00000000
00001000
00000000
,
00100000
00000000
00000000
00000000
00000000
00000000
00000000
00000000
00010000
00000000
00000000
00000000
10000000
00000000
00000000
00010000
00000000
00000000
00100000
00000000
00000000
00001000
00000000
00000000
00010000
00000000
00000000
00000010
00000000
00000000
00001000
00000000
,
00000200
00000000
00000300
00000000
00000100
00000000
00010000
00001000
00000000
00000000
00001000
00000100
00000000
00000000
00000010
00000000
,
00002000
00000000
00003000
00000000
00000001
00000000
00000001
00000000
00000000
00000010
00000000
00000010
00000100
00000000
00020000
00000000
,
00030000
00000000
00000000
00000000
00001000
00000000
00010000
00000000
00001000
00000000
01000000
00010000
00000000
00000000
00010000
00000000
,
00000000
10000000
00000000
00100000
00000000
00000000
00010000
00000000
00000000
00001000
00010000
00001000
00010000
00000000
00000100
00000000
,
00000020
00000000
00000001
00000000
00000100
00000000
00001030
00010000
,
00002000
00000000
00000100
00000000
00010000
00000000
00103000
00010000
,
00200000
00000000
01000000
00000000
10000000
00000000
01300000
10000000
,
02000000
00000000
00010000
00000000
00100000
00000000
13000000
00010000
,
00000000
10000000
00010000
01000000
00000000
01000000
00001000
00010000
,
00000000
00000010
00001000
00000001
00000000
00000010
00000100
00010000
,
00000000
00001000
01000000
00100000
00000000
10000000
00100000
00010000
,
00002000
00000010
00000000
00100000
00000000
01000000
00000000
00000100
,
00000000
01000000
00000000
00100000
00000000
00000010
00000000
00010000
,
00003000
00000000
00000000
00000000
00000000
00000000
00000000
00000000
00000000
00000000
00000000
00000000
00000000
00000000
00000000
00000000
00001000
00000000
00000000
00000000
00000000
00000000
00000000
00000000
00000000
00000000
00000000
00000000
00000000
00000000
00000000
00000000
00010000
00000000
00000000
00000000
00000000
00000000
00000000
00000000
00000000
00000000
00000000
00000000
00000000
00000000
00000000
00000000
00001000
00000000
00000000
00000000
00000000
00000000
00000000
00000000
00000000
00000000
00000000
00000000
00000000
00000000
00000000
00000000
00000000
00000000
00000000
00000000
00000000
00000000
00000000
00000000
00000000
00000000
00000000
00000000
00000000
00000000
00010000
00000000
00000000
00000000
00000000
00000000
00000000
00000000
00000000
00000000
00000000
00000000
00000000
00000000
00000000
00000000
00000000
00000000
00000000
00000000
00000000
00000000
00000000
00000000
00000000
00000000
00000000
00000000
00000000
00000000
00001000
00000000
00000000
00000000
00000000
00000000
00000000
00000000
00000000
00000000
00000000
00000000
00000000
00000000
00000000
00000000
00000000
00000000
00000000
00000000
00000000
00000000
00000000
00000000
00000000
00000000
00000000
00000000
00000000
00000000
00000000
00000000
00000000
00000000
00000000
00000000
00010000
00000000
00000000
00000000
00000000
00000000
00000000
00000000
00000000
00000000
00000000
00000000
00000000
00000000
00000000
00000000
00000000
00000000
00000000
00000000
00000000
00000000
00000000
00000000
00000000
00000000
00000000
00000000
00000000
00000000
00000000
00000000
00000000
00000000
00000000
00000000
00000000
00000000
00000000
00000000
00000000
00000000
00000000
00000000
00000000
00000000
00000000
00000000
,
00001000
00000000
00000000
00000000
00000000
00000000
00000000
00020000
,
00000000
00030000
00000000
00002000
00100000
00003000
00000000
00010000
,
00011000
00000000
00000000
00000000
00000010
00000000
00001000
00000000
00000001
00000000
00010000
00000100
00010000
00000000
00000001
00000000
,
00000200
00000000
00000000
00000000
00000000
00000000
00000000
00000000
00000000
00000000
00000000
00000000
00002300
00000000
00000000
00000000
00000000
00000000
00000000
00000000
00000000
00000000
00000000
00000000
00003000
00000000
00000000
00010000
00000000
00000000
00000000
00000000
00000000
00001000
00000000
00000000
01000000
00000000
00000000
00000000
00010000
00000000
00000000
00000000
01000000
00000000
00000000
00000000
,
00001000
00000000
00000000
00010000
00000010
00000000
00010000
00000000
00001000
00000000
00000000
00001000
00100000
00000000
00010000
00000000
,
20000000
00000000
00000000
30010000
00000000
01000000
00100000
01000000
00002000
00000000
00000000
00003000
00110000
00000000
00000000
00000000
,
10000000
00000000
00010000
10000000
00000000
00000000
00100000
00000000
00010000
00000000
00100000
00000000
10000000
00000000
00100000
00000000
,
01000000
00000000
00010000
10000000
00000000
00000000
10000000
01000000
00000000
00000000
01000000
00100000
00000000
00000000
00100000
00000000
,
00001000
00010000
01000000
00010000
00001000
00000100
00000010
00001000
,
00000001
00000000
00000000
00000000
00001001
00000000
00001000
00000000
00001100
00000000
00000000
00010100
00000000
00000000
00010000
00000000
,
00200000
00300000
00000000
00000000
00000000
00000000
00000000
00000000
;

//---------------dance-single - Telperion----------------
#NOTES:
     dance-single:
     Telperion:
     Medium:
     5:
     0.330424,0.395415,0.034014,0.119050,0.012755,254.000000,4.000000,14.000000,0.000000,0.000000,0.000000,0.330424,0.395415,0.034014,0.119050,0.012755,254.000000,4.000000,14.000000,0.000000,0.000000,0.000000:
0000
0000
0000
0000
,
0000
0000
0000
0000
,
0000
0000
0000
0000
,
0000
0000
0000
0000
,
1000
0001
0000
0100
0000
0001
0000
0100
,
0001
1000
0000
0100
0000
1000
0000
0100
,
0010
0001
0000
1000
0000
0001
0000
1000
,
0010
0100
0000
0010
0000
0100
0000
0010
,
1000
0001
0001
0001
0020
0000
0130
0000
,
1100
1000
0001
0001
,
0100
0100
0010
0100
,
0001
0001
1000
1000
,
0200
0000
0000
0010
,
1300
0000
1000
0000
0001
0100
0001
0000
,
1000
0010
0100
0001
,
0000
0010
0000
0100
0000
1000
0000
0001
,
1000
0000
1000
0100
0020
0000
0130
0000
,
1000
0001
1000
0001
,
1000
0100
1000
0100
,
0010
0001
0010
0001
,
1000
0001
1000
0000
0001
0000
1000
0001
,
1000
0010
0000
0010
0000
0100
0000
0100
,
0000
0001
0000
0001
0000
0010
0000
0010
,
0100
0010
0100
1000
0001
1000
0001
0100
,
0001
0000
0000
0010
,
0000
0000
0000
0100
,
1010
0000
0010
0100
0001
0100
0001
1000
,
0100
0000
0010
0100
1000
0100
1000
0001
,
0100
0000
0010
0010
0100
0010
1000
0001
,
0010
0000
1000
0010
0001
1000
0010
0100
,
0001
0000
0001
0100
0001
1000
0001
0010
,
0001
0000
0001
0001
1000
0100
1000
0001
,
1000
0000
0010
0010
0100
0010
0100
0001
,
1000
0000
0010
0100
,
0001
0000
0001
0000
1000
1000
0000
1000
,
0100
0000
0100
0000
0010
0010
0000
0100
,
1000
0000
1000
0000
0001
0001
0000
0001
,
0100
0020
0000
0000
,
0130
0000
0001
0000
0100
0001
0100
0000
,
0010
0000
0010
0000
1000
0010
2000
0000
,
3000
0000
0001
0000
0010
0001
0010
0000
,
0000
0100
0000
0100
0000
0000
0000
0000
0010
0000
0001
0000
1000
0000
0000
0000
,
0020
0100
1000
0100
,
2030
0010
0001
0010
,
3002
1000
0010
1000
,
0023
0000
0001
0000
0100
0000
0031
0010
,
0000
0001
0000
0001
0000
1000
0000
1000
,
0000
0010
0000
0010
0000
0100
0000
0100
,
0000
0001
0000
0001
0000
1000
0001
0010
,
0200
0000
0000
0000
,
0000
0000
0000
0000
,
0000
0000
0000
0000
,
0300
0000
0000
0000
0000
0000
0000
2001
,
0000
3000
0000
0020
0100
0030
0000
0100
,
0001
0001
1000
1000
,
0100
0100
0010
0100
,
1000
1000
0001
0001
,
0200
0000
0000
0300
0000
0000
0001
0000
0200
0000
0300
0000
1010
0000
0000
0000
,
0001
0000
0001
0000
1000
0010
1000
0000
,
0001
0010
0100
1000
,
0000
0010
0000
0100
0000
0001
0000
1000
,
0100
0000
0000
0000
0100
0000
0000
0000
0010
0000
0000
0100
0000
0000
0010
0000
,
0001
0000
0000
0000
;

//---------------dance-single - Telperion----------------
#NOTES:
     dance-single:
     Telperion:
     Easy:
     3:
     0.212589,0.237249,0.144560,0.042518,0.000000,153.000000,17.000000,5.000000,0.000000,0.000000,0.000000,0.212589,0.237249,0.144560,0.042518,0.000000,153.000000,17.000000,5.000000,0.000000,0.000000,0.000000:
0000
0000
0000
0000
,
0000
0000
0000
0000
,
0000
0000
0000
0000
,
0000
0000
0000
0000
,
1000
1000
0001
0001
,
0100
0001
0100
0000
,
0001
0001
1000
1000
,
0100
0010
0100
0000
,
1001
0000
0000
0100
,
1001
0000
0001
0100
,
0001
0000
1000
0010
,
1000
0000
0001
0010
,
0200
0000
0000
0300
,
1001
0000
1000
0010
,
1000
0000
0001
0010
,
0100
0000
0100
0000
,
1000
0000
0001
1000
,
1001
0000
0001
0000
,
1000
0000
1000
0000
,
0001
0000
0001
0000
,
1000
1000
0000
1000
,
1000
0001
0100
0001
,
1000
0001
0100
0001
,
1000
0100
0010
0001
,
0010
0000
0000
0000
,
0000
0000
0000
0000
,
0110
0000
0100
1000
,
1001
0000
0001
0100
,
0110
0000
0100
0001
,
0020
0030
0001
0100
,
0110
0000
0100
0001
,
1001
1000
0001
0010
,
0110
0100
1000
0001
,
1001
0000
0010
0100
,
1001
0000
0001
0100
,
0100
0000
1000
0100
,
0100
0000
0001
0010
,
0010
2000
0000
0000
,
3001
0000
1000
0100
,
0100
0000
0001
0100
,
0000
0100
1000
0100
,
0000
0010
0000
0010
,
1001
0000
0001
0001
,
0001
0000
1000
1000
,
1000
0000
0100
0100
,
0100
0000
0010
0010
,
0000
0001
0000
0001
,
0000
1000
0000
1000
,
0000
0010
0010
0000
,
0200
0000
0000
0000
,
0000
0000
0000
0000
,
0000
0000
0000
0000
,
0300
0000
0000
0000
,
0000
0000
0000
0000
,
1001
0000
1000
0100
,
1000
1000
0001
0010
,
0001
0001
1000
0010
,
0200
0000
0000
0300
,
1001
0000
0001
0010
,
0001
0001
1000
0010
,
0100
0100
0001
0001
,
1000
0001
0110
0000
,
1001
0000
0000
0000
;

//---------------dance-single - Telperion----------------
#NOTES:
     dance-single:
     Telperion:
     Beginner:
     1:
     0.071673,0.105444,0.059525,0.008504,0.000000,51.000000,7.000000,1.000000,0.000000,0.000000,0.000000,0.071673,0.105444,0.059525,0.008504,0.000000,51.000000,7.000000,1.000000,0.000000,0.000000,0.000000:
// measure 0
0000
0000
0000
0000
,  // measure 1
0000
0000
0000
0000
,  // measure 2
0000
0000
0000
0000
,  // measure 3
0000
0000
0000
0000
,  // measure 4
0001
0000
0000
0000
,  // measure 5
0000
0000
0000
0000
,  // measure 6
1000
0000
0000
0000
,  // measure 7
0000
0000
0000
0000
,  // measure 8
0010
0000
0000
0000
,  // measure 9
0010
0000
0000
0000
,  // measure 10
0100
0000
0000
0000
,  // measure 11
0001
0000
0000
0000
,  // measure 12
1000
0000
0000
0000
,  // measure 13
0010
0000
0000
0000
,  // measure 14
0100
0000
0000
0000
,  // measure 15
0001
0000
0000
0000
,  // measure 16
1000
0000
0000
0000
,  // measure 17
1001
0000
0000
0000
,  // measure 18
0000
0000
0000
0000
,  // measure 19
0001
0000
0000
0000
,  // measure 20
1000
0000
0000
0000
,  // measure 21
0100
0000
0000
0000
,  // measure 22
0100
0000
0000
0000
,  // measure 23
0100
0000
0100
0000
,  // measure 24
0100
0000
0000
0000
,  // measure 25
0000
0000
0000
0000
,  // measure 26
1001
0000
0000
0000
,  // measure 27
0001
0000
0000
0000
,  // measure 28
1001
0000
0000
0000
,  // measure 29
1000
0000
0000
0000
,  // measure 30
1001
0000
0000
0000
,  // measure 31
0001
0000
0000
0000
,  // measure 32
1001
0000
0000
0000
,  // measure 33
0100
0000
0000
0000
,  // measure 34
1000
0000
0000
0000
,  // measure 35
1000
0000
0000
0000
,  // measure 36
0001
0000
0000
0000
,  // measure 37
0001
0000
0000
0000
,  // measure 38
0010
0000
0000
0000
,  // measure 39
0100
0000
0000
0000
,  // measure 40
0001
0000
0000
0000
,  // measure 41
1000
0000
0000
0000
,  // measure 42
1001
0000
0000
0000
,  // measure 43
0000
0000
0000
0000
,  // measure 44
1000
0000
0000
0000
,  // measure 45
0000
0000
0000
0000
,  // measure 46
0001
0000
0000
0000
,  // measure 47
0001
0000
0000
0000
,  // measure 48
0010
0000
0010
0000
,  // measure 49
0020
0000
0000
0000
,  // measure 50
0000
0000
0000
0000
,  // measure 51
0000
0000
0000
0000
,  // measure 52
0030
0000
0000
0000
,  // measure 53
0000
0000
0000
0000
,  // measure 54
0010
0000
0000
0000
,  // measure 55
0100
0000
0000
0000
,  // measure 56
1000
0000
0000
0000
,  // measure 57
0001
0000
0000
0000
,  // measure 58
0010
0000
0000
0000
,  // measure 59
0100
0000
0000
0000
,  // measure 60
1000
0000
0000
0000
,  // measure 61
0001
0000
0000
0000
,  // measure 62
1001
0000
0000
0000
;

//---------------dance-single - Telperion----------------
#NOTES:
     dance-single:
     Telperion:
     Hard:
     8:
     0.521146,0.527220,0.144560,0.246603,0.348645,383.000000,17.000000,29.000000,0.000000,0.000000,0.000000,0.521146,0.527220,0.144560,0.246603,0.348645,383.000000,17.000000,29.000000,0.000000,0.000000,0.000000:
0000
0000
0000
0000
,
0000
0000
0000
0000
,
0000
0000
0000
0000
,
0000
0000
0000
0000
,
0001
0000
0000
1000
0001
0000
0010
0000
0000
0000
0000
0001
1000
0000
0010
0000
,
0100
0000
0000
0100
0001
0000
1000
0000
0001
0010
0000
0000
0010
0000
0000
0000
,
0001
0000
0000
0001
1000
0000
0010
0000
0000
0000
0000
1000
0001
0000
0010
0000
,
0100
0000
0000
0100
1000
0000
0100
0000
0010
0100
0000
0000
1000
0000
0001
0000
,
0100
0000
0000
0010
0000
0000
0010
0000
0000
0010
0000
0000
0001
0000
0010
0000
1000
0000
0001
0000
0000
0100
0000
0000
,
1010
0000
0000
0000
0010
0000
0100
0000
0001
0000
1000
0100
1000
0000
0010
0000
,
0100
0000
0000
0000
0000
0000
0000
0000
0000
0000
0000
0000
0100
0000
0000
0000
0000
0000
0000
0000
0000
0000
0000
0000
0001
0000
0000
0010
0000
0000
0000
0000
0000
0001
0000
0000
1000
0000
0000
0000
0100
0000
0000
0000
1000
0000
0000
0000
,
0001
0000
0000
0100
0001
0000
1000
0000
0100
1000
0000
0000
0001
0000
0100
0000
,
0010
0100
0010
1000
0001
0010
0100
0001
0100
2000
0000
0000
,
3001
0000
1000
0100
0000
0000
1000
0000
0010
0000
0001
0000
0010
0000
1000
0000
,
0001
0000
0100
0001
0000
0000
0001
0010
0000
0000
0010
0100
0000
0000
0100
1000
,
0000
0000
0010
0100
0000
0000
0100
0001
0000
0000
0010
0100
0000
0000
0100
0000
,
2000
3000
0001
0010
2000
3000
0020
0000
,
0032
1000
0100
1000
,
0023
0100
1000
0100
,
0032
0010
1000
0100
,
1003
0010
0200
0000
1000
0000
0310
0100
,
0001
1000
0001
0010
0100
0010
0001
0010
,
0100
1000
0001
0100
0010
1000
0001
1000
,
0010
0100
0010
1000
0001
1000
0010
0100
0001
1000
0100
0010
,
0001
0000
0000
0010
,
0000
0000
0000
0000
0000
0000
0020
0030
,
2100
0000
3010
0100
0101
0001
0010
0100
,
0120
0000
0031
1000
1010
0010
0100
0001
,
0201
0000
0310
1000
1100
0001
1000
0001
,
0021
0000
1030
0010
0001
1000
0100
0010
,
0002
0000
0103
0010
1010
1000
0001
0001
,
0200
0000
0000
0000
0301
0000
1000
0001
0000
0000
1000
0100
0000
0000
0100
0010
,
0000
0000
0001
0000
0010
0000
0001
1000
0000
0000
1000
0010
0000
0000
0100
0001
,
0100
0000
0000
0000
0000
0000
0000
0000
0110
0000
0000
1000
0001
0000
0010
0000
,
1100
0000
0000
0000
0100
0000
0010
0000
0010
0000
0001
0010
0000
0000
0001
0000
,
0200
0000
0000
0000
0301
0000
1000
0000
0100
0000
0010
0001
0000
0000
0010
0000
,
0200
0000
0000
0000
1300
0000
0010
0000
0100
0000
0010
1000
0000
0000
0001
0000
,
0100
0000
0000
0000
0000
0000
0000
0000
0010
0000
0000
0000
1000
0000
0000
0001
0000
0000
1000
0000
0000
0001
0000
0000
1000
0000
0000
0001
0000
0000
1000
0000
,
0200
0000
0300
0000
0100
0000
0010
0001
0000
0000
0001
1000
0000
0000
0010
0000
,
0200
0000
0300
0000
0001
0000
0001
0000
0000
1000
0000
1000
0100
0000
0002
0000
,
0003
0000
0000
0000
0100
0000
0010
0000
0100
0000
1000
0001
0000
0000
0001
0000
,
0000
0100
0000
0001
0000
0000
1000
0000
0000
0100
0010
0100
1000
0000
0001
0000
,
0200
0000
0010
0000
1000
0000
0310
0100
,
0002
0000
1000
0000
0100
0000
1003
0001
,
0020
0000
0100
0000
1000
0000
0130
0010
,
0002
0000
1000
0000
0100
0000
1003
0100
,
0000
1000
0100
0010
0000
0100
0010
0001
,
0000
1000
0001
0100
0000
0010
1000
0001
,
0000
0010
0100
1000
0000
0010
0100
0001
,
0020
0100
0000
1000
0000
0001
0000
0100
,
0000
0001
0000
1000
0000
0100
0000
0001
,
0030
0000
0000
0000
0000
0000
0000
0000
0000
0000
0000
0000
0000
0000
0000
0000
1000
0000
0000
0000
0000
0000
0000
0000
0000
0000
0000
0000
0000
0000
0000
0000
0001
0000
0000
0000
0000
0000
0000
0000
0000
0000
0000
0000
0000
0000
0000
0000
1000
0000
0000
0000
0000
0000
0000
0000
0000
0000
0000
0000
0000
0000
0000
0000
0000
0000
0000
0000
0000
0000
0000
0000
0000
0000
0000
0000
0000
0000
0001
0000
0000
0000
0000
0000
0000
0000
0000
0000
0000
0000
0000
0000
0000
0000
0000
0000
0000
0000
0000
0000
0000
0000
0000
0000
0000
0000
0000
0000
1000
0000
0000
0000
0000
0000
0000
0000
0000
0000
0000
0000
0000
0000
0000
0000
0000
0000
0000
0000
0000
0000
0000
0000
0000
0000
0000
0000
0000
0000
0000
0000
0000
0000
0000
0000
0001
0000
0000
0000
0000
0000
0000
0000
0000
0000
0000
0000
0000
0000
0000
0000
0000
0000
0000
0000
0000
0000
0000
0000
0000
0000
0000
0000
0000
0000
0000
0000
0000
0000
0000
0000
0000
0000
0000
0000
0000
0000
0000
0000
0000
0000
0000
0000
,
1000
0000
0000
0000
0000
0000
0000
0002
,
0000
0003
0000
2000
0010
3000
0000
0001
,
0011
0000
0000
0000
0010
0000
0100
0000
1000
0000
0001
0100
0001
0000
0010
0000
,
0100
0000
0000
0000
0000
0000
0000
0000
0000
0000
0000
0000
0100
0000
0000
0000
0000
0000
0000
0000
0000
0000
0000
0000
1000
0000
0000
0010
0000
0000
0000
0000
0000
1000
0000
0000
0001
0000
0000
0000
0100
0000
0000
0000
0001
0000
0000
0000
,
1000
0000
0000
0100
1000
0000
0001
0000
0100
0001
0000
0000
1000
0000
0100
0000
,
0020
0000
0030
0010
0000
0001
1000
0100
0020
0000
0000
0030
1001
0000
0000
0000
,
0001
0000
1000
0010
0000
0000
1000
0000
0001
0000
0100
0000
1000
0000
0100
0000
,
0001
0000
0010
0001
0000
0000
0001
1000
0000
0000
1000
0010
0000
0000
0010
0000
,
0100
1000
0100
0010
0001
1000
0100
0001
,
0010
0000
0000
0000
0110
0000
0000
0000
1100
0000
0000
1001
0000
0000
0100
0000
,
0110
0000
0000
0000
;

//---------------dance-double - Telperion----------------
#NOTES:
     dance-double:
     Telperion:
     Medium:
     7:
     0.363223,0.422626,0.076532,0.102043,0.063777,278.000000,9.000000,12.000000,0.000000,0.000000,0.000000,0.363223,0.422626,0.076532,0.102043,0.063777,278.000000,9.000000,12.000000,0.000000,0.000000,0.000000:
00000000
00000000
00000000
00000000
,
00000000
00000000
00000000
00000000
,
00000000
00000000
00000000
00000000
,
00000000
00000000
00000000
00000000
,
00001000
00000000
00000000
00100000
00000000
00000000
00001000
00000000
00000000
00000000
00000000
00100000
00000000
00000000
00001000
00000000
,
00010000
00000000
00000000
00000100
00000000
00000000
00010000
00000000
00000000
00001000
00000000
00000000
00011000
00000000
00000000
00000000
,
00010000
00000000
00000000
00000010
00000000
00000000
00010000
00000000
00000000
00000000
00000000
00000010
00000000
00000000
00010000
00000000
,
00001000
00000000
00000000
00100000
00000000
00000000
00010000
00000000
00000000
00100000
00000000
00000000
00001000
00000000
00010000
00000000
,
00000010
00000100
00000100
00000100
00000002
00000000
00001003
00000000
,
00000011
00000000
00000100
00000000
00001000
00000010
00001000
00000001
,
00000100
00000000
00000000
00001000
00000000
00000000
00010000
00000000
00000000
00001000
00010000
00001000
,
00100000
00010000
00100000
01000000
,
20000000
00000000
00000000
30001000
,
00110000
00000000
10000000
00000000
00100000
01000000
00100000
10000000
,
00000000
00010000
01000000
00001000
00000000
00010000
00000010
00001000
,
00000000
00000100
00000010
00000100
00000000
00001000
00000100
00010000
,
00001000
00000000
00010000
00000010
00000200
00000000
00000302
00000000
,
00000013
00000100
00000001
00000100
,
00001000
00010000
00100000
00010000
,
01000000
00100000
10000000
00100000
,
00010000
00001000
00010000
00000000
00000010
00000000
00001000
00000010
,
00000100
00000001
00000100
00000001
00000100
00000010
00000100
00000010
,
00001000
00000010
00001000
00000010
00010000
00000010
00010000
00000010
,
00010000
00001000
00100000
00001000
00100000
00010000
00100000
01000000
,
10000000
00000000
00000000
00100000
,
00000000
00000000
00000000
00000000
00000000
00000000
20000000
30000000
,
00001000
00000000
00010000
00000000
00100000
00000000
10000000
00100000
,
00010000
00000000
00001000
00000000
00000010
00000000
00000001
00000010
,
00001000
00000000
00010000
00000000
01000000
00000000
10000000
01000000
,
00100000
00000000
00001000
00000000
00010000
00000100
00001000
00000010
,
00010000
00000000
00001000
00010000
00100000
00000000
10000000
00100000
,
01000000
00001000
00000100
00000001
,
00001000
00000000
00000001
00000010
00000100
00000000
00010000
00000000
,
00001000
00000000
01000000
00001000
,
00011000
00000000
00100000
00000000
00010000
00000000
10000000
00010000
,
01000000
00000000
00001000
00000000
00010000
00000000
00000010
00001000
,
00000100
00000000
00010000
00000000
00001000
00000000
00100000
00010000
,
01000000
20000000
00000000
00000000
,
31000000
00000000
00010000
01000000
00010000
00100000
00010000
01000000
,
00001000
00000000
00010000
00000100
00010000
00000010
00020000
00000100
,
00030000
00001000
00011000
01000000
,
00000000
00001000
00000000
00001000
00000000
00000000
00010000
00000000
00000000
00000000
00001000
00000000
00010000
00000000
00001000
00000000
,
00100000
01000000
00100000
10000000
,
00010000
01000000
00010000
00001000
,
00000010
00000100
00000010
00000001
,
00000100
00001000
00010000
00100000
,
00000000
10000000
00000000
00100000
00000000
01000000
00000000
00010000
,
00000000
00100000
00000000
00001000
00000000
00010000
00000000
00000010
,
00000000
00001000
00000000
00000001
00000000
00000010
00000000
00000100
,
00020000
00001000
00000000
00000100
00000000
00001000
00000000
01000000
,
00000000
00001000
00000000
00000100
00000000
00001000
00000000
00000010
,
00000000
00002000
00000000
00000000
00000000
00000000
00000000
00000000
,
00033000
00000000
00000000
00000000
00000000
00000000
00000000
00002000
,
00000000
00003000
00000000
00020000
00000010
00030000
00000000
00001000
,
00011000
00000000
01000000
00000000
00010000
01000000
00010000
10000000
,
01000000
00000000
00000000
00010000
00000000
00000000
00001000
00000000
00000000
00010000
00001000
00010000
,
00000010
00001000
00000010
00000100
,
00000001
00000000
00000000
00001100
,
00000001
00000000
00000001
00000000
00000010
00001000
00000010
00000001
,
00000000
00001000
00000100
00010000
00000000
00001000
00100000
00010000
,
10000000
00010000
01000000
00001000
00100000
00000010
00010000
00000100
,
00001000
00000000
00000000
00000000
00000001
00000000
00000000
00000000
00001100
00000000
00000000
00010000
00000000
00000000
00001000
00000000
,
00012000
00003000
00000000
00000000
00000000
00000000
00000000
00000000
;

//---------------dance-double - Telperion----------------
#NOTES:
     dance-double:
     Telperion:
     Easy:
     6:
     0.359579,0.422626,0.034014,0.161567,0.012755,273.000000,4.000000,19.000000,0.000000,0.000000,0.000000,0.359579,0.422626,0.034014,0.161567,0.012755,273.000000,4.000000,19.000000,0.000000,0.000000,0.000000:
00000000
00000000
00000000
00000000
,
00000000
00000000
00000000
00000000
,
00000000
00000000
00000000
00000000
,
00000000
00000000
00000000
00000000
,
00001000
00010000
00000000
00000100
00000000
00001000
00000000
00000100
,
00010000
00001000
00000000
01000000
00000000
00001000
00000000
00100000
,
00010000
00100000
00000000
00001000
00000000
00010000
00000000
00000010
,
00001000
00000010
00000000
00000100
00000000
00000001
00000000
00001000
,
00000010
00010000
00000100
00001000
00020000
00000000
00031000
00000100
,
00010000
00000000
00010000
00000000
00001000
00000000
01000000
00010000
,
00100000
00000000
00100000
00000000
01000000
00000000
10000000
01000000
,
00010000
00010000
00001000
00010000
,
00000020
00000000
00000000
00000001
,
00001030
00000000
00001000
00000000
00000100
00001000
00000100
00001000
,
00000001
00000000
00000010
00000000
00001000
00000000
00010000
00001000
,
00010000
00000000
00100000
00000000
10000000
00000000
01000000
10000000
,
00100000
10000000
00001000
10000000
,
02000000
00100000
10000000
00100000
,
03020000
01000000
10000000
01000000
,
00032000
00010000
00100000
01000000
,
00013000
00001000
00020000
00000000
00000010
00000000
00031000
00010000
,
00000010
00001000
00000100
00001000
00000010
00010000
00000100
00010000
,
00001000
00100000
00010000
01000000
00010000
00100000
00010000
10000000
,
00100000
01000000
00000000
00001000
00000000
00010000
00000000
00000100
,
00001000
00000000
00000000
00000001
,
00000000
00000000
00000000
00000000
00000000
00000000
00000002
00000003
,
00010000
00000000
00001000
00001000
00010000
00000100
00010000
00000010
,
00002000
00003000
00000100
00000100
00001000
00000100
00010000
00001000
,
00200000
00300000
00010000
00010000
00100000
00010000
01000000
00001000
,
00020000
00030000
00000010
00001000
00000100
00000010
00000001
00000010
,
00000200
00000300
00010000
00010000
00001000
01000000
00001000
00100000
,
00020000
00030000
10000000
10000000
00100000
00100000
01000000
01000000
,
00020000
00030000
10000000
00100000
10000000
00010000
01000000
00001000
,
00100000
00000000
00001000
01000000
,
00011000
00000000
00001000
00000000
00010000
00010000
00000000
00000010
,
00001000
00000000
00001000
00000000
00000001
00000001
00000000
00000010
,
00000100
00000000
00000100
00000000
00001000
00001000
00000000
00000100
,
00010000
00000000
00010000
00002000
00000000
00000000
00000000
00000000
,
00013000
00000000
00010000
00001000
00000000
00001000
00000000
00100000
,
00010000
00000000
00010000
10000000
00000000
10000000
00000000
00100000
,
00000000
01010000
00010000
01000000
,
00000000
00001000
00000000
00001000
00000000
00000000
00000000
00000000
01000000
00000000
00000000
00000000
00001000
00000000
00000000
00000000
,
00011000
00000000
00001000
00000000
00000100
00000000
00010000
00001000
,
00010000
00000000
00010000
00000000
01000000
00000000
00001000
00010000
,
00001000
00000000
00001000
00000000
00000010
00000000
00010000
00001000
,
00010000
00000000
00010000
00000000
00100000
00000000
00001000
00010000
,
00000000
00000100
00000000
00001000
00000000
00000010
00000000
00000100
,
00000000
00000001
00000000
00001000
00000000
00000100
00000000
00010000
,
00000000
00001000
00000000
00100000
00000000
00010000
00000000
10000000
,
00200000
01000000
00000000
10000000
00000000
01000000
00000000
00010000
,
00000000
01000000
00000000
10000000
00000000
01000000
00000000
10000000
,
00000000
00000000
00000000
00000000
,
00300000
00000000
00000000
00000000
00000000
00000000
00000000
20000000
,
00000000
30000000
00000000
00020000
00100000
00030000
00000000
01000000
,
00001000
00000000
00001000
00000000
00010000
00000000
00000100
00001000
,
00000010
00000000
00000010
00000000
00000100
00000000
00000001
00000100
,
00001000
00001000
00010000
00001000
,
00100000
00000000
00000000
21000000
,
30010000
00000000
00010000
00000000
01000000
00010000
01000000
00010000
,
10000000
00100000
00010000
00001000
,
00000010
00000100
00001000
00000001
,
00000100
00000000
00000000
00000000
00000100
00000000
00000000
00000000
00000010
00000000
00000000
00001000
00000000
00000000
00000010
00000000
,
00020000
00030000
00000000
00000000
00000000
00000000
00000000
00000000
;
