#TITLE:カラルの月 Verdammt Remix;
#SUBTITLE:;
#ARTIST:Verdammt;
#TITLETRANSLIT:Caral no tsuki Verdammt Remix;
#SUBTITLETRANSLIT:;
#ARTISTTRANSLIT:;
#GENRE:;
#CREDIT:Silverhawke;
#MENUCOLOR:;
#METERTYPE:DDR;
#BANNER:[Round 4 Singles & Round 3 Doubles] - Caral no tsuki Verdammt Remix.png;
#BACKGROUND:[Round 4 Singles & Round 3 Doubles] - Caral no tsuki Verdammt Remix-bg.png;
#LYRICSPATH:;
#CDTITLE:cdtitle.png;
#MUSIC:[Round 4 Singles & Round 3 Doubles] - Caral no tsuki Verdammt Remix.mp3;
#OFFSET:-0.028;
#SAMPLESTART:58.464;
#SAMPLELENGTH:15.000;
#SELECTABLE:YES;
#LISTSORT:;
#BPMS:0.000=135.000;
#STOPS:;
#BGCHANGES:;
#ATTACKS:;

//---------------dance-single - ----------------
#NOTES:
     dance-single:
     :
     Hard:
     8:
     0.500,0.580,0.062,0.308,0.215:
0000
0000
0000
0000
,
0000
0000
0000
0000
,
0000
0000
0000
0000
,
0000
0000
0000
0000
,
0001
0000
0100
0010
1000
0000
1000
0100
,
0010
0000
0010
0001
1000
0000
0001
0100
,
0010
0000
1000
0100
0001
0000
0100
1000
,
0001
0000
0000
0100
0000
0000
0010
1000
0100
0010
0001
0100
,
0020
0000
1030
0100
2000
0000
3001
0100
,
0010
0000
0010
0000
0100
0000
0001
0000
2000
0000
0000
0000
3001
0000
0100
0010
,
2000
0000
3100
0010
0001
0010
0010
0100
,
0010
0001
1000
0010
0001
0010
1000
0001
,
0200
0000
0301
1000
0002
0000
0013
0100
,
1000
1000
0010
0100
0002
0000
0013
0100
,
2000
0000
0000
0000
0000
0000
3001
0000
0000
0010
0000
0000
0001
0000
0100
0000
0010
0000
1000
0000
0000
0100
0000
0000
,
0020
0000
0000
0000
0130
0000
1000
0000
0001
0000
0100
0010
0100
0000
0000
0000
,
0001
0000
0100
0010
1000
0000
0100
0010
,
0001
0010
0100
0000
1000
0010
0001
0010
,
0100
0000
0001
0010
0100
0000
1000
0010
,
0100
0010
1000
0000
0001
0010
1000
0010
,
0100
0000
0001
0100
1000
0000
0010
0100
,
1000
0100
0001
0000
0010
0100
1000
0100
,
0001
0000
0100
0010
0001
0000
0100
0000
,
0010
0000
0000
0000
0000
0000
1000
0100
1000
0001
0100
0001
,
0010
0000
0100
1000
0001
0000
0200
0000
,
0310
0000
1000
0100
0010
0001
0100
0000
,
0010
0000
1000
0001
0100
0000
0020
0000
,
1030
0000
0100
0001
0100
0010
0001
0000
,
1000
0000
0010
0100
0001
0000
2000
0000
,
3001
0000
0100
1000
0100
0010
1000
0000
,
0001
0000
0010
0100
1000
0000
0010
0000
,
0001
0000
0000
0100
0000
0000
1000
0100
0010
0001
0100
0010
,
2000
0000
0000
0000
0000
0000
0000
0000
0000
0000
0000
0000
3000
0000
0001
0100
,
0010
0000
0101
0000
0010
0000
1100
1000
,
0001
0000
0100
0000
0010
0000
0100
0000
0002
0000
0000
0000
0003
0000
1000
0100
,
0010
1100
0010
0101
,
0001
0000
0010
0100
1000
0000
0010
0000
0200
0000
0000
0000
0300
0000
0001
0010
,
0100
0000
0011
0000
0100
0000
1010
1000
,
0001
0000
0010
0000
0100
0000
1000
0000
0002
0000
0000
0000
0003
0000
0100
0010
,
1000
0000
0101
0000
0001
1000
0100
0001
,
0100
0000
1000
0000
0001
0000
1000
0000
0002
0000
0000
0000
0103
0000
0010
1000
,
0001
0000
0000
0001
0010
0000
0000
0010
0100
0000
0000
0100
1000
0000
0001
0000
,
0100
0000
1000
0000
0100
0000
0001
0000
2000
0000
0000
0000
3100
0000
0010
0100
,
1000
0000
0000
1000
0010
0000
0000
0010
0100
0000
0000
0100
0001
0000
1000
0000
,
0100
0000
0001
0000
0100
0000
1000
0000
0002
0000
0000
0000
0103
0000
0010
1000
,
0001
0000
0000
0001
0100
0000
0000
0100
1000
0000
0000
1000
0100
0000
0001
0000
,
1000
0000
0000
0000
0000
0000
0100
0000
0000
0000
0000
0000
0010
0000
0000
0000
0001
0000
0000
0000
1000
0000
0000
0000
0020
0000
0000
0000
0000
0000
0000
0000
0000
0000
0000
0000
0130
0000
0000
0000
0000
0000
0001
0000
0000
0010
0000
0000
,
0100
0000
0000
0100
1000
0000
0000
1000
0001
0000
0100
0000
0010
0000
1000
0000
,
0001
0010
1000
0010
0002
0000
0003
0000
,
2000
0000
0100
0000
3002
0000
0103
0010
,
2000
0000
0100
0000
3001
0010
0100
1000
,
0002
0100
2003
3020
,
0230
0000
0000
0000
0301
0000
0010
0000
0100
0000
0000
1000
0100
0000
0010
0000
,
0002
0100
2003
3020
,
0230
0000
0000
0000
1000
0000
0000
0000
0302
0000
0000
0000
0013
0000
0000
0100
,
1000
0000
0000
0001
0100
0000
0000
0010
1000
0000
0000
0001
0010
0000
0000
0100
,
1000
0000
0001
0000
1000
0000
0001
0000
0100
0000
0010
0000
0100
0010
0100
0010
,
1000
0000
1000
0000
0001
0000
0001
0100
0010
0100
0010
0100
0020
0000
0000
0000
,
2030
0000
0000
0000
,
0001
0000
0000
0000
,
3000
0000
0000
0000
;

//---------------dance-double - ----------------
#NOTES:
     dance-double:
     :
     Hard:
     8:
     0.511,0.580,0.000,0.439,0.215: // measure 1
00000000
00000000
00000000
00000000
,  // measure 2
00000000
00000000
00000000
00000000
,  // measure 3
00000000
00000000
00000000
00000000
,  // measure 4
00000000
00000000
00000000
00000000
,  // measure 5
00001000
00000000
01000000
00100000
10000000
00000000
01000000
00100000
,  // measure 6
00001000
00000000
00010000
00000100
00000010
00000000
00000001
00000100
,  // measure 7
00001000
00000000
00010000
00100000
10000000
00000000
01000000
00010000
,  // measure 8
00001000
00000000
00000000
00000010
00000000
00000000
00000001
00000100
00000010
00010000
00001000
01000000
,  // measure 9
00200000
00000000
10300000
01000000
20000000
00000000
30010000
01000000
,  // measure 10
00001000
00001000
00010000
00000100
00002000
00000000
00003001
00000100
,  // measure 11
00000020
00000000
00010030
00001000
00010000
01000000
10000000
00010000
,  // measure 12
02000000
00000000
03100000
10000000
01000000
00010000
00002000
00000000
,  // measure 13
00003020
00000000
00000031
00000100
00000002
00000000
00001003
00000100
,  // measure 14
00010000
00010000
00001000
01000000
00020000
00000000
10030000
01000000
,  // measure 15
00200000
00000000
00000000
00000000
00000000
00000000
00301000
00000000
00000000
00010000
00000000
00000000
00001000
00000000
00000100
00000000
00000010
00000000
00001000
00000000
00000000
00000001
00000000
00000000
,  // measure 16
00000200
00000000
00000310
00001000
00010000
01000000
00100000
00000000
,  // measure 17
10000000
01000000
00010000
01000000
,  // measure 18
10000000
01000000
00100000
00000000
00001000
00010000
00000100
00000010
,  // measure 19
00000001
00000100
00001000
00000100
,  // measure 20
00000001
00000100
00000010
00000000
00010000
00001000
01000000
00100000
,  // measure 21
10000000
00100000
00010000
00100000
,  // measure 22
10000000
01000000
00010000
00000000
00001000
00010000
00001000
00000100
,  // measure 23
00000001
00000010
00001000
00000010
,  // measure 24
00000001
00000000
00000000
00000000
00000000
00000000
00000100
00001000
00010000
00000100
00010000
00001000
,  // measure 25
00000100
00000000
00001000
00010000
01000000
00000000
20000000
00000000
,  // measure 26
30100000
00000000
10000000
01000000
00010000
00001000
01000000
00100000
,  // measure 27
10000000
00000000
01000000
00010000
00001000
00000000
00000020
00000000
,  // measure 28
00000031
00000000
00000100
00000010
00010000
00001000
00000010
00000100
,  // measure 29
00001000
00000000
00000100
00010000
01000000
00000000
00200000
00000000
,  // measure 30
00310000
00000000
10000000
00100000
00010000
00001000
00010000
00000010
,  // measure 31
00000100
00000000
00001000
00010000
01000000
00000000
00100000
00000000
,  // measure 32
00001000
00000000
00000000
00010000
00000000
00000000
00000010
00000100
00000010
00001000
00000001
00001000
,  // measure 33
00000200
00000000
00000000
00000000
00000000
00000000
00000000
00000000
00000000
00000000
00000000
00000000
00000300
00000000
00010000
00001000
,  // measure 34
02000000
00000000
03200000
00000000
20300000
00000000
31000000
00100000
,  // measure 35
00001000
00000000
00010000
00000000
00001000
00000000
00000100
00000000
00000020
00000000
00000000
00000000
00000030
00000000
00001000
00000001
,  // measure 36
00000200
00000320
00002030
00023000
,  // measure 37
01030000
00000000
00100000
10000000
00010000
00000000
00100000
00000000
02000000
00000000
00000000
00000000
03000000
00000000
10000000
00100000
,  // measure 38
02000000
00000000
03002000
00000000
00023000
00000000
00030100
00000010
,  // measure 39
00001000
00000000
00010000
00000000
00001000
00000000
00000010
00000000
00000200
00000000
00000000
00000000
00000300
00000000
00001000
00000001
,  // measure 40
00000200
00000000
00000320
00000000
00010030
00100000
10000000
01000000
,  // measure 41
00010000
00000000
00001000
00000000
01000000
00000000
00001000
00000000
02000000
00000000
00000000
00000000
03000000
00000000
00001000
00010000
,  // measure 42
00000100
00000000
00000000
00000100
00000010
00000000
00000000
00000010
00000001
00000000
00000000
00000001
00000100
00000000
00000010
00000000
,  // measure 43
00010000
00000000
00001000
00000000
00010000
00000000
01000000
00000000
00200000
00000000
00000000
00000000
00310000
00000000
10000000
01000000
,  // measure 44
00100000
00000000
00000000
00100000
00001000
00000000
00000000
00001000
00010000
00000000
00000000
00010000
00000010
00000000
00000000
00000010
,  // measure 45
00000100
00000000
00000010
00001000
00000001
00000000
00000100
00000000
00000020
00000000
00000000
00000000
00001030
00000000
00000001
00000010
,  // measure 46
00000100
00000000
00000000
00000100
00010000
00000000
00000000
00010000
00001000
00000000
00000000
00001000
01000000
00000000
00100000
00000000
,  // measure 47
00010000
00000000
00000000
00000000
00000000
00000000
00001000
00000000
00000000
00000000
00000000
00000000
00010000
00000000
00000000
00000000
00100000
00000000
00000000
00000000
10000000
00000000
00000000
00000000
00020000
00000000
00000000
00000000
00000000
00000000
00000000
00000000
00000000
00000000
00000000
00000000
00130000
00000000
00000000
00000000
00000000
00000000
00010000
00000000
00000000
10000000
00000000
00000000
,  // measure 48
01000000
00000000
00000000
01000000
00100000
00000000
00000000
00100000
00001000
00000000
00000010
00000000
00000001
00000000
00000010
00000000
,  // measure 49
00001000
00010000
01000000
10000000
02000000
00000000
03000000
00000000
,  // measure 50
20000000
00100000
00000000
30100000
02000000
00010000
00000000
03010000
,  // measure 51
00200000
00001000
00000000
00301000
00020000
00000100
00000000
00030100
,  // measure 52
00000020
00000001
00000000
00000031
00000200
00000310
00020000
00031000
,  // measure 53
00200000
00000000
00010000
00000000
00000000
00000000
00310000
00000000
10000000
00000000
00000000
10000000
01000000
00000000
00100000
00000000
,  // measure 54
00002000
00010000
00000000
00013000
00000200
00000310
00000002
00000103
,  // measure 55
00000020
00000000
00010000
00000000
00000000
00000000
00010030
00000000
00002000
00000000
01000000
00000000
00000000
00000000
01003000
00100000
,  // measure 56
10000000
00000000
00000000
10000000
00010000
00000000
00000000
00010000
00001000
00000000
00000000
00001000
00000001
00000000
00000000
00000001
,  // measure 57
00001000
00000000
00000100
00000000
00000010
00000000
00000001
00000000
00001000
00000000
00000100
00000000
00000010
00000100
00000010
00000100
,  // measure 58
00010000
00000000
00010000
00000000
00001000
00000000
00001000
00010000
00001000
00010000
00001000
00010000
00200000
00000000
00000000
00000000
,  // measure 59
02300000
00000000
00000000
00000000
,  // measure 60
00000100
00000000
00000000
00000000
,  // measure 61
03000000
00000000
00000000
00000000
;

//---------------dance-double - ----------------
#NOTES:
     dance-double:
     :
     Medium:
     5:
     0.335,0.369,0.132,0.255,0.000: // measure 1
00000000
00000000
00000000
00000000
,  // measure 2
00000000
00000000
00000000
00000000
,  // measure 3
00000000
00000000
00000000
00000000
,  // measure 4
00000000
00000000
00000000
00000000
,  // measure 5
10000000
01000000
00100000
00010000
,  // measure 6
00001000
00000100
00000010
00000001
,  // measure 7
00000100
00000000
00000010
00000000
00010000
00000000
00001000
00010000
,  // measure 8
00001000
00000000
01000000
01100000
,  // measure 9
10100000
00000000
00010000
01000000
00010000
00000000
00100000
00000000
,  // measure 10
00001000
00010000
00010100
00000000
,  // measure 11
00000100
00000000
00001000
00000010
00001000
00000000
00000001
00000000
,  // measure 12
00000100
00001000
00010000
00100000
,  // measure 13
01000000
00000000
00010000
10000000
00010000
00000000
00100000
00000000
,  // measure 14
00001000
01000000
01010000
00000000
,  // measure 15
00001000
00010000
00000200
00000310
,  // measure 16
00000001
00000000
00000100
00000000
00000010
00001000
00000001
00000000
,  // measure 17
00002000
00003000
00000200
00000300
,  // measure 18
00020000
00001000
00000100
00031000
,  // measure 19
02000000
03000000
00200000
00300000
,  // measure 20
20000000
01000000
00010000
31000000
,  // measure 21
00200000
00300000
00002000
00003000
,  // measure 22
00000020
00000001
00000100
00000031
,  // measure 23
00002000
00003000
00000200
00000300
,  // measure 24
00011000
00000000
01001000
00010100
,  // measure 25
00010000
00000000
00000100
00000000
00000010
00000000
00000001
00000001
,  // measure 26
00000001
00000100
00000010
00010000
,  // measure 27
00001000
00000000
01000000
00000000
00100000
00000000
10000000
10000000
,  // measure 28
10000000
01000000
00100000
00001000
,  // measure 29
00010000
00000000
00000010
00000000
00000100
00000000
00000001
00000001
,  // measure 30
00000001
00000010
00000100
00010000
,  // measure 31
00001000
00000000
00100000
00000000
01000000
00000000
10000000
10000000
,  // measure 32
10000000
00100000
00010000
00011000
,  // measure 33
01001000
00000000
00000000
00000000
00000000
00000000
00000000
01000000
,  // measure 34
00100000
00000000
10000000
00000000
00010000
00000000
00100000
00001000
,  // measure 35
00010000
00000000
00000010
00000000
00000110
00000000
00000000
00000001
,  // measure 36
00000100
00000010
00010000
00001000
,  // measure 37
00100000
01000000
10000000
00000000
11000000
00000000
00000000
00010000
,  // measure 38
01000000
00000000
00001000
00000000
00010000
00000000
00000100
00000010
,  // measure 39
00000001
00000000
00001000
00000000
00001010
00000000
00000000
00000001
,  // measure 40
00000100
00000000
00000010
00000000
00010000
00001000
00100000
00000000
,  // measure 41
01000000
00000000
10000000
00010000
10000000
00000000
00000000
01000000
,  // measure 42
10000000
01000000
00010000
00001000
,  // measure 43
00000010
00000001
00000100
00000001
00001000
00000000
00000000
00000001
,  // measure 44
00000100
00001000
00010000
00100000
,  // measure 45
01000000
00010000
10000000
00010000
00100000
00000000
00000000
01000000
,  // measure 46
10000000
00000000
01000000
00000000
00010000
00000000
00001000
00010000
,  // measure 47
00000100
00000000
00000110
00000000
00001001
00000000
00000000
00000001
,  // measure 48
00000100
00000000
00000010
00000000
00010000
00001000
00010000
00000000
,  // measure 49
01000000
00100000
02000000
03000000
,  // measure 50
20000000
31000000
02000000
03100000
,  // measure 51
00200000
00301000
00002000
00013000
,  // measure 52
00020000
00030100
00000200
00002300
,  // measure 53
00003002
00000103
00000200
00000310
,  // measure 54
00000020
00010030
00020000
00032000
,  // measure 55
02003000
03100000
00200000
10300000
,  // measure 56
10000000
00010000
00001000
00000001
,  // measure 57
00001000
00000010
00000001
00000010
,  // measure 58
00001000
00000000
00010000
00000000
01000000
00100000
01000000
00000000
,  // measure 59
20020000
00000000
00000000
00000000
,  // measure 60
00030000
00000000
00000000
00000000
,  // measure 61
30000000
00000000
00000000
00000000
;

//---------------dance-double - ----------------
#NOTES:
     dance-double:
     :
     Easy:
     3:
     0.196,0.233,0.009,0.035,0.000: // measure 1
00000000
00000000
00000000
00000000
,  // measure 2
00000000
00000000
00000000
00000000
,  // measure 3
00000000
00000000
00000000
00000000
,  // measure 4
00000000
00000000
00000000
00000000
,  // measure 5
00000001
00000000
00000100
00000000
,  // measure 6
00000010
00010000
00001000
00000000
,  // measure 7
00100000
00000000
01000000
00000000
,  // measure 8
10000000
00000000
00020000
00000000
,  // measure 9
10030000
01000000
00100000
00000000
,  // measure 10
00010000
00100000
00001000
00000000
,  // measure 11
00010000
00000010
00000100
00000010
,  // measure 12
00001000
00000000
00000001
00000100
,  // measure 13
00000001
00000010
00000100
00000000
,  // measure 14
00010000
00001000
01000000
00000000
,  // measure 15
00100000
10000000
00020000
00130000
,  // measure 16
01000000
00000000
00100000
01000000
,  // measure 17
10000000
00000000
00010000
00000000
,  // measure 18
00001000
00000100
00000010
00000000
,  // measure 19
00000001
00000000
00001000
00000000
,  // measure 20
00010000
01000000
00100000
00000000
,  // measure 21
10000000
00000000
01000000
00000000
,  // measure 22
00010000
00001000
00000010
00000000
,  // measure 23
00000001
00000000
00000100
00000000
,  // measure 24
00001000
00000000
00010000
00100000
,  // measure 25
10000000
00000000
01000000
00100000
,  // measure 26
00001000
00010000
00000100
00000000
,  // measure 27
00000010
00000000
00000001
00000100
,  // measure 28
00000010
00010000
00001000
00000000
,  // measure 29
01000000
00000000
00100000
10000000
,  // measure 30
01000000
00010000
00001000
00000000
,  // measure 31
00010000
00000000
00000100
00000010
,  // measure 32
00000001
00000000
00000100
00000010
,  // measure 33
00010000
00000000
00000000
00000000
,  // measure 34
00001000
00100000
01000000
00000000
,  // measure 35
10000000
01000000
00100000
00000000
,  // measure 36
00001000
00010000
00000100
00000000
,  // measure 37
00000010
00000001
00000100
00000000
,  // measure 38
00000010
00010000
00001000
00000000
,  // measure 39
00100000
00010000
01000000
00000000
,  // measure 40
00010000
00100000
01000000
00000000
,  // measure 41
10000000
01000000
00010000
00000000
,  // measure 42
00001000
00000100
00000010
00000000
,  // measure 43
00001000
00000001
00000010
00000000
,  // measure 44
00000100
00010000
00001000
00000000
,  // measure 45
01000000
00100000
10000000
00000000
,  // measure 46
01000000
00010000
00001000
00000000
,  // measure 47
00000100
00000010
00001000
00000000
,  // measure 48
00000001
00000100
00001000
00000100
,  // measure 49
00000001
00000000
00000000
00000000
,  // measure 50
00001000
00000000
00000100
00000000
,  // measure 51
00010000
00000000
00001000
00000000
,  // measure 52
00100000
00000000
00010000
01000000
,  // measure 53
00100000
00000000
10000000
00000000
,  // measure 54
01000000
00000000
00010000
00001000
,  // measure 55
00000010
00000000
00000001
00000000
,  // measure 56
00000100
00000010
00010000
00001000
,  // measure 57
01000000
00000000
00010000
00000000
,  // measure 58
00100000
00001000
00010000
00000000
,  // measure 59
00022000
00000000
00000000
00000000
,  // measure 60
00033000
00000000
00000000
00000000
;

//---------------dance-single - ----------------
#NOTES:
     dance-single:
     :
     Medium:
     5:
     0.339,0.369,0.070,0.167,0.000:
0000
0000
0000
0000
,
0000
0000
0000
0000
,
0000
0000
0000
0000
,
0000
0000
0000
0000
,
0001
0000
1000
0000
0100
0000
0010
0001
,
0100
0000
0010
0000
1000
0000
0100
1000
,
0001
0100
0010
1000
,
0001
0000
1001
0110
,
0001
0000
0010
0100
0010
0000
0001
0000
,
1000
0000
0001
0100
0010
0000
0000
0000
,
1000
0000
0100
0010
0100
0000
1000
0000
,
0010
0000
0100
0001
1000
0000
0001
0000
,
1000
0000
0100
0010
0100
0000
1000
0000
,
0010
0000
0100
0001
1000
0000
0000
0000
,
0001
0010
0200
1300
,
0001
0000
0100
0000
0010
0100
0010
0000
,
1000
0100
0001
0100
,
1000
0010
0100
0001
,
1000
0010
0001
0010
,
1000
0000
0001
0000
0010
0100
1000
0000
,
0001
0100
1000
0100
,
0001
0010
1000
0100
,
0001
0010
1000
0010
,
0001
0000
1100
0101
,
1000
0000
0001
0000
0100
0000
0010
0010
,
0010
1000
0100
0010
,
0001
0000
1000
0000
0010
0000
0100
0100
,
0100
0001
1000
0100
,
0010
0000
0001
0000
0100
0000
0010
0010
,
0010
1000
0001
0010
,
0100
0000
1000
0001
0100
0000
0010
0000
,
0100
0001
1001
0110
,
0001
0000
0000
0000
0000
0000
0000
1000
,
0100
0010
0001
0100
,
0010
0000
1000
0001
0010
0000
0000
0100
,
1000
0001
0100
0010
,
0100
0001
1000
0000
0100
0000
0000
0010
,
0001
0100
1000
0100
,
0010
0000
1000
0001
0010
0000
0000
0100
,
1000
0100
0001
0100
,
0010
0001
1000
0001
2000
0000
3000
0001
,
0100
0000
0010
0000
0100
0000
0001
0010
,
0100
1000
0100
0010
0001
0000
0000
1000
,
0010
0100
0001
0010
,
0001
0100
0010
1000
0100
0000
0000
0010
,
0001
0000
0100
0000
0010
0000
0100
0001
,
0010
0100
1000
0000
1001
0000
0000
0001
,
0100
0000
0010
0000
0100
0001
0010
0100
,
1000
0010
0001
0010
2000
0000
3000
0000
,
0002
0013
0020
0130
,
0200
1300
2000
3010
,
0020
0130
0200
0302
,
0023
0130
0200
1300
,
2000
3001
0002
0203
,
0320
0130
0200
0301
,
1000
0100
0001
0010
,
1000
0000
0001
0000
0100
0010
1000
0001
,
0100
0000
0010
0000
0100
0001
1000
0000
,
0220
0000
0000
0000
,
0300
0000
0000
0000
,
0030
0000
0000
0000
;

//---------------dance-single - ----------------
#NOTES:
     dance-single:
     :
     Beginner:
     1:
     0.074,0.104,0.018,0.000,0.000:
0000
0000
0000
0000
,
0000
0000
0000
0000
,
0000
0000
0000
0000
,
0000
0000
0000
0000
,
0001
0000
0000
0000
,
0100
0000
0000
0000
,
1000
0000
0000
0000
,
0010
0000
0000
0000
,
0001
0000
0000
0000
,
1000
0000
1000
0000
,
1000
0000
0000
0000
,
0001
0000
0000
0000
,
0100
0000
0000
0000
,
0010
0000
0010
0000
,
0010
0000
0000
0000
,
0001
0000
0000
0000
,
1000
0000
0000
0000
,
0000
0000
0000
0000
,
0001
0000
0000
0000
,
0000
0000
0000
0000
,
0100
0000
0000
0000
,
0000
0000
0000
0000
,
0010
0000
0000
0000
,
0000
0000
0000
0000
,
1000
0000
0000
0000
,
0100
0000
0000
0000
,
0001
0000
0000
0000
,
0010
0000
0000
0000
,
1000
0000
0000
0000
,
0001
0000
0000
0000
,
0100
0000
0000
0000
,
1000
0000
0000
0000
,
1001
0000
0000
0000
,
0010
0000
0000
0000
,
0100
0000
0000
0000
,
0001
0000
0000
0000
,
1000
0000
0000
0000
,
0100
0000
0000
0000
,
0010
0000
0000
0000
,
0001
0000
0000
0000
,
0100
0000
0000
0000
,
0010
0000
0000
0000
,
1000
0000
1000
0000
,
1000
0000
0000
0000
,
0001
0000
0001
0000
,
0001
0000
0000
0000
,
0100
0000
0100
0000
,
0100
0000
0000
0000
,
0010
0000
0000
0000
,
1000
0000
0000
0000
,
0100
0000
0000
0000
,
0010
0000
0000
0000
,
0001
0000
0000
0000
,
1000
0000
0000
0000
,
0010
0000
0000
0000
,
0100
0000
0000
0000
,
0001
0000
0000
0000
,
1000
0000
0000
0000
,
1001
0000
0000
0000
,
0100
0000
0000
0000
;

//---------------dance-single - ----------------
#NOTES:
     dance-single:
     :
     Easy:
     3:
     0.197,0.207,0.009,0.018,0.000:
0000
0000
0000
0000
,
0000
0000
0000
0000
,
0000
0000
0000
0000
,
0000
0000
0000
0000
,
0001
0000
0100
0000
,
0010
1000
0100
0000
,
0010
0000
0001
0000
,
1000
0000
0010
0010
,
0010
0000
0100
0000
,
0001
1000
0100
0000
,
0001
0000
0100
0000
,
0010
0001
0100
0000
,
0010
0000
1000
0000
,
0100
0010
0001
0000
,
0010
0000
0100
1000
,
0001
0000
1000
0001
,
0100
0000
0010
0000
,
0100
0001
1000
0100
,
0010
0000
0001
0000
,
0010
0100
1000
0001
,
0100
0000
0010
0000
,
1000
0100
0001
0100
,
0010
0000
0001
0000
,
0100
0000
0010
0010
,
1000
0000
0001
0100
,
0010
1000
0100
0010
,
0001
0000
1000
0100
,
0010
0001
0100
0010
,
0100
0000
0001
0010
,
0100
1000
0010
0100
,
0001
0000
1000
0000
,
0010
0000
0001
0100
,
1000
0000
0000
0000
,
0001
0001
0100
0000
,
0010
1000
0100
0000
,
1000
1000
0100
0000
,
0010
0001
0100
0000
,
0001
0100
0010
0000
,
1000
0100
0010
0000
,
0100
1000
0001
1000
,
0100
0000
0000
0000
,
0010
0001
1000
0000
,
0010
0100
0001
0000
,
0100
0010
1000
0000
,
0100
0010
0001
0000
,
0100
0100
0010
1000
,
0001
0001
0100
0000
,
0010
0100
0001
0010
,
0100
1000
0001
0000
,
1000
0000
0100
0000
,
0010
0000
0001
0000
,
0100
0000
0010
1000
,
0001
0000
0010
0000
,
0100
0000
1000
0010
,
0100
0000
0001
0000
,
1000
0100
0001
0010
,
1000
0000
0001
0000
,
0100
0010
1000
0000
,
2002
0000
0000
0000
,
3003
0000
0000
0000
;
