#TITLE:Esperanza;
#SUBTITLE:;
#ARTIST:猫叉劇団;
#TITLETRANSLIT:;
#SUBTITLETRANSLIT:;
#ARTISTTRANSLIT:Nekomata Gekidan;
#GENRE:;
#CREDIT:Silverhawke;
#MENUCOLOR:;
#METERTYPE:DDR;
#BANNER:[Round 4 Doubles] - Esperanza.png;
#BACKGROUND:[Round 4 Doubles] - Esperanza-bg.png;
#LYRICSPATH:;
#CDTITLE:cdtitle.png;
#MUSIC:[Round 4 Doubles] - Esperanza.mp3;
#OFFSET:-0.028;
#SAMPLESTART:60.012;
#SAMPLELENGTH:15.000;
#SELECTABLE:YES;
#LISTSORT:;
#BPMS:0.000=135.000;
#STOPS:;
#BGCHANGES:;
#ATTACKS:;

//---------------dance-double - ----------------
#NOTES:
     dance-double:
     :
     Hard:
     7:
     0.490,0.459,0.036,0.464,0.116:
00000000
00000000
00000000
00000000
,
00000000
00000000
00000000
00000000
,
00000000
00000000
00000000
00000000
,
00000000
00000000
00000000
00000000
,
00000000
00000000
00000000
00000000
,
00001000
00000000
01000000
00000000
00100000
10000000
02000000
00000000
,
03200000
00000000
00301000
00000000
00010000
00000010
00000200
00000000
,
00000302
00000000
00000013
00000000
00000100
00010000
00002000
00000000
,
02003000
00000000
03100000
10000000
00010000
10000000
01000000
00010000
,
00001000
00000000
00000000
00001000
01000000
00000000
00000000
01000000
00100000
00000000
10000000
00000000
01000000
00000000
00010000
00000000
,
00001000
00000000
00000000
00001000
00000010
00000000
00000000
00000010
00000001
00000000
00000100
00000000
00001000
00000000
00010000
00000000
,
00100000
00000000
00000000
00100000
10000000
00000000
00000000
10000000
00010000
00000000
01000000
00000000
00001000
00000000
00010000
00000000
,
00000010
00000100
00000001
00000010
00000100
00010000
00010000
00001000
,
01000000
00000000
00000000
01000000
00010000
00000000
00000000
00010000
10000000
00000000
01000000
00000000
00010000
00000000
00001000
00000000
,
00000100
00000000
00000000
00000100
00000010
00000000
00000000
00000010
00001000
00000000
00010000
00000000
01000000
00000000
00100000
00000000
,
10000000
00000000
00000000
10000000
01000000
00000000
00000000
01000000
00010000
00000000
00001000
00000000
00000100
00000000
00000001
00000000
,
00001000
00000001
00000010
00000100
00010000
00002000
00103000
00000000
,
02000000
00000000
10000000
00000000
03100000
00001000
00010000
00001000
,
00000200
00000000
00000010
00000000
00000301
00000100
00001000
00010000
,
02000000
00000000
00100000
00000000
13000000
01000000
00010000
01000000
,
20000000
00000000
00100000
00000000
30020000
00000000
00130000
00001000
,
00020000
00000000
00030200
00000000
00000310
00000001
00000100
00000010
,
00020000
00000000
00001000
00000000
00130000
10000000
00010000
10000000
,
02000000
00000000
00010000
00000000
03100000
00001000
00010000
00001000
,
00000020
00000000
00000031
00000100
00000200
00000000
00001300
00010000
,
00200000
00000000
20300000
00000000
30000000
00010000
01000000
00001000
,
00200000
00000000
00300000
00000000
00001000
00010000
00000100
00000010
,
00000002
00000000
00000000
00000000
00000003
00000100
00000100
00000010
,
00000200
00000000
00000300
00001000
00002000
00000000
00000000
00000000
,
00023000
01030000
10000000
01000000
,
00010000
00001000
00000010
00000001
,
00000200
00001300
00010000
00100000
,
20000000
00000000
30010000
00000000
10000000
11000000
00010000
01010000
,
00000000
00000000
00000000
00000000
00000000
00000000
00000000
00000000
00000000
00000000
00000000
00000000
10000000
00100000
10000000
00000000
,
01000000
00000000
00000000
01000000
00100000
00000000
00000000
00100000
00001000
00000000
00000000
00001000
00010000
00000000
00000000
00010000
,
00000010
00000100
00001000
00000100
00000001
00001000
00000100
00010000
,
00001000
00000000
00000000
00001000
00100000
00000000
01000000
00000000
10000000
00000000
01000000
00000000
00010000
00000000
00001000
00000000
,
00020000
00000000
00000100
00000000
00030010
00001000
00000100
00000010
,
00000010
00000100
00010000
00001000
00001000
01000000
00010000
10000000
,
00100000
00010000
00100000
10000000
00010000
00000000
00100000
00001000
,
00000020
00000000
00000032
00000000
00000103
00001000
00001000
00010000
,
00002000
00000000
00000000
00000000
00010000
00000000
00000000
00000000
01003000
00000000
00000000
00000000
00010000
10000000
00010000
10000000
,
00010000
00000000
00000000
00010000
00100000
00000000
00000000
00100000
00001000
00000000
00000000
00001000
00000100
00000000
00000000
00000100
,
00000010
00001000
00000001
00000010
00001000
00010000
01000000
10000000
,
00010000
00000000
00000000
00010000
01000000
00000000
00100000
00000000
10000000
00000000
01000000
00000000
00010000
00000000
00001000
00000000
,
00000020
00000000
00000000
00000000
00000030
00000001
00000100
00000010
,
00010000
00001000
00001000
01000000
00010000
00100000
00100000
01000000
,
10000000
01000000
00010000
00001000
00011000
00000000
00010000
00000010
,
00000200
00000000
00000000
00000000
00000302
00000000
00000000
00000000
00001003
00000000
00000100
00000000
00010000
00001000
00010000
00000000
,
00002000
00010000
00010000
00010000
,
00020000
00000000
00000000
00033000
,
00002000
00000000
00010000
00000000
00003100
00000010
00002000
00000000
,
00003002
00000000
00000010
00000000
00000103
00001000
00020000
00000000
,
02030000
00000000
10000000
00000000
03100000
00010000
00002000
00000000
,
00003200
00000000
00000310
00001000
00010000
00001000
01000000
00100000
,
20000000
00000000
00010000
00000000
30100000
01000000
00002000
00000000
,
00023000
00000000
00000010
00000000
00030100
00000010
00000002
00000000
,
00000203
00000000
00001000
00000000
00000310
00010000
00002000
00000000
,
02003000
00000000
03100000
10000000
01000000
00010000
00001000
00000100
,
00000000
00002002
00000000
00000000
,
00000000
00000000
00003003
00000000
;

//---------------dance-double - ----------------
#NOTES:
     dance-double:
     :
     Medium:
     5:
     0.356,0.378,0.000,0.295,0.000: // measure 1
00000000
00000000
00000000
00000000
,  // measure 2
00000000
00000000
00000000
00000000
,  // measure 3
00000000
00000000
00000000
00000000
,  // measure 4
00000000
00000000
00000000
00000000
,  // measure 5
00000000
00000000
00000000
00000000
,  // measure 6
00010000
00001000
00000100
00000020
,  // measure 7
00001030
00010000
01000000
00200000
,  // measure 8
10300000
01000000
00010000
00002000
,  // measure 9
00003100
00000000
00000010
00000000
00001000
00000001
00001000
00000000
,  // measure 10
00000001
00000100
00000010
00000000
00000010
00000100
00000001
00000000
,  // measure 11
00001000
00000100
00010000
00000000
00010000
00000100
00001000
00000000
,  // measure 12
00000010
00010000
00001000
00000000
00001000
00010000
00000010
00000000
,  // measure 13
00000100
00000000
00001000
00000000
00010000
00100000
01000000
00000000
,  // measure 14
00010000
10000000
01000000
00000000
01000000
10000000
00010000
00000000
,  // measure 15
00100000
00001000
01000000
00000000
01000000
00001000
00100000
00000000
,  // measure 16
00001000
00010000
00000100
00000000
00000100
00010000
00001000
00000000
,  // measure 17
00000100
00000000
00000010
00000000
00001000
00000001
00001000
00000000
,  // measure 18
00000002
00000100
00000103
00001000
,  // measure 19
00020000
00001000
00031000
00010000
,  // measure 20
02000000
10000000
13000000
00100000
,  // measure 21
00020000
00000000
00001000
00000000
00031000
00000000
00000100
00000010
,  // measure 22
00000200
00000001
00000301
00000100
,  // measure 23
00002000
00010000
00013000
00100000
,  // measure 24
20000000
01000000
31000000
00010000
,  // measure 25
00002000
00000000
00010000
00000000
00013000
00000000
00000100
00000010
,  // measure 26
00000001
00001000
00000000
00001000
,  // measure 27
00000000
00001000
00000000
00001000
,  // measure 28
00010000
10000000
00000000
10000000
,  // measure 29
00000000
10000000
00000000
10000000
,  // measure 30
01000000
00100000
00010000
00001000
,  // measure 31
00000100
00000010
00000001
00000100
,  // measure 32
00000010
00010000
00001000
01000000
,  // measure 33
00100000
00000000
10000000
00000000
01000000
01000000
00100000
00001000
,  // measure 34
00000000
00000000
00000000
00020000
,  // measure 35
00031000
00000000
01000000
00100000
01000000
00000000
01000000
00010000
,  // measure 36
01000000
00100000
10000000
01000000
,  // measure 37
00010000
00000000
00001000
00010000
00001000
00000000
00000100
00000000
,  // measure 38
00000020
00000000
00001030
00000000
00000001
00000010
00000100
00000000
,  // measure 39
00001000
00000000
00000010
00000100
00000010
00000000
00010000
00000000
,  // measure 40
00001000
00000000
00100000
01000000
00100000
00000000
01000000
00010000
,  // measure 41
00001000
00000000
00000010
00000000
00000001
00000000
00001000
00000100
,  // measure 42
00020000
00000000
00030000
00002000
,  // measure 43
00013000
00000000
00000100
00000010
00000100
00000000
00000100
00001000
,  // measure 44
00000100
00000010
00000001
00000100
,  // measure 45
00001000
00000000
00010000
00001000
00010000
00000000
01000000
00000000
,  // measure 46
00200000
00000000
00310000
00000000
10000000
00100000
01000000
00000000
,  // measure 47
00010000
00000000
00100000
01000000
00100000
00000000
00001000
00000000
,  // measure 48
00010000
00010000
00000010
00000100
00000010
00000000
00000100
00001000
,  // measure 49
00010000
00000000
00100000
00000000
10000000
00000000
00010000
01000000
,  // measure 50
00002000
00010000
00010000
00013000
,  // measure 51
00020000
00001000
00001000
00031000
,  // measure 52
00000200
00000310
00001000
00000200
,  // measure 53
00000320
00000031
00000100
00000020
,  // measure 54
00020030
00031000
01000000
00200000
,  // measure 55
20300000
00000000
31000000
00000000
00100000
00001000
00010000
00001000
,  // measure 56
02000000
03100000
10000000
02000000
,  // measure 57
03020000
00031000
00000010
00000200
,  // measure 58
00002300
00003001
00000100
00002000
,  // measure 59
00023000
00000000
00130000
00000000
10000000
00010000
00100000
01000000
,  // measure 60
00000000
20000000
00000000
00000000
,  // measure 61
00000000
00000000
30000000
00000000
;

//---------------dance-double - ----------------
#NOTES:
     dance-double:
     :
     Easy:
     3:
     0.181,0.216,0.000,0.036,0.000: // measure 1
00000000
00000000
00000000
00000000
,  // measure 2
00000000
00000000
00000000
00000000
,  // measure 3
00000000
00000000
00000000
00000000
,  // measure 4
00000000
00000000
00000000
00000000
,  // measure 5
00000000
00000000
00000000
00000000
,  // measure 6
00001000
00000000
00000000
01000000
,  // measure 7
00010000
00000000
00000000
10000000
,  // measure 8
01000000
00000000
00000000
00010000
,  // measure 9
00001000
00000000
00000100
00000010
,  // measure 10
00000100
00000100
00000001
00000000
,  // measure 11
00001000
00001000
00000100
00000000
,  // measure 12
00010000
00010000
00001000
00000000
,  // measure 13
01000000
00010000
10000000
00000000
,  // measure 14
01000000
01000000
00100000
00000000
,  // measure 15
00010000
00010000
00001000
00000000
,  // measure 16
00000100
00000100
00000010
00000000
,  // measure 17
00001000
00000001
00000100
00000000
,  // measure 18
00000010
00000000
00010000
00001000
,  // measure 19
01000000
00000000
00100000
10000000
,  // measure 20
01000000
00000000
00100000
00001000
,  // measure 21
00010000
00000000
00000100
00001000
,  // measure 22
00000010
00000000
00000100
00000001
,  // measure 23
00001000
00000000
00000100
00010000
,  // measure 24
00001000
00000000
00100000
01000000
,  // measure 25
10000000
00000000
01000000
00010000
,  // measure 26
00001000
00000000
00000000
00000000
,  // measure 27
00000000
00000000
00000000
00000000
,  // measure 28
01000000
00000000
00000000
00000000
,  // measure 29
00000000
00000000
00000000
00000000
,  // measure 30
00100000
00000000
10000000
00000000
,  // measure 31
01000000
00000000
00010000
00000000
,  // measure 32
00001000
00000000
00000010
00000000
,  // measure 33
00000001
00000000
00000000
00000000
00000100
00000010
00000100
00000010
,  // measure 34
00000000
00000000
00000000
00000000
,  // measure 35
00010000
00001000
01000000
00000000
,  // measure 36
00010000
10000000
01000000
00000000
,  // measure 37
00100000
00010000
01000000
00000000
,  // measure 38
00001000
00000000
00010000
00000000
,  // measure 39
00000100
00001000
00000010
00000000
,  // measure 40
00000100
00000001
00001000
00000000
,  // measure 41
00000010
00010000
00001000
00100000
,  // measure 42
00010000
00000000
10000000
00000000
,  // measure 43
01000000
00100000
00001000
00000000
,  // measure 44
00010000
00000010
00001000
00000000
,  // measure 45
00000100
00001000
00000010
00000100
,  // measure 46
00000002
00000000
00001003
00000000
,  // measure 47
00000100
00010000
00001000
00000000
,  // measure 48
00100000
00010000
01000000
00100000
,  // measure 49
10000000
00000000
01000000
00100000
,  // measure 50
00002000
00000000
00003000
00000000
,  // measure 51
00020000
00000000
00030000
00000000
,  // measure 52
00000100
00000000
00000000
00001000
,  // measure 53
00000010
00000000
00000000
00000100
,  // measure 54
00000001
00000000
00000000
00000100
,  // measure 55
00001000
00000000
00010000
00001000
,  // measure 56
01000000
00000000
00000000
00100000
,  // measure 57
10000000
00000000
00000000
01000000
,  // measure 58
00100000
00000000
00000000
00001000
,  // measure 59
00010000
00000000
00000000
00000000
00000100
00000010
00000100
00000010
,  // measure 60
00000000
00000002
00000000
00000000
,  // measure 61
00000000
00000000
00000003
00000000
;
