#TITLE:Profession;
#SUBTITLE:;
#ARTIST:syzfonics;
#TITLETRANSLIT:;
#SUBTITLETRANSLIT:;
#ARTISTTRANSLIT:;
#GENRE:;
#CREDIT:Silverhawke;
#MENUCOLOR:;
#METERTYPE:DDR;
#BANNER:[Round 3 Singles] - Profession.png;
#BACKGROUND:[Round 3 Singles] - Profession-bg.png;
#LYRICSPATH:;
#CDTITLE:cdtitle.png;
#MUSIC:[Round 3 Singles] - Profession.mp3;
#OFFSET:-0.028;
#SAMPLESTART:36.363;
#SAMPLELENGTH:15.000;
#SELECTABLE:YES;
#LISTSORT:;
#BPMS:0.000=132.000;
#STOPS:;
#BGCHANGES:;
#ATTACKS:;

//---------------dance-single - ----------------
#NOTES:
     dance-single:
     :
     Hard:
     8:
     0.499,0.619,0.205,0.252,0.298: // measure 1
0000
0000
0000
0000
,  // measure 2
0000
0000
0000
0000
,  // measure 3
0000
0000
0000
0000
,  // measure 4
0000
0000
0000
0000
,  // measure 5
0002
0000
0100
0000
0100
0000
0103
0010
,  // measure 6
2000
0000
0100
0000
0100
0000
3100
0010
,  // measure 7
0002
0000
0010
0000
0010
0000
0013
0100
,  // measure 8
2000
0000
0010
0000
0010
0000
3010
0100
,  // measure 9
0001
0000
0101
0000
0100
0000
0010
1000
,  // measure 10
0100
0000
0110
0000
0010
0000
0001
0100
,  // measure 11
0010
0000
1010
0000
1000
0000
0100
0010
,  // measure 12
0001
0000
0101
0000
0100
0000
0010
1000
,  // measure 13
0002
0000
0100
0000
2003
0000
3010
0100
,  // measure 14
0002
0000
0010
0000
2003
0000
3100
0010
,  // measure 15
0200
0000
1000
0000
0320
0000
0031
0100
,  // measure 16
0020
0000
1000
0000
0230
0000
0301
1000
,  // measure 17
0002
0000
0103
0000
2000
0000
3100
0001
,  // measure 18
2000
0000
3100
0000
0002
0000
0103
1000
,  // measure 19
0001
1000
0001
1000
0001
1000
0001
1000
,  // measure 20
0010
0100
0010
0100
0010
0100
0010
0100
0010
0100
0010
0100
0002
0000
0000
0000
,  // measure 21
0103
0000
0010
0000
1000
0100
0000
0010
0000
0100
0000
0000
1000
0000
0001
0000
,  // measure 22
0100
0000
0010
0000
0100
0001
0000
1000
0000
0100
0000
0000
0010
0000
0001
0000
,  // measure 23
0100
0000
0010
0000
0100
0001
0000
1000
0000
0100
0000
0000
0010
0000
0100
0000
,  // measure 24
1000
0000
0010
0000
0100
0001
0000
1000
0000
0001
0000
0000
0010
0000
0100
0000
,  // measure 25
1000
0000
0001
0000
0010
0100
0000
0010
0000
0001
0000
0000
1000
0000
0010
0000
,  // measure 26
0100
0000
0001
0000
1000
0100
0000
0010
0000
0100
0000
0000
1000
0000
0010
0000
,  // measure 27
0100
0000
0001
0000
0010
0001
0000
0100
0000
0010
0000
0000
1000
0000
0100
0000
,  // measure 28
1000
0000
0001
0000
0010
0100
0000
0010
0000
0001
0000
0000
0100
0000
0010
0000
,  // measure 29
2000
0000
0010
0000
0001
0000
3100
1000
,  // measure 30
0020
0000
0001
0000
0100
0000
1030
0010
,  // measure 31
0200
0000
0001
0000
0010
0000
1300
0100
,  // measure 32
0002
0000
0000
0000
0010
0000
0000
0000
1000
0000
0000
0000
0103
0010
1000
0001
,  // measure 33
0100
0000
0000
0000
0000
0000
0000
0000
0000
0000
0000
0000
0000
0000
0001
0100
,  // measure 34
0001
0000
0010
0000
,  // measure 35
0100
0000
0000
0000
0000
0000
0000
0000
0000
0000
0000
0000
0000
0000
1000
0001
,  // measure 36
1000
0000
0100
0010
,  // measure 37
0001
0000
0000
0000
0000
0000
1000
0010
,  // measure 38
0100
0000
0000
0000
0000
0000
0000
0000
0000
0000
0000
0000
0000
0000
0001
1000
,  // measure 39
0001
0000
0000
0000
0000
0000
0000
0000
0100
0000
0000
0000
0000
0000
0010
1000
,  // measure 40
0001
0000
0000
0000
0010
0100
0001
0100
,  // measure 41
1000
0000
0000
0000
1100
0000
0000
0000
0001
0000
0100
0000
0010
0000
1000
0001
,  // measure 42
1000
0100
0110
0001
,  // measure 43
1001
0000
0000
0000
1000
0000
0000
0000
0010
0000
0100
0000
0001
0000
1000
0100
,  // measure 44
1000
0000
0010
0100
0101
0000
1100
0000
,  // measure 45
1001
0000
0001
0000
0010
0100
1000
0001
,  // measure 46
0100
0000
0000
0000
0010
0000
0000
0000
0100
0000
0001
0000
1000
0000
0100
0010
,  // measure 47
0100
1000
1001
0001
,  // measure 48
1000
0010
0001
0010
1000
0100
0001
0100
,  // measure 49
2000
0000
0001
0000
0001
0000
3001
0010
,  // measure 50
0002
0000
0000
0000
1000
0000
0000
0000
1000
0000
0000
0000
1003
0100
0010
0001
,  // measure 51
2000
0000
0000
3020
,  // measure 52
1030
0000
0100
0000
0010
0001
0000
0101
0000
0110
0000
0000
0010
0000
1000
0000
,  // measure 53
0001
0000
0010
0000
0100
1000
0000
1001
0000
0101
0000
0000
0100
0100
0000
0000
,  // measure 54
0010
0000
1000
0000
0001
0010
0000
0110
0000
1100
0000
0000
1000
0000
0010
0000
,  // measure 55
0100
0000
0001
0000
1000
0100
0000
0110
0000
0011
0000
0000
2002
0000
3003
0000
,  // measure 56
1000
0000
0010
0000
0100
0001
0000
0011
0000
0110
0000
0000
0100
0000
1000
0000
,  // measure 57
0001
1000
0001
1000
0001
1000
0001
1000
,  // measure 58
0010
0100
0010
0100
0010
0100
0010
0100
0010
0100
0010
0100
0001
0001
0000
0000
;

//---------------dance-single - ----------------
#NOTES:
     dance-single:
     :
     Medium:
     5:
     0.363,0.404,0.065,0.196,0.005: // measure 1
0000
0000
0000
0000
,  // measure 2
0000
0000
0000
0000
,  // measure 3
0000
0000
0000
0000
,  // measure 4
0000
0000
0000
0000
,  // measure 5
0010
0000
1000
0000
0100
0000
0010
0001
,  // measure 6
0100
0000
0010
0000
1000
0000
0100
0010
,  // measure 7
0001
0000
0100
0000
0010
0000
1000
0100
,  // measure 8
0010
0000
0001
0000
0100
0000
0010
1000
,  // measure 9
0100
0000
0001
0000
0100
0000
1000
0010
,  // measure 10
0100
0000
1000
0000
0100
0000
0001
0010
,  // measure 11
0100
0000
0001
0000
0100
0000
1000
0010
,  // measure 12
0100
0000
1000
0000
0100
0000
0001
0010
,  // measure 13
0200
0000
2300
0000
,  // measure 14
3002
0000
0203
0000
,  // measure 15
0320
0000
2030
0000
,  // measure 16
3002
0000
0023
0000
,  // measure 17
0230
1000
2300
0001
,  // measure 18
3002
0100
0203
0010
,  // measure 19
0301
0001
0001
0001
,  // measure 20
1000
0100
0010
0100
1000
0100
0020
0000
,  // measure 21
0031
0100
0010
0000
0001
0100
0010
0000
,  // measure 22
0001
0100
0010
1000
0100
0010
0001
0000
,  // measure 23
1000
0100
0010
0000
1000
0100
0010
0000
,  // measure 24
1000
0100
0010
0001
0100
0010
1000
0000
,  // measure 25
0010
0100
0001
0000
0010
0100
0001
0000
,  // measure 26
0010
0100
0001
0010
0100
1000
0001
0000
,  // measure 27
0100
0010
1000
0000
0100
0010
1000
0000
,  // measure 28
0100
0010
1000
0100
0010
0001
1000
0000
,  // measure 29
0002
0100
0000
0103
,  // measure 30
2000
0100
0000
3100
,  // measure 31
0002
0010
0000
0013
,  // measure 32
2000
0000
0010
0000
0000
0000
3010
0100
,  // measure 33
0001
0000
0000
0000
0000
0000
0000
1000
,  // measure 34
0001
0000
0010
0000
,  // measure 35
0100
0000
0000
0000
0000
0000
0000
1000
,  // measure 36
0001
0000
0100
0010
,  // measure 37
1000
0000
0000
0000
0000
0000
0001
0010
,  // measure 38
0100
0000
0000
0000
0000
0000
0000
1000
,  // measure 39
0001
0000
0000
0000
0100
0000
0000
0010
,  // measure 40
1000
0000
0000
0000
0100
0010
0100
0000
,  // measure 41
1000
0001
0100
0110
,  // measure 42
0001
1000
0100
0110
,  // measure 43
1000
0001
0010
0110
,  // measure 44
0001
1000
0010
0110
,  // measure 45
0001
0000
0010
0000
0100
1000
1001
0000
,  // measure 46
1000
0000
0010
0000
0100
0001
1001
0000
,  // measure 47
0001
0000
0100
0000
0010
1000
1001
0000
,  // measure 48
0001
0100
1000
0000
1000
0100
0001
0000
,  // measure 49
1000
0100
0001
0010
,  // measure 50
1000
0010
0001
0200
,  // measure 51
2300
0000
0000
3002
,  // measure 52
0103
0010
1000
0000
0001
0010
0100
0010
,  // measure 53
0001
0100
0010
0000
1000
0001
0100
0000
,  // measure 54
0010
0100
0001
0000
1000
0100
0010
0100
,  // measure 55
1000
0001
0100
0000
0010
0100
0002
0000
,  // measure 56
1003
0100
0010
0000
0001
0100
1000
0100
,  // measure 57
0001
0010
1000
0100
,  // measure 58
0001
0000
1000
0000
0001
0000
1000
0000
0001
0000
1000
0000
0001
0100
0000
0000
;

//---------------dance-single - ----------------
#NOTES:
     dance-single:
     :
     Easy:
     3:
     0.258,0.350,0.047,0.196,0.000: // measure 1
0000
0000
0000
0000
,  // measure 2
0000
0000
0000
0000
,  // measure 3
0000
0000
0000
0000
,  // measure 4
0000
0000
0000
0000
,  // measure 5
0001
0100
0000
0100
,  // measure 6
0010
1000
0000
1000
,  // measure 7
0100
0010
0000
0010
,  // measure 8
0001
1000
0000
1000
,  // measure 9
0001
0100
0000
0100
,  // measure 10
0010
1000
0000
1000
,  // measure 11
0100
0010
0000
0010
,  // measure 12
0001
1000
0000
1000
,  // measure 13
0020
0030
0200
0300
,  // measure 14
0002
0003
2000
3000
,  // measure 15
0020
0030
0200
0300
,  // measure 16
0002
0003
2000
3000
,  // measure 17
0002
0003
0020
0030
,  // measure 18
0200
0300
2000
3000
,  // measure 19
0001
0001
0001
0001
,  // measure 20
1000
0000
0100
0000
0010
0001
2000
0000
,  // measure 21
3001
0100
0010
0100
,  // measure 22
0001
0010
0100
0010
,  // measure 23
0001
0100
1000
0100
,  // measure 24
0001
0010
1000
0010
,  // measure 25
0001
0000
0100
0000
0010
0000
0100
0001
,  // measure 26
1000
0000
0100
0000
0010
0000
0100
1000
,  // measure 27
0001
0000
0010
0000
0100
0000
0010
0001
,  // measure 28
1000
0000
0010
0000
0100
0000
0010
1000
,  // measure 29
0002
0000
0000
0003
,  // measure 30
0020
0000
0000
0030
,  // measure 31
0200
0000
0000
0300
,  // measure 32
2000
0000
0000
3000
,  // measure 33
0001
0000
0000
0000
,  // measure 34
0100
0000
0000
0000
,  // measure 35
0010
0000
0000
0000
,  // measure 36
1000
0000
0001
0010
,  // measure 37
0100
0000
0000
0000
,  // measure 38
1000
0000
0000
0000
,  // measure 39
0010
0000
0100
0000
,  // measure 40
0001
0000
1000
0100
,  // measure 41
0010
0001
0000
0001
,  // measure 42
0100
0010
1000
0001
,  // measure 43
0010
0100
0000
0100
,  // measure 44
1000
0001
0100
0010
,  // measure 45
1000
0100
0000
0100
,  // measure 46
0010
0001
0010
0100
,  // measure 47
1000
0100
0001
0100
,  // measure 48
1000
1000
0001
0001
,  // measure 49
0200
0000
0000
0300
,  // measure 50
0020
0000
0000
1030
,  // measure 51
0002
0000
0000
0013
,  // measure 52
0100
0000
0110
0000
0010
0000
0001
0100
,  // measure 53
0010
0000
0110
0000
0100
0000
0001
1000
,  // measure 54
0100
0000
0110
0000
0010
0000
0001
0100
,  // measure 55
0010
0000
0110
0000
0100
0000
0001
1000
,  // measure 56
0100
0000
0110
0000
0010
0000
0001
1000
,  // measure 57
0100
0100
0100
0100
,  // measure 58
1000
0000
0001
0000
1000
0000
0001
0000
1000
0000
0001
0000
0200
0300
0000
0000
;

//---------------dance-single - ----------------
#NOTES:
     dance-single:
     :
     Beginner:
     0:
     0.075,0.161,0.000,0.009,0.000:
0000
0000
0000
0000
,
0000
0000
0000
0000
,
0000
0000
0000
0000
,
0000
0000
0000
0000
,
1000
0000
0000
0000
,
0001
0000
0000
0000
,
1000
0000
0000
0000
,
0001
0000
0000
0000
,
0100
0000
0000
0000
,
0010
0000
0000
0000
,
0100
0000
0000
0000
,
0010
0000
0000
0000
,
1000
0000
0000
0000
,
0100
0000
0000
0000
,
0010
0000
0000
0000
,
0001
0000
0000
0000
,
1000
0000
0000
0000
,
0100
0000
0000
0000
,
0010
0000
0000
0000
,
0010
0000
0010
0000
,
0010
0000
0000
0000
,
0001
0000
0000
0000
,
0100
0000
0000
0000
,
0010
0000
0000
0000
,
1000
0000
0000
0000
,
0100
0000
0000
0000
,
0010
0000
0000
0000
,
1000
0000
0000
0000
,
0001
0000
0000
0000
,
0100
0000
0000
0000
,
0010
0000
0000
0000
,
0001
0000
0000
0000
,
0000
0000
0000
0000
,
0100
0000
0000
0000
,
0000
0000
0000
0000
,
0010
0000
0000
0000
,
0000
0000
0000
0000
,
1000
0000
0000
0000
,
0000
0000
0000
0000
,
0001
0000
0000
0000
,
0010
0000
0000
0000
,
0100
0000
0000
0000
,
1000
0000
0000
0000
,
0100
0000
0000
0000
,
0010
0000
0000
0000
,
0001
0000
0000
0000
,
1000
0000
0000
0000
,
0010
0000
0000
0000
,
0100
0000
0000
0000
,
0010
0000
0000
0000
,
2000
0000
3000
0000
,
0001
0000
0000
0000
,
0100
0000
0000
0000
,
0010
0000
0000
0000
,
0100
0000
0000
0000
,
1000
0000
0000
0000
,
0001
0000
0001
0000
,
0001
0001
0001
0001
;
