#TITLE:MILES;
#SUBTITLE:;
#ARTIST:Electronic Boutique;
#TITLETRANSLIT:;
#SUBTITLETRANSLIT:;
#ARTISTTRANSLIT:;
#GENRE:;
#CREDIT:;
#BANNER:miles-banner.png;
#BACKGROUND:miles.png;
#LYRICSPATH:;
#CDTITLE:;
#MUSIC:MILES.ogg;
#OFFSET:0.439;
#SAMPLESTART:7.300;
#SAMPLELENGTH:12.000;
#SELECTABLE:YES;
#BPMS:0.000=130.000;
#STOPS:;
#BGCHANGES:;
#KEYSOUNDS:;

//---------------dance-single - TaroNuke----------------
#NOTES:
     dance-single:
     TaroNuke:
     Hard:
     9:
     0.537,0.489,0.271,0.645,0.143:
0000
2200
3300
0011
,
0101
0000
1001
0000
1001
0000
0010
1000
,
0100
0010
0011
0000
0110
0000
1010
0000
,
2000
0002
0000
0000
0000
0000
0000
0000
,
3003
0101
0000
0110
,
1100
0000
0011
0000
1001
0000
0100
1000
,
0010
0100
0101
0000
0011
0000
1100
0000
,
0010
0200
0010
0000
0010
0000
0010
0000
,
0310
1000
0001
0100
0002
0000
0000
0000
2003
0000
0000
0000
3200
0000
0000
0000
,
2300
0000
3020
0000
0230
0000
0301
0010
,
0100
1000
0200
0000
2300
0000
3020
0000
,
0130
0001
1000
0100
0001
0100
0010
0100
,
1000
0010
0200
0000
0302
0000
2003
0000
,
3020
0000
0032
0000
2003
0000
3100
0001
,
0010
0100
2000
0000
3002
0000
2003
0000
,
3010
0000
0100
0000
0001
0000
1000
0000
0100
0000
0010
0001
0000
0001
0010
0000
,
0100
1000
0010
0100
0002
0000
0000
0000
0000
0000
0000
0000
0000
0000
0000
0000
,
0000
0000
1003
0100
2000
0000
0000
0000
0000
0000
0000
0000
3010
0000
0100
0000
,
0010
1000
0002
0000
0000
2000
0000
3000
,
0200
0000
0000
0300
,
1003
0010
0100
0001
2000
0000
0000
0000
0000
0000
0000
0000
0000
0000
0000
0000
,
0000
0000
3001
0100
0002
0000
0000
0000
0000
0000
0000
0000
1003
0000
0001
0000
,
0100
0001
2000
0000
0000
0020
0000
0030
,
0200
0000
0000
0000
0000
0000
0000
0300
,
3001
1000
0001
0000
0012
0000
0000
0100
0000
0000
1000
0000
0000
0000
0020
0000
,
0000
0000
0033
0000
1020
0000
0000
0100
0000
0000
0001
0000
0000
0000
0200
0000
,
0000
0330
2002
0000
3003
0220
0000
0000
,
0000
0000
0330
0000
1200
0000
0000
0010
0000
0000
0001
0000
0000
0000
2000
0000
,
0000
0000
3300
0000
0102
0000
0000
1000
0000
0000
0100
0000
0000
0000
0020
0000
,
0000
0000
0033
0000
2001
0000
0000
0100
0000
0000
0001
0000
0000
0000
0020
0000
,
0000
3030
0202
0000
0303
2200
0000
0000
,
3300
0000
0000
0000
0120
0000
0000
0001
0000
0000
1000
0000
0000
0000
0200
0000
,
0000
0330
1000
0100
1000
0010
0100
0001
,
2000
0000
3001
0100
0001
0010
0100
0010
,
0002
0000
2003
0000
0000
0002
0000
0000
,
3003
0000
0100
1000
0010
0100
0001
0010
,
0200
0000
0301
1000
0100
2000
0000
3001
,
2000
0000
3010
1000
0100
2000
0000
3010
,
0100
0000
0002
0000
0000
0200
0000
0000
,
0303
0000
1000
0100
0010
2000
0000
3001
,
0200
0000
0310
1000
0100
0001
0100
1000
,
0010
0100
0001
0010
0100
0010
1000
0010
,
0100
0000
2000
0000
0000
0200
0000
0000
,
3300
0000
0001
1000
0100
0002
0000
0103
,
1000
0000
0010
0100
0010
0100
0001
1000
,
0001
0000
1000
0000
0000
0000
0011
0000
0000
0110
0000
0000
2100
0000
0100
0000
,
0100
3100
1000
0010
0100
0001
0010
0100
,
1000
0100
1000
0010
0100
0001
1000
0100
,
1000
0000
0000
0000
0001
0000
0001
0000
1000
0000
0001
1000
0001
1000
0100
1000
,
0001
0100
0001
1000
0020
0000
0000
0000
0000
0000
0000
0000
0000
0000
0000
0000
,
0000
0000
0130
0001
2000
0000
0000
0000
0000
0000
0000
0000
3001
0000
0010
0000
,
0100
1000
0200
0000
0000
0001
0000
0000
,
1000
0000
0000
0000
0001
0000
0000
1000
0000
0000
0001
0000
0000
0000
1000
0000
,
1300
0010
0100
0010
0200
0000
0000
0000
0000
0000
0000
0000
0000
0000
0000
0000
,
0000
0000
0310
1000
0002
0000
0000
0000
0000
0000
0000
0000
0013
0000
0001
0000
,
0100
0001
0020
0000
0000
0001
0000
0000
,
0100
0000
0000
0000
1000
0000
0000
0100
0000
0000
1000
0000
0000
0000
0100
0000
,
0130
1000
0010
0100
0002
0000
0000
1000
0000
0000
0100
0000
0000
0000
0010
0000
,
0013
0000
0001
1000
0100
0000
1000
0000
0010
0000
0100
0000
0001
0000
0100
0000
,
0110
0001
0010
0100
1000
0010
0100
0001
,
1001
0100
1000
0010
0100
0010
0001
0010
,
1010
0100
0001
0010
0100
1000
0010
0100
,
0101
0001
1000
0100
0001
0100
2000
0010
,
0010
3010
0001
1000
0100
0001
0100
0010
,
0001
1000
0010
0001
0010
0100
0001
1000
,
0100
0010
0100
0010
0002
0000
0000
0100
0000
0000
1000
0000
0000
0000
0200
0000
,
0000
0000
0000
0303
2002
0000
0000
0000
,
0000
0000
0000
0000
,
0000
3003
0000
0000
;

//---------------dance-single - SLUMPAGE----------------
#NOTES:
     dance-single:
     SLUMPAGE:
     Challenge:
     12:
     0.820,0.870,0.143,0.366,1.000:
0000
0000
0000
0000
0000
0000
0000
0000
0000
0000
0000
0000
0000
0000
0000
1000
0200
0000
0000
0000
0000
0000
0000
0000
0000
0000
0000
0000
0000
0000
0000
0000
0000
0000
0000
0000
0000
0000
0000
0000
0000
0000
0000
0000
0000
0000
0000
0000
0320
0000
0000
0000
0000
0000
0000
0000
0000
0000
0000
0000
0000
0000
0000
0000
,
0032
0000
0000
0000
0000
0000
0000
0000
0000
0000
0000
0000
0000
0000
0000
0000
2003
0000
0000
0000
0000
0000
0000
0000
0000
0000
0000
0000
0000
0000
0000
0000
3010
0000
0000
0000
0000
0000
0000
0000
0000
0000
0000
0000
0000
0000
0000
0100
0001
0000
0000
0000
0000
0000
0000
0000
1000
0000
0000
0000
0000
0000
0000
0000
,
0100
0010
0012
0000
1000
0000
0100
0000
,
1000
0203
0000
0000
0000
0000
0000
0000
,
0300
0000
0000
0000
0000
0000
0000
0000
0000
0000
0000
0000
0000
0000
0000
1000
0020
0000
0000
0000
0000
0000
0000
0000
0000
0000
0000
0000
0000
0000
0000
0000
0000
0000
0000
0000
0000
0000
0000
0000
0000
0000
0000
0000
0000
0000
0000
0000
0230
0000
0000
0000
0000
0000
0000
0000
0000
0000
0000
0000
0000
0000
0000
0000
,
0302
0000
0000
0000
0000
0000
0000
0000
0000
0000
0000
0000
0000
0000
0000
0000
0023
0000
0000
0000
0000
0000
0000
0000
0000
0000
0000
0000
0000
0000
0000
0000
0130
0000
0000
0000
0000
0000
0000
0000
0000
0000
0000
0000
0000
0000
0000
1000
0010
0000
0000
0000
0000
0000
0000
0000
0100
0000
0000
0000
0000
0000
0000
0000
,
0001
0010
0120
0000
0001
0000
1000
0000
,
0100
0031
0100
0000
0110
0000
1100
0000
,
1000
0010
0100
0010
1000
0000
0010
0000
1000
0000
0100
1000
0000
1000
0010
0000
,
0100
0001
1000
0010
0100
0000
0001
0000
0010
0000
0100
1000
0000
1000
0010
0000
,
0100
0000
0001
0000
1000
0100
1000
0010
0100
0000
0001
1000
0000
1000
0001
0000
,
0010
0000
0100
0000
1000
0100
1000
0000
0001
0000
1000
0010
0000
0100
0001
0000
,
1000
0100
0010
0001
0010
0000
0100
0000
1000
0000
0010
0001
0000
0001
0010
0000
,
0100
0001
0100
0001
0010
0000
0100
0000
1000
0000
0001
0010
0000
0010
0001
0000
,
0100
0000
0010
0000
1000
0000
0100
0000
1000
0000
0001
0100
0000
0100
0001
0000
,
1000
0000
0100
0000
1000
0010
1000
0000
0001
0000
0010
0100
0000
0100
0010
0000
,
0001
1000
0010
0100
0002
0000
0000
0000
0100
0000
0000
0000
0010
0000
0000
0000
,
1003
0000
0001
0010
0200
0000
0000
0000
0010
0000
0000
0000
0310
0000
0001
0000
,
0100
0010
2020
0000
3000
0200
0000
0300
,
1000
0000
1030
0000
0010
0100
0001
0000
1000
0000
0100
0010
0000
0010
0100
0000
,
1000
0010
0001
0010
2000
0000
0000
0000
0001
0000
0000
0000
0010
0000
0000
0000
,
0100
0000
3100
1000
0020
0000
0000
0000
0001
0000
0000
0000
0130
0000
0010
0000
,
1000
0100
0220
0000
0300
0002
0000
0003
,
2000
0000
0000
3030
,
0001
0010
0100
1000
0002
0000
0000
1000
0000
0000
0100
0000
0000
0000
0010
0000
,
2003
0000
0000
0000
3020
0000
0000
0001
0000
0000
0100
0000
0000
0000
1000
0000
,
0230
0000
2300
0000
0000
0002
0000
0000
,
3003
0000
0000
0000
0020
0000
0000
1000
0000
0000
0001
0000
0000
0000
0100
0000
,
0130
0010
1000
0100
0020
0000
0000
0001
0000
0000
0100
0000
0000
0000
0001
0000
,
0032
0000
0000
0000
2003
0000
0000
0001
0000
0000
0100
0000
0000
0000
0010
0000
,
3020
0000
0230
0000
0000
0020
0000
0000
,
0330
0000
0000
0000
0200
0000
0000
0001
0000
0000
1000
0000
0000
0000
0010
0000
,
0301
0000
0000
0000
1000
0000
0100
0010
0001
0100
0010
1000
0000
0000
0001
0000
,
0100
0000
0010
1000
0100
0000
0010
0001
0100
0010
1000
0001
0000
0000
0100
0000
,
0010
1000
0010
0100
0001
0000
0010
0000
0100
1000
0100
0020
0000
0000
0000
0000
,
0000
0000
0000
0000
0001
0000
0000
1000
0000
0000
0100
0000
0000
0000
0031
0000
,
1000
0010
0100
0001
0010
0100
0010
0001
1000
0000
0010
0200
0000
0000
0000
0000
,
0000
0000
0301
1000
0100
0001
0100
1000
0010
0000
0100
0001
0000
0000
1000
0000
,
0100
0000
0010
0000
0001
0010
1000
0010
0100
0000
1000
0020
0000
0000
0000
0000
,
0000
0130
0001
0010
0100
1000
0100
0010
0001
0000
1000
0100
0000
1010
0000
1001
,
0000
0100
0001
1000
0000
0000
0100
0010
0100
1000
0010
0100
0010
1000
0001
0010
,
0100
0010
0001
1000
0100
0001
0100
1000
0010
0001
1000
0100
0001
0010
0200
0000
,
0000
0000
1300
0100
2000
0000
3001
0010
0001
0000
1000
0002
0000
0000
0103
0010
,
2000
0000
0000
0000
0000
3001
1000
0100
1000
0010
0000
0110
0000
1001
0000
0101
,
0000
0000
0000
1000
0000
0000
0000
0000
0000
0100
0000
0000
1000
0000
0100
0000
0010
0000
0100
0000
0010
0000
0001
0000
1000
0000
0100
0000
0010
0000
0100
0000
0010
0000
0001
0000
1000
0000
0000
0100
0000
0000
0010
0000
0000
0001
0000
0000
,
0010
0100
1000
0001
0000
0000
0101
0000
0000
1001
0000
0000
1000
0010
0100
0001
,
1000
0010
0100
0001
0010
0100
0000
1000
0001
0000
0100
0001
0000
1000
0010
0000
,
1000
0100
0000
0010
0001
0000
1000
0010
0000
0100
0010
0000
1000
0001
0100
0001
,
1000
0001
1000
0010
0100
0001
1000
0001
0010
0100
0000
1100
0000
1000
0010
0100
,
0001
1000
0100
0010
0001
1000
0100
0001
0100
1000
0010
0001
0010
0100
0001
0010
,
0100
1000
0100
0001
0100
0010
0001
1000
0010
0100
0001
0100
0010
1000
0001
0010
,
0100
0010
0001
1000
0100
0001
0100
1000
0010
0100
0001
0100
0010
0001
0010
0100
,
0001
0010
0100
1000
0100
0010
1000
0010
0100
1000
0010
0100
0010
1000
0010
0100
,
0001
1000
0100
0010
0001
0010
0100
1000
0001
0100
0001
1000
0010
0001
1000
0100
,
0001
0010
1000
0001
0100
1000
0010
0100
0001
1000
0010
0001
1000
0100
0001
0010
,
1000
0010
0001
0100
1000
0100
0001
0010
0100
1000
0100
0010
0001
1000
0001
0100
,
0001
0010
0100
1000
0100
0010
0001
0100
0001
0010
0100
1000
0100
0001
0100
1000
,
0010
1000
0100
1000
0010
0100
0010
1000
0100
0001
0100
0010
0001
0100
1000
0100
,
0010
1000
0001
0010
1000
0010
0100
1000
0010
0001
0010
0100
0001
0010
0100
1000
,
0010
0100
0001
1000
0100
1000
0010
0100
0010
1000
0001
0100
0001
0010
0001
0100
,
0001
1000
0100
0001
0100
0010
0001
1000
0010
0100
0010
0001
1000
0100
0001
0100
,
1000
0100
0010
1000
0001
0010
1000
0010
0001
0010
0100
0010
0001
1000
0010
0100
,
0010
1000
0001
0010
0100
0010
1000
0001
0100
1000
0010
0100
0001
0000
1001
0000
,
1001
0000
1100
0000
0010
1000
0100
0010
0001
0100
0010
1000
0100
0001
0100
0010
,
0001
1000
0010
0100
0001
1000
0100
0001
1000
0010
0001
1000
0010
0100
1000
0100
,
0010
1000
0001
0010
0200
0000
0000
1000
0000
0000
0001
0000
0000
0000
1000
0000
,
0001
0300
2002
0000
,
0000
0000
0000
0000
,
0000
3003
0000
0000
;

//---------------dance-single - TaroNuke----------------
#NOTES:
     dance-single:
     TaroNuke:
     Easy:
     2:
     0.173,0.245,0.064,0.223,0.000:
0000
1000
0000
0001
,
0000
0100
0000
0010
,
0000
1000
0001
1000
,
0000
1001
0000
0000
,
0000
0001
0000
1000
,
0000
0010
0000
0100
,
0000
0001
1000
0001
,
0000
1001
1001
1001
,
1001
1000
0000
0010
,
0000
0100
0000
0010
,
0000
1000
0000
0001
,
0000
0100
0000
0001
,
0000
1000
0000
0100
,
0000
0010
0000
0001
,
0000
1000
0000
0010
,
0000
0100
0000
0001
,
0000
2000
0000
0000
,
0000
3002
0000
0203
,
0000
0320
0000
0000
,
0000
0000
0000
0000
,
0000
2030
0000
0000
,
0000
3002
0000
0203
,
0000
0320
0000
0000
,
0000
0000
0000
0000
,
0030
1000
0000
0000
,
0000
1000
0000
0000
,
0000
0001
0000
0100
,
0000
0001
0000
0001
,
1000
0010
0000
0000
,
0000
0010
0000
0000
,
0000
0100
0000
0001
,
0000
0100
0000
0100
,
0000
0001
0000
0100
,
0000
0001
0000
0010
,
0000
0001
0000
0100
,
0000
0110
0000
1001
,
0000
1000
0000
0100
,
0000
1000
0000
0010
,
0000
0001
0000
0010
,
0000
1000
0000
0001
,
0000
1000
1000
1000
,
0000
0010
0010
0010
,
0000
0100
0100
0100
,
0000
0001
0001
0001
,
0000
0000
1000
0001
1000
0001
1000
0001
,
1000
0001
0000
0000
0000
0000
0000
0000
,
0000
1000
0000
0001
,
0000
0100
0000
0001
,
0000
2000
0000
0000
,
3000
0002
0000
0000
,
0000
2003
0000
3020
,
0000
0230
0000
0000
,
0000
0000
0000
0000
,
0000
0302
0000
0000
,
0000
2003
0000
3020
,
0000
0230
0000
0000
,
0000
0302
0000
0000
,
0000
2003
0000
0000
,
0000
3002
0000
0203
,
0000
0320
0000
0000
,
0000
0000
0000
0000
,
0000
2030
0000
0000
,
0000
3002
0000
0203
,
0000
0320
0000
0000
,
0000
0000
0000
0000
,
0030
1000
0000
0000
,
0000
0000
2002
0000
,
0000
0000
0000
0000
,
0000
3003
0000
0000
;

//---------------dance-single - TaroNuke----------------
#NOTES:
     dance-single:
     TaroNuke:
     Medium:
     6:
     0.369,0.408,0.024,0.589,0.028:
0000
1001
0000
1000
,
0001
0000
0100
0000
0010
0000
1000
0100
,
0010
0001
0100
0000
0010
0000
1000
0000
,
0001
0200
0000
0000
0000
0000
0000
0300
,
0000
1001
0000
0001
,
1000
0000
0010
0000
0100
0000
0001
0010
,
0100
1000
0010
0000
0100
0000
0001
0000
,
1000
0020
0100
0000
0100
0000
0100
0030
,
0100
0010
1000
0000
0100
0000
0001
0000
,
0100
1000
0010
0001
,
0010
1000
0001
0100
,
0001
1000
0010
0000
0100
0000
0010
0000
,
1000
0001
1000
0000
0010
0000
0001
0000
,
0010
1000
0100
0001
,
0100
1000
0001
0010
,
0001
1000
0100
0000
0010
0000
0100
0000
,
2000
3002
0000
0000
,
0000
0000
2003
0000
0000
0000
3002
0023
,
0230
2300
3002
0000
0000
0203
0000
0000
,
2300
0000
0000
0000
,
3200
0302
0000
0000
,
0000
0000
2003
0000
0000
0000
3002
0023
,
0230
2300
3200
0000
0000
0320
0000
0000
,
0032
0000
0000
0000
,
0000
0000
0000
0000
1003
0000
0000
1000
0000
0000
1000
0000
0000
0000
0001
0000
,
0000
0000
0000
0000
1000
0000
0000
1000
0000
0000
1000
0000
0000
0000
0001
0000
,
0000
0000
0020
0000
0000
0230
0000
0000
,
0000
0000
0000
0000
0310
0000
0000
0010
0000
0000
0010
0000
0000
0000
0200
0000
,
0000
0000
0000
0000
1300
0000
0000
1000
0000
0000
1000
0000
0000
0000
0001
0000
,
0000
0000
0000
0000
1000
0000
0000
1000
0000
0000
1000
0000
0000
0000
0001
0000
,
0000
0000
0020
0000
0000
0230
0000
0000
,
0000
0000
0000
0000
0310
0000
0000
0010
0000
0000
0010
0000
0000
0000
0200
0000
,
0000
0000
1300
0010
1000
0010
0100
0000
,
0001
0000
0100
0001
0100
0001
0010
0001
,
0100
0000
0010
1000
0010
1000
0100
0000
,
0000
1000
0000
0001
,
0000
0000
1000
0100
0010
0001
1000
0000
,
0000
0000
0001
0010
0100
1000
0001
0000
,
0000
0000
1000
0010
0100
0001
1000
0000
,
0000
0000
0001
0010
0100
1000
0100
0010
,
0001
0000
1000
0100
0010
0001
1000
0100
,
0010
0001
1000
0100
0010
0001
1000
0100
,
0010
0001
1000
0000
0000
0000
0001
0000
,
0000
1000
0000
0001
,
0100
0010
0100
0010
1000
0001
1000
0001
,
0100
0010
0100
0001
,
0000
1000
0001
0100
,
0001
1000
0010
1000
,
0001
2000
0000
0000
,
3001
0002
0000
0000
,
0000
0000
2003
0000
0000
0000
3002
0023
,
0230
2300
3002
0000
0000
0203
0000
0000
,
2300
0000
0000
0000
,
3200
0302
0000
0000
,
0000
0000
2003
0000
0000
0000
3002
0023
,
0230
2300
3200
0000
0000
0320
0000
0000
,
0230
0000
0000
0000
2300
0000
3002
2003
,
3200
0320
0032
0000
0000
0000
0000
0000
,
0000
0000
2003
0000
0000
0000
3002
0023
,
0230
2300
3002
0000
0000
0203
0000
0000
,
2300
0000
0000
0000
,
3200
0302
0000
0000
,
0000
0000
2003
0000
0000
0000
3002
0023
,
0230
2300
3200
0000
0000
0320
0000
0000
,
0032
0000
0000
0000
,
0000
0000
0000
0000
1003
0000
0000
1000
0000
0000
1000
0000
0000
0000
0001
0000
,
0000
0000
0220
0000
,
0000
0000
0000
0000
,
0000
0330
0000
0000
;
