#TITLE:How Low;
#SUBTITLE:;
#ARTIST:MAKINO;
#TITLETRANSLIT:;
#SUBTITLETRANSLIT:;
#ARTISTTRANSLIT:;
#GENRE:;
#CREDIT:;
#BANNER:[Round 3 Singles] - How Low.png;
#BACKGROUND:[Round 3 Singles] - How Low-background.png;
#LYRICSPATH:[Round 3 Singles] - How Low.lrc;
#CDTITLE:cdtitle.png;
#MUSIC:[Round 3 Singles] - How Low.mp3;
#OFFSET:-0.652845;
#SAMPLESTART:63.880024;
#SAMPLELENGTH:21.333332;
#SELECTABLE:YES;
#BPMS:0.000000=180.000000
;
#STOPS:264.500000=0.667000
;
#BGCHANGES:;
#KEYSOUNDS:;
#ATTACKS:;

//---------------dance-single - ----------------
#NOTES:
     dance-single:
     :
     Challenge:
     9:
     0.687943,0.612533,0.254483,0.274058,0.058727,438.000000,26.000000,28.000000,56.000000,0.000000,0.000000,0.687943,0.612533,0.254483,0.274058,0.058727,438.000000,26.000000,28.000000,56.000000,0.000000,0.000000:
0000
0000
0000
0000
,
0000
0000
0000
0000
,
0000
0000
0000
0000
,
0000
0000
0000
0000
0110
0110
0000
1001
,
0000
1000
0001
0010
0100
1000
0100
0020
,
0000
0031
2000
0000
3010
0100
0010
0110
,
0000
0100
0001
0010
0100
1000
0100
0020
,
0000
0031
2000
0000
3010
1000
0010
1010
,
0000
1000
0001
0010
0100
1000
0100
0020
,
0000
0031
2000
0000
3001
0100
0001
0101
,
0000
0001
1000
0000
0010
0100
0110
0000
,
0001
0000
1000
0000
0001
0000
1000
0100
1000
0000
0001
0000
0100
0000
0101
0000
,
0000
0001
1000
0010
0100
0001
0010
0200
,
0000
1300
0002
0000
1003
0001
1000
1001
,
0000
0001
1000
0010
0100
0001
0010
0200
,
0000
1300
0002
0000
0013
0100
0010
0110
,
0000
0001
1000
0010
0100
0001
0010
0200
,
0000
1300
0002
0000
0103
0010
1000
1010
,
0000
1000
0001
0000
0100
0010
1000
0000
,
0100
0000
0010
0000
0110
0000
0000
0000
1001
0000
0001
0000
0100
0000
0001
0100
,
0001
0100
0001
0100
MMMM
0100
1000
0100
,
1000
0100
MMMM
0100
0001
0100
MMMM
0001
,
1000
0100
1000
0100
MMMM
0100
0001
0100
,
0001
0000
0100
0000
MMMM
0000
0100
1000
0001
0000
1000
0000
0100
0000
0000
0000
,
1000
1000
1000
2000
,
0010
0010
0010
3020
,
0100
0100
0100
0230
,
0001
0001
0001
0302
,
0010
0010
0010
0023
,
1000
1000
1000
2030
,
0100
0100
0100
3200
,
0001
0001
0301
1001
,
1100
0000
0001
0010
0100
0000
0001
0010
,
0100
0000
0001
0010
0100
0010
0001
0010
,
0100
0000
1000
0010
0100
0000
1000
0010
,
0100
0000
0000
0000
1000
0000
0010
0100
0010
0000
1000
0000
0001
0000
0010
0000
,
0100
0000
1000
0001
0100
0000
1000
0001
,
0100
0000
1000
0001
0100
1000
0100
0001
,
1000
0000
0001
1000
0100
0000
0001
1000
,
0100
0000
0000
0000
0001
0000
1000
0100
1000
0000
0001
0100
0001
0100
0001
0100
,
0010
0000
1000
0100
1000
0001
0100
0010
,
0100
0000
0001
0100
0001
1000
0100
0010
,
0100
0000
1000
0001
0010
0100
1000
0010
,
0000
0000
0010
0000
1000
0000
0000
0000
0100
0010
0000
0000
1001
0000
0000
0000
,
0001
1000
0100
0020
0000
0031
0100
0020
,
0000
0000
1030
0000
0001
0000
0000
0010
0001
0000
0100
0000
0010
0000
1000
0000
,
0000
0001
0100
0000
0001
1000
0000
0020
,
0030
0010
0100
0000
0110
0110
0000
1001
,
0000
1000
0001
0000
0010
0100
1000
0000
,
0001
0100
0010
0000
0100
0010
0100
0001
,
1000
0100
0010
0000
0001
0010
1000
0000
,
0010
0001
0100
0010
1000
0001
1000
0000
,
0110
0000
0001
0100
1000
0100
0001
1000
,
0100
0000
1000
0100
0001
0100
1000
0001
,
0100
0010
1000
0001
0000
0001
0010
0000
,
0100
0000
1000
0000
0001
0000
0100
0010
0100
0000
0001
0000
1000
0000
1100
0000
,
0000
0100
0010
0000
0001
0010
0100
0000
,
0001
0100
1000
0000
0001
0010
0100
0010
,
0001
0100
0010
0000
0100
0001
1000
0010
,
0001
0010
0001
0010
0001
0010
0100
1000
,
0100
0000
0001
0010
0100
0010
0001
0100
,
1000
0000
0100
0010
1000
0100
0001
0100
,
1000
0001
0100
0002
0000
0013
0100
0000
,
1000
0010
1010
0000
0101
0100
0001
1000
,
1200
0000
0000
2300
0000
0000
3002
0000
,
0023
0000
0000
0200
0000
0000
0330
0000
,
0110
0110
MMMM
0000
0001
0010
0001
0010
,
MMMM
0010
1000
0010
1000
0010
MMMM
0010
,
0001
0010
MMMM
0001
1000
0010
1000
0010
,
MMMM
0010
0001
0010
0001
0010
MMMM
0010
,
1000
0000
0001
0000
0100
0000
0001
0100
0001
0000
0100
0000
0001
0000
0100
0000
,
MMMM
0100
1000
0100
1000
0100
MMMM
0100
,
0001
0100
MMMM
0001
0010
0100
0010
0100
,
0000
0000
0010
0100
0010
0100
0000
0000
;

//---------------dance-single - ----------------
#NOTES:
     dance-single:
     :
     Hard:
     8:
     0.588666,0.504439,0.166393,0.332785,0.034257,370.000000,17.000000,34.000000,0.000000,0.000000,0.000000,0.588666,0.504439,0.166393,0.332785,0.034257,370.000000,17.000000,34.000000,0.000000,0.000000,0.000000:
0000
0000
0000
0000
,
0000
0000
0000
0000
,
0000
0000
0000
0000
,
0000
0000
0000
0000
0110
0110
0000
1001
,
0000
1000
0001
0000
0010
0001
1000
0000
,
0010
0100
0001
0000
0100
0010
0100
0001
,
0000
0010
0100
0000
0010
0001
0100
0000
,
0010
0100
0001
0000
0010
0100
1000
1100
,
0000
1000
0100
0000
0010
0100
1000
0000
,
0010
0100
0001
0000
0100
0010
1000
0002
,
0000
0013
0001
0000
1000
0000
0110
0000
,
1000
0010
0100
0001
0010
0000
0100
1001
,
0000
1000
0001
0000
0100
0001
0010
0000
,
0100
0010
0001
0000
1000
0100
0010
0001
,
0000
0100
0010
0000
0100
0010
1000
0000
,
0001
0010
0100
0000
1000
0010
0100
0110
,
0000
0010
1000
0000
0100
0010
0001
0000
,
1000
0100
0010
0000
0001
0100
0010
0200
,
0000
0301
1000
0200
0000
0000
0310
0000
,
0001
1000
1001
0000
0001
0010
0100
0000
,
1000
0100
1000
0100
0000
1000
0001
0100
,
0001
0100
0000
0001
1000
0100
0000
1000
,
0001
0100
0001
0100
0000
0001
1000
0100
,
1000
0100
0000
1000
0001
0010
0100
0000
,
0000
0000
0000
0000
1000
0100
0010
0002
,
0000
0010
1000
0100
,
2003
0000
0000
0200
0000
0000
0000
0000
,
3300
0000
0000
0000
,
0000
0000
0000
0000
1000
0010
0100
0002
,
0000
0100
1000
0010
,
2003
0000
0000
3020
0000
0000
0200
0000
,
0000
0330
0000
0110
,
1001
0000
0001
0000
1000
0100
0010
0100
,
1000
0000
0001
0000
0010
0001
1000
0001
,
0010
0000
0001
0000
0100
0010
0001
0010
,
0100
0000
0001
1000
0100
1000
0001
1000
,
0010
0000
0100
0000
0001
0100
0010
0100
,
0001
0000
1000
0000
0100
0010
0001
0010
,
0100
0000
1000
0000
0010
0100
1000
0100
,
0010
0000
0100
0001
1000
0001
1000
0001
,
0010
0000
0010
0001
0100
0010
1000
0100
,
1000
0000
1000
0010
0100
0010
1000
0001
,
0010
0000
0010
0001
1000
0100
0010
0001
,
0000
0000
0100
0000
0010
0000
0000
0000
0100
0010
0000
0000
0110
0000
0000
0000
,
0001
1000
0010
0100
0000
0001
0010
0100
,
0000
0000
0100
0000
0010
0000
0000
0000
0001
0000
0000
1000
0000
0000
0001
0000
,
0200
0000
0000
0000
0000
0020
0000
0000
0000
0000
0000
0000
0000
0000
0000
0000
,
0000
0000
0330
0000
0001
1000
0010
2010
,
0000
3001
0010
0200
0000
0310
0100
2000
,
0000
3001
0000
0000
1000
0010
0100
0020
,
0000
0031
0010
0200
0000
0310
1000
0200
,
0000
0310
0001
1000
0000
0000
0010
0100
,
0110
0000
0001
2000
0000
3002
0000
0013
,
0200
0000
0000
0000
0310
0000
0000
0000
0001
0000
0000
0100
0000
0000
0010
0000
,
2000
0000
0000
0200
0000
0000
3300
0000
,
1000
1000
0000
0010
0000
0100
0000
0102
,
0000
1003
0010
0200
0000
0310
0100
0002
,
0000
1003
0000
0000
0001
0100
0010
0200
,
0000
0310
1000
0002
0000
0013
0100
2000
,
0000
3010
0100
0001
0000
1000
0001
0000
,
0011
0000
0000
0000
1000
0000
0000
0000
0010
0000
0000
0100
0000
0000
0001
0000
,
1000
0000
0000
0000
0100
0000
0000
0000
0010
0000
0000
0001
0000
0000
0100
0000
,
0020
0000
0000
0200
0000
0000
0330
0000
,
0001
1000
0100
0000
0010
0001
0100
0010
,
2000
0000
0000
0000
3000
0000
0000
0000
0010
0000
0000
0100
0000
0000
0002
0000
,
2000
0000
0000
3003
,
1001
1001
0000
0000
0001
0100
0001
0100
,
0000
0001
1000
0100
1000
0100
0000
1000
,
0001
0100
0000
0001
1000
0010
1000
0010
,
0000
1000
0001
0010
0001
0010
0000
0001
,
1000
0010
0000
1000
0010
0100
0010
0100
,
0000
0001
0010
0100
0010
0100
0000
1000
,
0010
0100
0000
0001
0010
0100
0010
0100
,
0000
0000
0010
0100
0010
0100
0000
0000
;

//---------------dance-single - ----------------
#NOTES:
     dance-single:
     :
     Medium:
     6:
     0.448841,0.467612,0.450239,0.039151,0.000000,271.000000,46.000000,4.000000,0.000000,0.000000,0.000000,0.448841,0.467612,0.450239,0.039151,0.000000,271.000000,46.000000,4.000000,0.000000,0.000000,0.000000:
0000
0000
0000
0000
,
0000
0000
0000
0000
,
0000
0000
0000
0000
,
0000
0000
0000
0000
0010
0010
0000
1001
,
0000
0001
1000
0100
,
1000
0000
0001
0000
0100
0010
0100
0000
,
0001
0010
0001
1000
,
0010
0100
0010
0000
0100
0000
0000
1001
,
0000
1000
0001
0100
,
0001
0000
1000
0000
0100
0010
0100
0000
,
1000
0010
0100
0110
,
2002
0000
0000
0000
3003
0000
0000
0110
,
0000
0001
0010
1000
,
0010
0000
0001
0000
0100
0010
0100
0000
,
0001
0100
1000
0100
,
0001
1000
0001
0000
1000
0000
0000
0110
,
0000
1000
0100
0001
,
0100
0000
1000
0000
0001
0100
0001
0000
,
0010
1000
0010
0110
,
2002
0000
0000
3003
,
0101
0101
0000
1100
,
1100
0000
1001
0000
,
1010
1010
0000
0011
,
0011
0000
1001
0110
,
1000
1000
1000
1000
,
0010
0010
0010
0010
,
0100
0100
0100
0100
,
0001
0001
0001
0001
,
1000
1000
1000
1000
,
0001
0001
0001
0001
,
0010
0010
0010
0010
,
0100
0100
0100
0110
,
1001
0001
0100
0010
,
1000
0001
0010
0100
,
1000
0010
0100
0001
,
1000
0000
0001
0000
1000
0010
0100
0000
,
0110
1000
0001
0010
,
0100
1000
0100
0010
,
0100
1000
0001
0100
,
0010
0100
0010
0100
0010
0100
0010
0000
,
1001
0000
0001
1000
0001
0000
0001
0100
,
0010
0000
0010
0100
0010
0000
0010
1000
,
0100
0000
0100
1000
0100
0000
0100
1000
,
0001
0010
0100
0110
,
1001
0000
0000
0110
0000
0000
0001
1000
,
0000
1000
0100
0000
1000
0000
0001
0000
,
0000
0000
0000
0000
,
0000
0000
0000
0000
0100
0100
0000
1001
,
0000
0001
0010
0001
,
1000
0010
1000
0000
1000
0001
1000
0000
,
0001
0100
0010
1000
,
0001
0100
0001
0000
0001
1000
0001
0000
,
0010
0100
0010
0001
,
0100
1000
0100
0001
,
1000
0000
0001
0000
0100
0010
0100
0000
,
0001
0001
0000
1000
0000
0001
0000
1001
,
0000
0001
0100
0001
,
1000
0100
1000
0000
1000
0001
1000
0000
,
0010
0100
0001
1000
,
0100
0010
0100
0010
0100
0010
0100
0000
,
1001
1000
0010
0100
,
0001
0010
0100
0100
,
0010
0001
0100
0010
,
1000
1001
0001
0100
,
0110
0000
0000
0000
,
0000
0000
0000
0000
,
0010
0010
0000
0000
0101
0000
0101
0000
,
0000
1100
1100
0000
,
1010
0000
0011
0011
,
0000
0101
0101
0000
,
1100
0000
0011
0011
,
0000
1100
1100
0000
,
1001
0000
0100
0100
,
0000
0100
0100
0000
;

//---------------dance-single - ----------------
#NOTES:
     dance-single:
     :
     Easy:
     4:
     0.334183,0.359702,0.342573,0.156605,0.000000,188.000000,35.000000,16.000000,0.000000,0.000000,0.000000,0.334183,0.359702,0.342573,0.156605,0.000000,188.000000,35.000000,16.000000,0.000000,0.000000,0.000000:
// measure 0
0000
0000
0000
0000
,  // measure 1
0000
0000
0000
0000
,  // measure 2
0000
0000
0000
0000
,  // measure 3
0000
0000
1001
0000
,  // measure 4
0000
0001
0000
0001
,  // measure 5
0000
1000
0000
1000
,  // measure 6
0000
0010
0000
0010
,  // measure 7
0000
0100
0000
0100
,  // measure 8
0000
0001
0000
0001
,  // measure 9
0000
0010
0000
0010
,  // measure 10
0000
0100
0000
0100
,  // measure 11
1000
1000
1000
1000
,  // measure 12
0000
0001
0000
0001
,  // measure 13
0000
0100
0000
0100
,  // measure 14
0000
0010
0000
0010
,  // measure 15
0000
1000
0000
1000
,  // measure 16
0000
0100
0000
0100
,  // measure 17
0000
0010
0000
0010
,  // measure 18
0000
0001
0000
0001
,  // measure 19
1000
0001
1000
0001
,  // measure 20
0110
0110
0000
0110
,  // measure 21
0110
0000
1001
0000
,  // measure 22
0110
0110
0000
0110
,  // measure 23
0110
0000
0001
1000
,  // measure 24
0002
0000
0000
0003
,  // measure 25
0200
0000
0000
0300
,  // measure 26
0020
0000
0000
0030
,  // measure 27
2000
0000
0000
3000
,  // measure 28
0200
0000
0000
0300
,  // measure 29
0002
0000
0000
0003
,  // measure 30
0020
0000
0000
0030
,  // measure 31
2000
0000
3000
0001
,  // measure 32
1000
0100
1000
0001
,  // measure 33
1000
0010
0100
0100
,  // measure 34
0001
0100
0001
1000
,  // measure 35
0001
0010
0100
0100
,  // measure 36
0010
0001
0010
0100
,  // measure 37
0010
1000
0100
0100
,  // measure 38
0010
1000
0010
0001
,  // measure 39
0010
0010
0010
0000
,  // measure 40
1001
0001
0100
0100
,  // measure 41
1000
1000
0100
0100
,  // measure 42
0010
0010
1000
1000
,  // measure 43
0100
0100
0010
0010
,  // measure 44
1001
0000
0000
0110
0000
0000
1001
0000
,  // measure 45
0000
0001
1000
0001
,  // measure 46
0000
0000
0000
0000
,  // measure 47
0000
0000
0000
0000
0110
0000
0000
1001
,  // measure 48
0000
0001
0100
0001
,  // measure 49
1000
0001
0100
0010
,  // measure 50
1000
0001
0010
0100
,  // measure 51
0010
0001
1000
0010
,  // measure 52
0110
0100
0001
1000
,  // measure 53
0002
0003
2000
3000
,  // measure 54
0010
0100
0001
1000
,  // measure 55
0100
0000
0000
0100
0000
0000
0000
1001
,  // measure 56
0000
1000
0010
1000
,  // measure 57
0001
1000
0010
0100
,  // measure 58
0001
1000
0100
0010
,  // measure 59
0100
1000
0001
0100
,  // measure 60
0002
0003
2000
3000
,  // measure 61
0020
0030
0200
0300
,  // measure 62
0001
0001
0010
0010
,  // measure 63
0100
0100
1000
1000
,  // measure 64
2002
0000
0000
0000
,  // measure 65
0000
0000
0000
3003
0000
0000
0000
0000
,  // measure 66
0110
0000
1001
1001
,  // measure 67
0000
0110
0110
0000
,  // measure 68
1001
0000
0110
0110
,  // measure 69
0000
1001
1001
0000
,  // measure 70
0110
0000
1001
1001
,  // measure 71
0000
0110
0110
0000
,  // measure 72
1001
0000
0100
0100
,  // measure 73
0000
0100
0100
0000
;

//---------------dance-single - ----------------
#NOTES:
     dance-single:
     :
     Beginner:
     2:
     0.110462,0.179239,0.058727,0.088090,0.000000,64.000000,6.000000,9.000000,0.000000,0.000000,0.000000,0.110462,0.179239,0.058727,0.088090,0.000000,64.000000,6.000000,9.000000,0.000000,0.000000,0.000000:
// measure 0
0000
0000
0000
0000
,  // measure 1
0000
0000
0000
0000
,  // measure 2
0000
0000
0000
0000
,  // measure 3
0000
0000
0000
0000
,  // measure 4
0000
1000
0000
0000
,  // measure 5
0000
0000
0000
0000
,  // measure 6
0000
1000
0000
0000
,  // measure 7
0000
0000
0000
0000
,  // measure 8
0000
0001
0000
0000
,  // measure 9
0000
0000
0000
0000
,  // measure 10
0000
0001
0000
0000
,  // measure 11
0000
0000
0000
0000
,  // measure 12
0000
0100
0000
0000
,  // measure 13
0000
0000
0000
0000
,  // measure 14
0000
0100
0000
0000
,  // measure 15
0000
0000
0000
0000
,  // measure 16
0000
0010
0000
0000
,  // measure 17
0000
0000
0000
0000
,  // measure 18
0000
0010
0000
0000
,  // measure 19
0000
0000
0000
0000
,  // measure 20
1001
0000
0000
0000
,  // measure 21
0000
0000
0000
0000
,  // measure 22
1001
0000
0000
0000
,  // measure 23
0000
0000
0000
0000
,  // measure 24
0100
0000
0000
0000
,  // measure 25
0000
0000
0000
0000
,  // measure 26
0001
0000
0000
0000
,  // measure 27
0000
0000
0000
0000
,  // measure 28
1000
0000
0000
0000
,  // measure 29
0000
0000
0000
0000
,  // measure 30
0010
0000
0000
0000
,  // measure 31
0000
0000
0000
0000
,  // measure 32
1000
0000
0000
0000
,  // measure 33
1000
0000
0000
0000
,  // measure 34
0100
0000
0000
0000
,  // measure 35
0000
0000
0000
0000
,  // measure 36
0001
0000
0000
0000
,  // measure 37
0001
0000
0000
0000
,  // measure 38
0100
0000
0000
0000
,  // measure 39
0100
0000
0000
0000
,  // measure 40
0020
0030
0000
0000
,  // measure 41
0020
0030
0000
0000
,  // measure 42
0200
0300
0000
0000
,  // measure 43
0200
0300
0000
0000
,  // measure 44
0001
0000
1000
0000
,  // measure 45
0001
0000
2000
0000
,  // measure 46
0002
0000
0000
0000
0000
3003
0000
0000
0000
0000
0000
0000
0000
0000
0000
0000
,  // measure 47
0000
0000
0000
0000
,  // measure 48
0000
1000
0000
1000
,  // measure 49
0000
1000
0000
0000
,  // measure 50
0000
0001
0000
0001
,  // measure 51
0000
0001
0000
0000
,  // measure 52
0000
0100
0000
0100
,  // measure 53
0000
0100
0000
0000
,  // measure 54
0000
0010
0000
0010
,  // measure 55
0000
0010
0000
0000
,  // measure 56
0000
1000
0000
0100
,  // measure 57
0000
1000
0000
0000
,  // measure 58
0000
0001
0000
0100
,  // measure 59
0000
0001
0000
0000
,  // measure 60
0000
1000
0000
1000
,  // measure 61
0000
0100
0000
0100
,  // measure 62
0000
0010
0000
0010
,  // measure 63
0000
0001
0000
0002
,  // measure 64
2000
0000
3003
0000
,  // measure 65
0020
0000
0000
0030
0000
0000
0000
0000
,  // measure 66
0110
0000
1001
0000
,  // measure 67
0000
0000
0000
0000
,  // measure 68
0000
0000
1001
0000
,  // measure 69
0000
0000
0000
0000
,  // measure 70
0000
0000
1001
0000
,  // measure 71
0000
0000
0000
0000
,  // measure 72
0000
0000
0100
0000
,  // measure 73
0000
0100
0000
0000
;
