#TITLE:Hayate;
#SUBTITLE:;
#ARTIST:Power Of Nature;
#TITLETRANSLIT:;
#SUBTITLETRANSLIT:;
#ARTISTTRANSLIT:;
#GENRE:;
#CREDIT:;
#BANNER:hayate_bn.png;
#BACKGROUND:hayate_bg.png;
#LYRICSPATH:;
#CDTITLE:!gameoson.png;
#MUSIC:Hayate.mp3;
#OFFSET:-0.130000;
#SAMPLESTART:32.096985;
#SAMPLELENGTH:10.666668;
#SELECTABLE:YES;
#BPMS:0.000000=180.000000
;
#STOPS:
;
#BGCHANGES:;
#KEYSOUNDS:;
#ATTACKS:;

//---------------dance-single - ----------------
#NOTES:
     dance-single:
     :
     Challenge:
     11:
     0.885055,0.875876,0.315631,0.279559,0.631262,621.000000,35.000000,31.000000,0.000000,0.000000,0.000000,0.885055,0.875876,0.315631,0.279559,0.631262,621.000000,35.000000,31.000000,0.000000,0.000000,0.000000:
0000
0000
0000
0000
,
0000
0000
0000
0000
,
0000
0000
0000
0000
,
0000
0000
0000
0000
,
0000
1000
0010
1000
0010
0100
0000
0001
,
0010
0001
0010
0100
0000
1000
0001
0100
,
0000
0001
0010
0001
0010
0100
0000
1000
,
1010
0000
0000
0000
1000
0000
0001
0010
0000
0000
0001
0100
0001
0100
0001
0100
,
0001
1000
0010
0000
1000
0001
0000
1000
0010
0000
0100
0001
0000
0100
0001
0100
,
0010
1000
0001
0000
1000
0100
0000
1000
0001
0000
1000
0100
0010
0001
0000
0010
,
0001
1000
0010
0000
1000
0001
0000
1000
0010
0000
0100
0010
0000
0100
0010
0100
,
0001
1000
0100
0000
0010
0001
0000
0100
0010
0000
1000
0100
0010
0001
0000
1000
,
0010
0000
0010
1000
0002
0000
0000
0000
0103
0000
1000
0000
0100
0000
0020
0000
,
0000
0000
0130
0001
2000
0000
0100
0000
0000
0000
3100
0000
0001
0000
0100
0000
,
1000
0000
1000
0010
0100
0000
0100
0001
1000
0000
1000
0100
0010
0000
0100
0000
,
0001
0000
0001
0100
0020
0000
0001
0000
0000
0031
0000
0000
0100
0010
1000
0000
,
0001
0000
0001
1000
0020
0000
0000
0000
0031
0000
0010
0000
1000
0000
0200
0000
,
0000
0000
0310
0100
2000
0000
0001
0000
0000
0000
3001
0000
0100
0000
0010
0000
,
1000
0001
0010
0000
0010
0001
1000
0000
1000
0010
0100
0000
0100
0001
1000
0000
,
0001
1000
0100
0000
0100
0010
1000
0000
1000
0010
0100
0000
0100
1000
0001
0000
,
1000
0001
0100
0001
0100
0010
0000
1000
,
0100
0000
1000
0000
0100
0000
0010
0000
0001
0000
0000
0001
0100
0000
0010
0000
,
1000
0001
0010
0001
0010
0100
0000
1000
,
0010
0000
1000
0000
0010
0000
0100
0000
0001
0000
0010
0100
0010
0100
0010
0100
,
1000
0000
1000
0010
0200
0000
0000
0000
1300
0000
0100
0000
0001
0000
0020
0000
,
0000
0000
0031
0100
0020
0000
1000
0000
0000
0000
1030
0000
0100
0000
0001
0000
,
0100
0000
0100
0010
0001
0000
0001
1000
0010
0000
0010
0100
0001
0000
0100
0000
,
1000
0000
1000
0100
0020
0000
1000
0000
0000
1030
0000
0000
0001
1000
0100
0000
,
0010
0000
0010
0001
2000
0000
0000
0000
3100
0000
0001
0000
0100
0000
0020
0000
,
0000
0000
0130
1000
0002
0000
0100
0000
0000
0000
0103
0000
0001
0000
1000
0000
,
0010
1000
0001
0000
0001
1000
0010
0000
0010
1000
0100
0000
0100
1000
0001
0000
,
1000
0010
0100
0000
0100
0010
0001
0000
0001
0010
0100
0000
0100
0001
1000
0000
,
0001
0000
0000
0000
1000
0100
0010
0001
0010
0000
0000
0000
0001
0000
0010
0000
,
0100
1000
0001
0200
0000
1300
0100
0001
,
1000
0000
0000
0000
0001
0010
0100
1000
0100
0000
0000
0000
1000
0000
0100
0000
,
0010
0000
0001
0000
0100
0000
2000
0000
0000
0000
3001
0000
0010
0100
0010
0100
,
0010
0000
0000
0000
1000
0010
0100
0001
0100
0000
0000
0000
0001
0000
0100
0000
,
0010
1000
0100
0020
0000
1030
0010
0001
,
0100
0000
0000
0000
0001
0100
0010
1000
0010
0000
0000
0000
1000
0000
0010
0000
,
0100
0000
0001
1000
0001
0000
0100
0000
0010
1000
0010
1000
0001
0100
0001
0100
,
0002
0100
2003
0100
,
3100
0000
0000
0010
0002
0000
0000
0000
2003
0000
0000
0000
3020
0000
0000
0000
,
0230
0000
0000
0000
0001
0000
0000
0000
0320
0000
0000
0000
1030
0000
0000
1000
,
0200
0000
0000
0000
1000
0000
0000
0000
0320
0000
0000
0000
0031
0000
1000
0001
,
1000
0100
1000
0020
0000
0130
0001
0010
,
0001
0100
1000
0200
0000
0310
0100
0001
,
1000
0010
0001
1000
0100
0001
0010
0001
,
1000
0000
0100
0000
0010
0000
0100
0000
0001
0000
0100
0010
0100
0010
0100
0010
,
0001
1000
0010
1000
0010
0100
0000
0001
,
0010
0001
0010
0110
0000
0010
0001
1001
,
0000
1000
0010
1000
0010
0100
0001
0010
,
0100
0000
0010
0000
0100
0000
1000
0000
0001
0100
0010
0000
1000
0001
1000
0001
,
0010
0000
0000
0001
0000
0000
0100
0000
0101
0000
0000
0000
0010
0000
0000
1000
,
0000
0001
1001
0000
0001
0000
1000
0000
,
0010
0000
0000
1000
0000
0000
1000
0000
1100
0000
0000
0000
0010
0000
0000
0001
,
0000
0000
1000
0000
1001
0000
0000
0000
1000
0000
0010
0000
0100
0001
0100
0001
,
1000
0000
0000
0010
0000
0000
0100
0000
0101
0000
0000
0000
0001
0000
0000
0010
,
0000
0001
1001
0000
0010
0000
1000
0000
,
0001
0000
0000
0010
0000
0000
0100
0000
1100
0000
0000
0000
1000
0000
0000
0010
,
0000
0000
1000
0000
1001
0000
0000
0000
0001
0000
0100
0000
0001
1000
0001
1000
,
0100
0010
0001
0000
0000
0000
1010
0000
0000
0000
0101
0000
0000
0000
0101
0000
,
0100
0010
1000
0000
0000
0000
0011
0000
0000
0000
1100
0000
0000
0000
1100
0000
,
1000
0000
0001
0100
0010
0100
0001
0000
0000
0000
0010
0000
0100
0000
1100
0000
,
0000
0000
1100
0000
0000
0000
0011
0000
0000
0000
0100
1000
0001
1000
0010
1000
,
0001
0010
0100
0000
0000
0000
1100
0000
0000
0000
1001
0000
0000
0000
1001
0000
,
1000
0001
0100
0000
0000
0000
0101
0000
0000
0000
1001
0000
0000
0000
1001
0000
,
1010
0000
0000
0101
0000
0000
0011
0000
0000
0000
0001
0000
0100
0000
0110
0000
,
0000
0110
0000
1001
0000
1000
0100
0010
,
0001
0010
0100
0010
0001
0000
1000
0010
1000
0000
0100
0010
0001
0100
0010
1000
,
0001
0000
0000
0000
1000
0100
0010
0001
1000
0000
0000
0000
0001
0000
1000
0000
,
0010
1000
0100
0002
0000
0103
1000
0010
,
1000
0000
0000
0000
0001
0010
0100
1000
0001
0000
0000
0000
1000
0000
0001
0000
,
0100
0000
0001
0000
0010
0000
2000
0000
0000
0000
3001
0000
0100
0000
0010
0100
,
1000
0000
0000
0000
1000
0010
0100
0001
1000
0000
0000
0000
0001
0000
1000
0000
,
1010
0000
0010
1000
0001
0000
0010
0000
1100
0000
0010
0001
,
1001
0000
0000
0000
0001
0100
0010
1000
0001
0000
0000
0000
1000
0000
0010
0000
,
1000
0000
0100
0000
0001
0000
2000
0000
0000
0000
3010
0000
0001
0010
0001
0010
,
0001
1000
0010
1000
0010
0100
0000
0001
,
0010
0000
0001
0000
0010
0000
0100
0000
0000
0000
1000
0000
0010
0000
1000
0001
,
1000
0001
0010
0001
0010
0100
0000
1000
,
0010
0000
1000
0000
0010
0000
0100
0000
0000
0000
0001
1000
0001
1000
0010
1000
;

//---------------dance-single - ----------------
#NOTES:
     dance-single:
     :
     Hard:
     9:
     0.787145,0.729897,0.369739,0.288577,0.374248,538.000000,41.000000,32.000000,0.000000,0.000000,0.000000,0.787145,0.729897,0.369739,0.288577,0.374248,538.000000,41.000000,32.000000,0.000000,0.000000,0.000000:
0000
0000
0000
0000
,
0000
0000
0000
0000
,
0000
0000
0000
0000
,
0000
0000
0000
0000
,
0000
1000
0001
1000
0001
0010
0000
0001
,
1000
0001
1000
0010
0000
0100
0001
1000
,
0000
0001
1000
0001
1000
0010
0000
1000
,
1001
0000
0001
0010
0000
0001
0100
0010
,
1000
0000
0100
0000
1000
0001
0000
0010
0001
0000
1000
0001
0000
1000
0001
0000
,
0100
0000
0010
0000
1000
0010
0000
0100
0010
0000
1000
0010
1000
0000
0001
0000
,
1000
0000
0100
0000
0010
0001
0000
1000
0001
0000
0010
0001
0000
0010
0001
0000
,
0100
0000
0010
0000
1000
0001
0000
1000
0100
0000
0010
0000
0001
0000
0100
0000
,
0010
0000
1000
0010
2000
0000
0000
0000
3001
0000
0100
0000
1000
0000
0200
0000
,
0000
0000
0310
1000
0020
0000
0000
0000
1030
0000
0001
0000
0100
0000
0010
0000
,
1000
0100
0010
0100
0001
0100
0010
0100
,
1000
0000
0001
1000
0002
0000
1000
0000
0000
1003
0000
0000
1000
0000
0100
0000
,
0010
0000
0001
0100
0002
0000
0000
0000
0103
0000
1000
0000
0100
0000
0002
0000
,
0000
0000
0013
0100
0020
0000
0000
0000
0130
0000
1000
0000
0001
0000
1000
0000
,
0010
1000
0000
0000
1000
0100
0000
0000
0100
0010
0000
0000
0010
0001
0000
0000
,
0001
0100
0000
0000
0100
0010
0000
0000
0010
1000
0000
0000
1000
0001
0000
0000
,
0011
0001
1000
0001
1000
0010
0000
1000
,
0001
1000
0001
0010
0000
0100
1000
0001
,
0000
1000
0001
1000
0001
0010
0000
0001
,
1000
0001
1000
0010
1000
0100
0010
0001
,
1000
0000
0010
0100
0020
0000
0000
0000
1030
0000
0100
0000
0001
0000
0200
0000
,
0000
0000
0310
0001
0020
0000
0000
0000
0130
0000
1000
0000
0010
0000
1000
0000
,
0001
0100
0010
0100
1000
0100
0010
0100
,
0001
0000
1000
0001
2000
0000
0100
0000
0000
3100
0000
0000
0010
0000
0001
0000
,
1000
0000
0010
0100
0020
0000
0000
0000
0031
0000
0010
0000
1000
0000
0200
0000
,
0000
0000
0310
0001
0020
0000
0000
0000
0130
0000
1000
0000
0001
0000
0100
0000
,
0010
1000
0000
0000
1000
0100
0000
0000
0100
0010
0000
0000
0010
0001
0000
0000
,
0001
0100
0000
0000
0100
1000
0000
0000
1000
0100
0000
0000
0100
0001
0000
0000
,
0011
0000
0000
0000
0001
0100
0001
0100
0001
0000
0000
0000
0010
0000
0001
0000
,
0100
0010
1000
0200
0000
0310
0001
1000
,
0010
0000
0000
0000
1000
0100
1000
0100
1000
0000
0000
0000
0001
0000
1000
0000
,
0010
0100
0010
0002
0000
0013
1000
0100
,
0011
0000
0000
0000
0001
0100
0001
0100
0001
0000
0000
0000
1000
0000
0100
0000
,
0010
0100
1000
0002
0000
0013
0001
0100
,
0010
0000
0000
0000
1000
0100
1000
0100
1000
0000
0000
0000
0001
0000
1000
0000
,
1010
0010
0100
2001
0000
3001
0010
0100
,
2000
0001
3002
1000
,
1003
0000
0000
1000
0020
0000
0000
0000
2030
0000
0000
0000
3002
0000
0000
0000
,
0023
0000
0000
0000
0130
0000
0000
0000
0200
0000
0000
0000
1300
0000
0000
1000
,
0002
1000
2003
0100
,
3100
1000
0010
0200
0000
0301
1000
0001
,
0010
0100
1000
0020
0000
1030
0001
1000
,
0100
1000
0010
0001
0010
1000
0100
0010
,
0001
0100
1000
0100
0001
0010
1000
0010
,
0001
1000
0100
1000
0100
0010
0000
0001
,
0100
0001
0100
0101
0000
1000
0100
1100
,
0000
1000
1001
0000
0010
0000
1001
0000
,
1100
0100
0010
0000
0101
0100
0010
1000
,
0001
0000
0000
1000
0000
0000
0001
0000
0101
0000
0000
0000
0001
0000
0000
0100
,
0000
0010
1010
0000
1000
0000
0001
0000
,
1000
0000
0000
0001
0000
0000
1000
0000
1100
0000
0000
0000
1000
0000
0000
0100
,
0000
0010
0011
0000
1000
0010
0100
0001
,
1000
0000
0000
0100
0000
0000
0010
0000
0011
0000
0000
0000
0010
0000
0000
0001
,
0000
1000
1010
0000
0010
0000
1000
0000
,
0001
0000
0000
0100
0000
0000
0010
0000
1010
0000
0000
0000
0010
0000
0000
1000
,
0000
0001
0011
0000
0001
0100
0010
1000
,
0001
0010
0001
0000
0000
0000
1001
0000
0000
0000
1001
0000
0000
0000
0001
0000
,
1000
0010
1000
0000
0000
0000
1001
0000
0000
0000
1001
0000
0000
0000
1000
0000
,
0001
0100
0010
1010
0000
1000
0001
1001
,
0000
1001
0000
0110
0000
1000
0100
0010
,
0001
0100
0001
0000
0000
0000
0110
0000
0000
0000
0110
0000
0000
0000
0001
0000
,
1000
0100
1000
0000
0000
0000
0110
0000
0000
0000
0110
0000
0000
0000
1000
0000
,
1001
0000
0000
0100
0000
0000
0010
0000
0000
0000
0001
0000
0100
0000
0110
0000
,
0000
0110
0000
1001
0000
1000
0010
0100
,
0001
0010
0000
0000
0010
1000
0000
0000
1000
0010
0000
0000
0010
0001
0000
0000
,
0011
0000
0000
0000
1000
0001
1000
0001
1000
0000
0000
0000
0100
0000
1000
0000
,
0001
0010
0001
0200
0000
1300
0100
0001
,
0010
0000
0000
0000
0001
1000
0001
1000
0001
0000
0000
0000
1000
0000
0001
0000
,
0010
0100
0010
2000
0000
3010
0001
0100
,
1010
0000
0000
0000
0010
0100
0010
0100
0010
0000
0000
0000
1000
0000
0100
0000
,
0010
0000
0001
0000
0100
0000
1000
0000
0100
0000
0001
0000
,
0011
0000
0000
0000
1000
0001
1000
0001
1000
0000
0000
0000
0001
0000
0100
0000
,
0101
0001
0010
2100
0000
3001
0100
0010
,
1000
0001
0010
0001
0010
0100
0000
1000
,
0010
1000
0010
0100
0000
0001
1000
0001
,
0100
0001
0010
0001
0010
0100
0000
1000
,
0010
0000
1000
0000
0010
0000
0100
0000
0000
0000
0001
1000
0001
1000
0001
1000
;

//---------------dance-single - ----------------
#NOTES:
     dance-single:
     :
     Medium:
     7:
     0.552676,0.583466,0.477955,0.243487,0.013527,349.000000,53.000000,27.000000,0.000000,0.000000,0.000000,0.552676,0.583466,0.477955,0.243487,0.013527,349.000000,53.000000,27.000000,0.000000,0.000000,0.000000:
// measure 0
0000
0000
0000
0000
,  // measure 1
0000
0000
0000
0000
,  // measure 2
0000
0000
0000
0000
,  // measure 3
0000
0000
0000
0000
,  // measure 4
1001
0001
1000
0010
,  // measure 5
1000
1000
0001
0010
,  // measure 6
0100
1000
1000
0010
,  // measure 7
1001
0000
0001
0010
0000
0100
1000
0001
,  // measure 8
1000
0010
1000
0100
,  // measure 9
0001
0100
1000
0010
,  // measure 10
1000
0100
1000
0010
,  // measure 11
0001
0010
1000
0100
,  // measure 12
1000
0001
2000
0000
3010
0000
1000
0100
,  // measure 13
0000
0010
0002
0000
0103
0000
0010
0000
,  // measure 14
1000
0010
1000
0001
1000
0000
0100
0000
,  // measure 15
0010
0100
2000
0000
0010
0000
3010
0000
,  // measure 16
0100
0001
0200
0000
0310
0000
1000
0100
,  // measure 17
0000
0010
0002
0000
0103
0000
0010
0000
,  // measure 18
1010
0110
0101
1001
,  // measure 19
1100
1010
0110
0101
,  // measure 20
1001
1000
0010
0100
,  // measure 21
0001
0000
0001
0000
0010
0000
0100
1000
,  // measure 22
0010
1001
1000
0100
,  // measure 23
0010
0000
0010
0000
0001
1000
0100
0010
,  // measure 24
0001
1000
0002
0000
0103
0000
0010
1000
,  // measure 25
0000
0100
0020
0000
0130
0000
1000
0000
,  // measure 26
0001
0010
0001
1000
0001
0000
0100
0000
,  // measure 27
0010
1000
0002
0000
0010
0000
0013
0000
,  // measure 28
0100
1000
0200
0000
0310
0000
0001
1000
,  // measure 29
0000
0010
2000
0000
3100
0000
0010
0000
,  // measure 30
0011
0101
0110
1010
,  // measure 31
1100
0101
1100
1010
,  // measure 32
1001
0000
0001
1000
0100
0000
0010
0000
,  // measure 33
0001
0000
0100
0020
0000
1030
0100
0010
,  // measure 34
0001
1000
0010
1000
,  // measure 35
0100
0000
0010
0002
0000
1003
0010
1000
,  // measure 36
0100
0000
0010
0100
1000
0000
0001
0000
,  // measure 37
0100
0000
0010
2000
0000
3001
0010
0100
,  // measure 38
1000
0000
0010
1000
0001
0000
0010
0000
,  // measure 39
0110
0000
0000
1001
0000
0000
0010
0000
,  // measure 40
1002
0000
0203
0000
,  // measure 41
0301
0020
0230
2300
,  // measure 42
3002
0000
0203
0000
,  // measure 43
0320
0000
2030
0000
,  // measure 44
3001
0000
0100
0020
0000
1030
0001
0000
,  // measure 45
1000
0000
0100
2000
0000
3010
0100
0000
,  // measure 46
0001
0000
1000
0001
0000
1000
0010
1000
,  // measure 47
0001
0000
0010
0000
0100
0000
0010
0001
,  // measure 48
1000
0000
0000
0000
,  // measure 49
0000
0000
0000
1001
0000
0110
0000
1001
,  // measure 50
0000
0001
1000
0000
0001
0000
1000
0000
,  // measure 51
0001
0000
0100
0000
0010
1000
0100
0010
,  // measure 52
0001
0000
0100
0101
,  // measure 53
0000
1010
0000
0000
1001
0000
1001
0000
,  // measure 54
0011
0000
0100
1100
,  // measure 55
0000
1010
0000
0000
1000
0001
1000
0001
,  // measure 56
1000
0000
0010
0110
,  // measure 57
0000
1001
0000
0000
1010
0000
0110
0000
,  // measure 58
0101
0000
0001
1001
,  // measure 59
0000
0110
0000
0000
0001
1000
0001
1000
,  // measure 60
0001
0100
0000
0010
0000
0010
0000
1000
,  // measure 61
0001
1000
0000
0100
0000
0100
0000
0010
,  // measure 62
0001
0000
1000
0010
0000
0100
0010
0100
,  // measure 63
0000
0100
0000
1002
0000
0000
1003
0000
,  // measure 64
0010
1000
0000
0100
0000
0100
0000
1000
,  // measure 65
0001
1000
0000
0010
0000
0010
0000
0100
,  // measure 66
0001
0000
0000
1000
0000
0000
0001
0000
0000
0000
1000
0000
0001
0000
0100
0000
,  // measure 67
0000
0100
0000
1010
0000
1000
0100
0000
,  // measure 68
1100
0011
0101
1010
,  // measure 69
1001
0000
0001
1000
0100
0000
0010
0000
,  // measure 70
0001
0000
1000
0020
0000
1030
0100
0010
,  // measure 71
0001
0000
1000
0010
0100
0000
0010
0000
,  // measure 72
1000
0000
0100
0020
0000
0130
1000
0001
,  // measure 73
0100
0000
0010
0100
0001
0000
1000
0000
,  // measure 74
0001
0000
0010
0000
0100
0000
1000
0000
0000
0110
0000
0000
,  // measure 75
1001
0000
1000
0010
0100
0000
0001
0000
,  // measure 76
0011
0000
0000
1100
0000
0000
1001
0000
,  // measure 77
0001
0000
1000
0000
1000
0000
0010
1000
,  // measure 78
0001
0000
0001
0000
0010
0000
0100
0010
,  // measure 79
0001
0000
1000
0000
1000
0000
0010
0100
,  // measure 80
0001
0000
1000
0001
1000
0001
0100
0010
;

//---------------dance-single - ----------------
#NOTES:
     dance-single:
     :
     Easy:
     4:
     0.338820,0.364666,0.126252,0.180361,0.000000,229.000000,14.000000,20.000000,0.000000,0.000000,0.000000,0.338820,0.364666,0.126252,0.180361,0.000000,229.000000,14.000000,20.000000,0.000000,0.000000,0.000000:
0000
0000
0000
0000
,
0000
0000
0000
0000
,
0000
0000
0000
0000
,
0000
0000
0000
0000
,
0000
0001
1000
0000
,
1000
0100
0000
0010
,
0000
0001
0100
0000
,
0110
0001
1000
0001
,
1000
0000
0100
0000
,
0001
0000
0100
0000
,
0010
0000
0001
0000
,
0100
0000
0010
0000
,
2000
3000
0100
0010
,
0001
0200
0300
0010
,
1000
0001
1000
0100
,
0010
0002
0000
0003
,
2001
3000
0010
1000
,
0100
0020
0030
0100
,
1001
1000
0010
0010
,
0100
0001
0010
0100
,
1001
0001
0100
0000
,
0100
0010
0000
1000
,
0000
0001
1000
0000
,
1000
0100
0000
0010
,
0002
0003
0100
0010
,
1000
0200
0300
0010
,
0001
0100
1000
0100
,
0001
2000
0000
3000
,
1002
0003
0010
0001
,
0100
0020
0030
1000
,
1001
0001
0010
0010
,
1000
0010
0001
0100
,
1001
0000
0100
0000
,
0001
0010
0100
1000
,
0001
0000
1000
0000
,
0010
1000
0100
0010
,
0001
0000
1000
0000
,
0010
0100
0001
1000
,
0100
0000
0010
0000
,
0001
0100
0010
1000
,
0002
0000
0203
0000
,
0300
0020
2030
3002
,
0023
0000
0230
0000
,
2300
0000
3020
0000
,
1030
0001
0100
0000
,
0010
1000
0100
0000
,
0010
0001
1000
0010
,
0100
0100
0010
0010
,
1001
0000
0000
0000
,
0000
0000
0000
0010
0000
0100
0000
0010
,
0000
1000
0001
1000
,
0001
0010
0100
1000
,
0001
0000
0001
0100
,
0000
0010
0000
0000
1000
0000
0001
0000
,
1000
0000
1000
0100
,
0000
0010
0000
0000
0100
0000
1000
0000
,
0010
0000
0100
0001
,
0000
0010
0000
0000
0001
0000
1000
0000
,
0001
0000
0100
0010
,
0000
1000
0000
0000
0100
0000
0010
0000
,
0011
0000
0000
1000
0000
1000
0000
0000
,
1010
0000
0000
0001
0000
0001
0000
0000
,
1000
0010
0100
0001
,
0010
0200
0000
0300
,
1100
0000
0000
0001
0000
0001
0000
0000
,
0101
0000
0000
1000
0000
1000
0000
0000
,
0001
0001
0100
0100
,
0010
1000
0001
0010
,
0001
0100
0010
1000
,
0001
0000
1000
0000
,
0001
0100
1000
0100
,
0001
0000
1000
0000
,
0001
0010
1000
0010
,
0001
0000
1000
0000
,
1001
0000
0100
0010
,
1001
0000
0100
0000
,
1000
0010
0100
0001
,
1000
0001
0010
0000
,
0010
0100
0000
1000
,
0000
0010
1000
0000
,
1000
0000
0001
0000
0000
0100
0000
0010
;

//---------------dance-single - ----------------
#NOTES:
     dance-single:
     :
     Beginner:
     2:
     0.149442,0.146092,0.054108,0.000000,0.000000,110.000000,6.000000,0.000000,0.000000,0.000000,0.000000,0.149442,0.146092,0.054108,0.000000,0.000000,110.000000,6.000000,0.000000,0.000000,0.000000,0.000000:
0000
0000
0000
0000
,
0000
0000
0000
0000
,
0000
0000
0000
0000
,
0000
0000
0000
0000
,
1000
0000
0000
0000
,
0001
0000
0000
0000
,
1000
0000
0000
0000
,
0001
0000
0000
0000
,
1000
0000
0100
0000
,
0010
0000
0000
0000
,
0001
0000
0100
0000
,
0010
0000
0000
0000
,
1000
0000
1000
0000
,
0100
0000
0000
0000
,
0010
0000
0001
0000
,
1000
0000
0000
0000
,
0001
0000
0001
0000
,
0010
0000
0000
0000
,
0001
0000
0100
0000
,
0010
0000
1000
0000
,
0001
0000
0000
0000
,
1000
0000
0000
0000
,
0001
0000
0000
0000
,
1000
0000
0000
0000
,
0001
0000
0001
0000
,
0100
0000
0000
0000
,
0010
0000
1000
0000
,
0001
0000
0000
0000
,
1000
0000
1000
0000
,
0010
0000
0000
0000
,
1000
0000
0100
0000
,
0010
0000
0001
0000
,
1000
0000
0000
0000
,
0100
0000
0010
0000
,
0001
0000
0000
0000
,
0100
0000
0001
0000
,
0010
0000
0000
0000
,
0100
0000
1000
0000
,
0001
0000
0000
0000
,
0010
0000
0001
0000
,
1000
0000
0100
0000
,
0000
0000
0010
0000
,
0001
0000
0100
0000
,
0010
0000
1000
0000
,
0001
0000
0000
0000
,
0100
0000
0000
0000
,
0010
0000
0000
0000
,
1000
0000
0001
0000
,
0010
0000
0000
0000
,
0000
0000
0000
0000
,
0000
1000
0000
0001
,
0000
0000
1001
0000
,
1000
0000
0000
0100
,
0000
0000
0010
0000
,
0001
0000
0000
0100
,
0000
0000
0010
0000
,
1000
0000
0000
0100
,
0000
0000
1000
0000
,
0010
0000
0000
0100
,
0000
0000
0001
0000
,
1001
0000
0000
0000
,
0110
0000
0000
0000
,
1000
0000
0010
0000
,
0100
0000
0000
0000
,
1001
0000
0000
0000
,
0110
0000
0000
0000
,
0001
0000
0100
0000
,
0010
0000
1000
0000
,
0100
0000
0010
0000
,
0001
0000
0000
0000
,
0100
0000
0010
0000
,
1000
0000
0000
0000
,
0100
0000
1000
0000
,
0010
0000
0000
0000
,
0110
0000
0001
0000
,
1000
0000
0000
0000
,
0010
0000
1000
0000
,
0001
0000
0000
0000
,
1000
0000
0000
0000
,
0001
0000
0000
0000
,
1000
0000
0000
0000
,
0100
0000
0000
0000
;
