#TITLE:Confessional ~Langage des teintures au miel~;
#SUBTITLE:;
#ARTIST:Yura Hatsuki;
#TITLETRANSLIT:;
#SUBTITLETRANSLIT:;
#ARTISTTRANSLIT:;
#GENRE:;
#CREDIT:Rikame;
#BANNER:Confessional ~Langage des teintures au miel~.png;
#BACKGROUND:Confessional ~Langage des teintures au miel~ - BG.png;
#LYRICSPATH:;
#CDTITLE:;
#MUSIC:Confessional ~Langage des teintures au miel~.ogg;
#OFFSET:-0.247;
#SAMPLESTART:62.082;
#SAMPLELENGTH:18.646;
#SELECTABLE:YES;
#BPMS:0.000=132.000;
#STOPS:;
#BGCHANGES:;
#KEYSOUNDS:;

//---------------dance-single - Rikame----------------
#NOTES:
     dance-single:
     Rikame:
     Beginner:
     1:
     0.082,0.109,0.000,0.019,0.000:
0000
0000
0000
0000
,
0000
0000
0000
0000
,
0000
0000
0000
0000
,
0000
0000
0000
0000
,
0000
0000
0000
0000
,
0001
0000
0000
0000
,
0010
0000
0000
0000
,
0100
0000
0100
0000
,
0100
0000
0000
0000
,
1000
0000
0000
0000
,
0010
0000
0000
0000
,
0100
0000
0100
0000
,
0100
0000
0000
0000
,
0001
0000
0000
0000
,
1000
0000
0000
0000
,
0010
0000
0000
0000
,
0100
0000
0000
0000
,
0001
0000
0000
0000
,
0010
0000
0000
0000
,
0100
0000
0000
0000
,
0010
0000
0000
0000
,
0001
0000
0000
0000
,
0100
0000
0000
0000
,
0010
0000
0000
0000
,
1000
0000
0000
0000
,
0000
0200
0000
0000
,
0000
0000
0000
0300
,
0000
0020
0000
0000
,
0000
0000
0000
0030
,
0001
0000
0000
0000
,
1000
0000
0000
0000
,
0010
0000
0000
0000
,
0100
0000
0100
0000
,
0100
0000
0000
0000
,
0001
0000
0000
0000
,
1000
0000
0000
0000
,
0001
0000
0000
0000
,
0010
0000
0000
0000
,
0001
0000
0000
0000
,
0100
0000
0000
0000
,
0010
0000
0000
0000
,
1000
0000
0001
0000
,
1000
0000
0000
0000
,
0001
0000
0000
0000
,
0100
0000
0000
0000
,
0001
0000
0000
0000
,
0010
0000
0010
0000
,
0010
0000
0010
0000
,
0010
0000
0000
0000
,
0100
0000
0000
0000
,
1000
0000
0000
0000
,
0010
0000
0000
0000
,
0100
0000
0000
0000
,
0001
0000
0000
0000
,
0010
0000
0000
0000
,
0100
0000
0000
0000
,
1000
0000
1000
0000
,
0001
0000
0001
0000
;

//---------------dance-single - Rikame----------------
#NOTES:
     dance-single:
     Rikame:
     Easy:
     3:
     0.189,0.246,0.142,0.113,0.000:
0000
0000
0000
0000
,
0000
0000
0000
0000
,
0000
0000
0000
0000
,
0000
0000
0000
0000
,
0000
0000
0000
0000
,
0001
0000
0100
0000
,
0010
0000
1000
0000
,
0100
0000
0010
0000
,
0100
0000
2000
0000
,
3010
0000
0100
0000
,
0001
0000
0010
0000
,
1001
0000
0110
0000
,
0001
1000
0001
0000
,
1000
0000
0001
0010
,
0001
0000
1000
0000
,
0100
0000
0010
0001
,
0010
0000
0100
0000
,
0000
1000
0000
0000
,
0001
0000
0100
0000
,
0000
0001
0000
0000
,
1000
0000
0100
0000
,
0010
0000
0010
0000
,
0010
0000
0001
0000
,
1001
0000
0010
0000
,
1001
0000
0100
0000
,
0000
0001
0000
0000
,
1000
0000
0010
0000
,
0000
0100
0000
0000
,
0010
0000
1000
0000
,
0001
0000
0100
0000
,
0010
0000
1000
0000
,
0000
0100
0000
0000
,
0110
0000
1001
0000
,
0220
0000
0000
0330
,
1001
0000
1000
0100
,
2000
0000
3001
0000
,
0000
0011
0000
1100
,
0000
1000
0100
0010
,
0001
0000
0100
0000
,
0010
1000
0020
0000
,
0030
1010
0000
0101
,
0000
0001
0010
0100
,
2000
0000
3002
0000
,
0023
0000
0000
0000
,
0032
0000
2003
0000
,
3020
0000
0000
0000
,
0130
0001
0100
0001
,
1000
0100
1000
0100
,
0010
0000
0010
0000
,
0001
0000
0001
0000
,
1000
0001
1000
0000
,
0100
0000
0010
0000
,
0001
0000
0100
0000
,
0010
0000
2000
0000
,
3001
0010
0001
0000
,
1000
0000
0010
0000
,
1001
0000
0110
0000
,
0001
1000
0001
1001
;

//---------------dance-single - Rikame----------------
#NOTES:
     dance-single:
     Rikame:
     Medium:
     5:
     0.300,0.384,0.132,0.265,0.000:
0000
0000
0000
0000
,
0000
0000
0000
0000
,
0000
0000
0000
0000
,
0000
0000
0000
0000
,
0000
0000
0000
0000
,
0001
0100
0001
0000
,
0010
0100
1000
0010
,
0101
0000
1010
0000
,
1001
0001
0010
0100
,
1000
0010
1000
0000
,
0100
0010
0001
0100
,
0110
0000
1001
0000
,
0001
0000
1000
0000
0001
1000
0001
0000
,
0200
0000
0000
0310
2000
0000
3002
0000
,
0023
0000
0230
0000
2300
0000
0000
3001
,
0200
0000
0000
0310
2000
0000
3200
0000
,
0310
0001
0010
0001
2000
0000
0002
0000
,
3003
0001
0100
0010
,
1000
1000
0001
0001
,
0000
0010
0100
1000
,
0020
0000
0230
0000
,
0300
0001
0010
0000
0001
0000
1000
0000
,
0020
0000
0000
0000
0230
0000
0000
0310
,
1000
0100
1000
0010
,
0200
0000
0302
0000
,
2003
0000
3010
0100
,
0002
0000
0023
0000
,
0230
0000
1300
0010
,
0200
0000
0000
0000
0301
0000
0000
1000
,
0001
0000
0000
0100
0010
0000
1000
0000
,
0100
0010
0001
1000
,
0000
0010
1000
0001
,
1001
0000
0000
1000
0100
0000
0000
1000
,
0020
0000
0000
0000
,
0130
0001
1000
0010
,
0100
0001
1000
0000
,
0001
0010
0100
1000
,
0100
0010
0001
0000
,
1000
0001
0100
0010
,
0100
0001
1000
0000
,
0100
0010
0100
1000
,
0010
0000
0000
0100
0010
0000
0100
0000
,
0001
0001
0010
0010
,
0200
0000
0000
1000
2300
0000
0000
0000
,
3001
0001
0100
0100
,
0020
0000
0000
1030
0002
0000
0000
0003
,
0011
0000
0101
0000
,
1001
0000
1000
0100
,
0010
0001
0100
0010
,
1000
0100
0010
0001
,
1000
0010
0100
0000
,
0001
0100
0010
1000
,
1100
0000
0011
0000
,
1001
0001
0010
0100
,
1000
0001
0100
0000
,
0001
1000
0010
0100
,
1001
0000
0110
0000
,
1000
0000
0001
0000
1000
0001
2000
0000
,
3000
0000
0000
0000
;

//---------------dance-single - Rikame----------------
#NOTES:
     dance-single:
     Rikame:
     Hard:
     8:
     0.616,0.631,0.189,0.492,0.255:
0000
0000
0000
0000
,
0000
0000
0000
0000
,
0000
0000
0000
0000
,
0000
0000
0000
0000
,
0000
0000
0000
0000
,
1000
0001
0010
0100
1000
0000
0000
0010
,
1000
0100
0010
0001
1000
0000
0010
0100
,
0102
0000
0013
0100
2100
0000
3010
0100
,
1002
0000
0013
0100
1000
0100
0001
0100
,
0010
0001
1000
0010
0100
0000
0000
0001
,
0100
0010
1000
0001
0010
0000
0100
0010
,
0012
0000
0103
0010
2010
0000
3001
0010
,
0100
1000
0010
0001
0010
0100
1001
0000
,
2000
0000
0000
0000
0000
0000
3100
0010
0002
0000
0000
0000
2003
0000
0000
0000
,
3020
0000
0000
0000
0230
0000
0000
0000
0302
0000
0000
0000
0000
0000
0013
0100
,
2000
0000
0000
0000
0000
0000
3001
0100
0020
0000
0000
0000
2030
0000
0000
0000
,
3100
0000
0010
0000
0100
0000
1000
0000
0001
1000
0001
1000
0002
0000
0000
0000
,
0000
0000
0013
0000
0100
0000
1000
0000
0010
0000
0100
0001
0100
0000
0010
0000
,
1000
0100
0010
0001
0100
0010
2000
0000
,
0000
0000
3100
0000
0010
0000
0100
0000
1000
0000
0001
0010
0001
0000
0100
0000
,
0020
0000
0000
0000
0030
0000
1000
0100
2000
0000
0000
0000
0000
0000
3000
0000
,
0000
0100
0010
0001
0100
0001
1000
0100
,
0020
0000
0000
0000
0030
0000
0001
1000
0002
0000
0000
0000
0003
0000
0010
0100
,
1000
0000
0001
0000
0100
0000
0010
0000
1000
0000
0001
0010
0100
0000
0010
0000
,
1002
0000
1000
0000
1003
0000
0001
0000
1000
0100
1000
0100
1000
0000
0001
0100
,
0001
0000
0010
0000
0100
0000
1000
0000
0010
0000
0000
0100
0000
0000
1000
0000
,
0200
0000
0000
0000
0000
0000
0310
1000
0002
0000
0000
0000
0000
0000
0003
0000
,
0000
0000
0010
0000
0100
0000
0001
0000
0100
0000
0000
1000
0000
0000
0010
0000
,
0200
0000
0000
0000
0300
0000
0010
0000
2000
0000
0000
0000
3100
0010
0100
0010
,
0002
0000
0000
0000
0003
0000
1000
0001
2000
0000
0000
3020
0000
0000
0130
0000
,
0002
0000
0000
0023
0000
0000
0130
0000
1000
0000
0001
1000
0002
0000
0000
0000
,
0003
0000
1000
0000
0100
0000
0010
0000
0002
0000
0000
0203
0000
0000
0310
0000
,
1001
0000
1000
0100
1000
0000
0010
1000
0010
0000
0100
0001
0100
0000
0001
0010
,
0001
0001
1000
1000
0100
0100
0010
0010
,
1001
1000
0100
1000
0010
0100
0001
0010
,
2000
0000
3010
0100
2000
0001
3001
0010
,
0100
1000
1010
0010
0100
0001
0101
0100
,
0010
1000
0100
1000
0002
0000
0000
0000
,
1003
0010
0100
0010
1000
0100
0010
0100
,
0002
0000
0103
0010
0002
1000
1003
0010
,
0100
0001
0011
0010
0100
1000
1100
0100
,
0020
0000
0000
0000
0030
0000
0001
1000
0001
0000
0000
0100
0000
0000
0010
0000
,
1000
0000
0100
1000
0100
0000
0010
0100
0010
0000
0001
0010
0001
0000
1000
0000
,
2000
0000
0000
0001
0002
0000
0000
3003
,
1000
0000
0001
0100
0001
0000
0100
0010
0100
0000
0010
1000
0010
0000
0100
0000
,
0200
0000
0000
0000
0000
0000
0301
1000
0002
0000
0000
0000
0000
0000
0003
0000
,
1001
0000
1000
0001
1000
0000
0010
0000
0100
0000
0001
0100
0001
0000
0010
0000
,
0100
0000
0000
0000
0000
0000
1000
0000
0000
0100
0000
0000
1000
0000
0000
0000
0000
0000
0001
0000
0000
0010
0000
0000
0001
0000
0000
0000
1000
0000
0000
0000
0010
0000
0000
0000
0100
0000
0000
0000
0001
0000
0000
0000
0010
0000
0000
0000
,
0100
1000
0100
1000
0001
0010
0001
0100
0001
0100
0010
1000
,
0001
0001
0010
0010
0100
0100
1000
1000
,
0001
0100
0010
1000
0200
0000
0310
0100
,
1000
0010
0100
0001
0020
0000
0130
0010
,
0012
0000
0103
0010
2010
0000
3100
0010
,
1002
0000
0103
0010
0001
0010
1000
0100
,
0010
0001
0100
0010
2000
0000
3100
1000
,
0001
0100
0010
1000
0002
0000
0013
0100
,
1100
1000
0001
0100
0110
0010
1000
0001
,
0010
0000
1000
0000
0010
0000
0100
0000
1000
0001
1000
0000
2002
0000
0000
0000
,
3003
0000
0000
0000
;
