#TITLE:Catallena;
#SUBTITLE:;
#ARTIST:Orange Caramel;
#TITLETRANSLIT:;
#SUBTITLETRANSLIT:;
#ARTISTTRANSLIT:;
#GENRE:;
#CREDIT:;
#BANNER:[Round 3 Singles] - Catallena.png;
#BACKGROUND:[Round 3 Singles] - Catallena-bg.png;
#LYRICSPATH:;
#CDTITLE:;
#MUSIC:[Round 3 Singles] - Catallena.ogg;
#OFFSET:-1.664;
#SAMPLESTART:61.585;
#SAMPLELENGTH:15.118;
#SELECTABLE:YES;
#BPMS:0.000=127.000
;
#STOPS:
;
#BGCHANGES:15.750=[Round 3 Singles] - Catallena.avi=1.000=1=0=0=StretchNoLoop==CrossFade==,
99999=-nosongbg-=1.000=0=0=0 // don't automatically add -songbackground-
;
#KEYSOUNDS:;
#ATTACKS:;

//---------------dance-single - ----------------
#NOTES:
     dance-single:
     :
     Hard:
     7:
     0.495,0.455,0.442,0.505,0.053,239.000,42.000,48.000,0.000,0.000,0.000,0.495,0.455,0.442,0.505,0.053,239.000,42.000,48.000,0.000,0.000,0.000:
0000
0000
0000
0000
,
0000
0000
0000
0000
,
0000
0000
0000
0000
,
0000
0000
0000
0000
,
1000
0010
0100
0000
0220
0000
0330
0000
,
0100
0001
0010
0000
0022
0000
0033
0000
,
0010
0100
1000
0000
2200
0000
3300
0000
,
2002
0000
0000
3003
,
0102
1003
1002
0013
,
0012
1000
0100
1003
,
2100
3010
2010
3001
,
2001
0000
0100
0000
0010
0000
3100
0100
,
0120
0031
0012
1003
,
2001
0010
0100
3010
,
0001
0000
0010
0000
1000
0000
0010
0000
0001
0000
0000
0001
0000
0000
0001
0000
,
1000
0010
0001
0010
1000
0000
1010
0000
,
0010
1000
0001
1000
0002
0000
0013
0001
,
0020
0000
0130
0010
0200
0000
1300
1000
,
2000
0000
0001
0001
3002
0000
0100
0100
,
0203
0000
0010
0310
0110
0010
1010
0000
,
1000
0100
0010
0100
0020
0000
0031
0010
,
0002
0000
1003
0001
2000
0000
3010
0010
,
0020
0000
0100
0100
0230
0000
0001
0001
,
0302
0023
2030
3200
,
0301
0000
0000
0001
0100
0000
0001
0000
1000
0000
0000
1000
0100
0000
1000
0000
,
0001
0000
0000
0100
0000
0000
0010
0000
1000
0000
0000
0000
1010
0000
0000
0000
,
1000
0000
0000
1000
0010
0000
1000
0000
0001
0000
0000
0001
0010
0000
0001
0000
,
1000
0000
0000
0010
0000
0000
0100
0000
0001
0000
0000
0000
0011
0000
0000
0000
,
1000
0000
0010
0000
0001
0000
0010
0000
1000
0000
0000
1000
0000
0000
1000
0000
,
0001
0000
0010
0000
1000
0000
0010
0000
0001
0000
0000
0001
0000
0000
0001
0000
,
1000
0100
0010
0001
0100
0000
0010
0100
,
0002
0000
0010
0000
1003
0000
1001
1000
,
1200
0310
0021
0031
,
1002
0000
0100
0000
1000
0000
0103
0100
,
0201
0310
0120
1030
,
1200
0000
0001
0000
1000
0000
0310
0010
,
0021
0000
0031
0001
1002
0000
1003
1000
,
2010
0100
0010
3001
,
0001
0000
0100
0000
1000
0000
0100
0000
0001
0000
0000
0001
0000
0000
0001
0000
,
1000
0100
0001
0100
1000
0000
1001
0000
,
1000
0010
1000
0001
1000
0100
1100
0000
,
0001
0010
0001
1000
0001
0100
0101
0101
,
2001
3100
1200
0310
,
0021
0001
1000
0031
,
0001
0100
0001
1000
0001
0010
0011
0000
,
1000
0100
1000
0001
1000
0010
1010
1010
,
1002
0103
0210
0310
,
1020
1000
0001
1030
,
1001
0000
0000
0000
;

//---------------dance-single - ----------------
#NOTES:
     dance-single:
     :
     Medium:
     5:
     0.340,0.379,0.116,0.316,0.000,185.000,11.000,30.000,0.000,0.000,0.000,0.340,0.379,0.116,0.316,0.000,185.000,11.000,30.000,0.000,0.000,0.000:
0000
0000
0000
0000
,
0000
0000
0000
0000
,
0000
0000
0000
0000
,
0000
0000
0000
0000
,
1000
0100
0020
0000
,
0031
0100
0020
0000
,
1030
0001
2000
3000
,
2002
0000
0000
3003
,
1000
0100
0100
0010
,
0020
0001
1000
0031
,
0001
0100
0100
0010
,
0020
1000
0001
1030
,
1000
0010
1000
0001
,
0001
0010
0001
1000
,
0100
1000
0100
1000
0100
0000
0100
0000
,
0010
0001
0010
0001
0010
0000
0010
0000
,
0001
0100
0010
1000
,
1000
0000
0001
0000
0001
0000
0010
0001
,
0010
0000
0001
1000
0001
0000
1000
0010
,
1000
0000
0010
0100
0010
0000
0110
0000
,
0100
0001
1000
0100
,
0100
0000
0010
0000
0010
0000
0001
0010
,
0001
0000
1000
0001
1000
0000
0010
1000
,
0020
0230
0302
1003
,
0200
0000
1300
0100
2000
0000
3001
1000
,
0002
0103
0220
0330
,
0020
0000
0130
0010
2000
0000
3010
1000
,
0002
1003
2002
3003
,
0001
0010
0022
0033
,
0001
1000
2002
3003
,
1000
0010
1010
0010
,
0220
0000
0000
0330
,
0100
0001
1000
0100
,
0010
0001
0010
0001
,
0010
0100
1000
0001
,
1000
0000
0010
0000
1000
0000
0010
1000
,
0010
0000
0100
0010
0100
0000
0001
0100
,
0001
0010
0001
0100
,
0010
1000
2020
3030
,
1000
0001
2002
3003
,
0001
0000
0010
0000
0001
0010
0001
0000
,
1000
0000
0100
0000
1000
0100
1000
0000
,
0010
0001
0010
1000
,
0100
0001
0100
1000
,
0010
0000
1000
0000
0010
1000
0010
0000
,
0100
0000
0001
0000
0100
0001
0100
0000
,
0001
0001
1000
1000
,
0001
1000
0001
1000
0001
0000
0000
0000
,
1001
0000
0000
0000
;

//---------------dance-single - ----------------
#NOTES:
     dance-single:
     :
     Easy:
     3:
     0.215,0.202,0.011,0.032,0.000,139.000,1.000,3.000,0.000,0.000,0.000,0.215,0.202,0.011,0.032,0.000,139.000,1.000,3.000,0.000,0.000,0.000:
0000
0000
0000
0000
,
0000
0000
0000
0000
,
0000
0000
0000
0000
,
0000
0000
0000
0000
,
0001
0001
0001
0000
,
1000
1000
1000
0000
,
0001
1000
0001
0000
,
2002
0000
0000
3003
,
1000
0100
0010
0100
,
0010
0001
0010
0001
,
1000
0001
1000
0010
,
0100
0100
0100
0100
,
0010
1000
0001
0100
,
0001
0010
0100
1000
,
0001
1000
0001
0000
,
0100
0010
0100
0000
,
0001
0010
0100
1000
,
0010
0010
0100
0100
,
0001
0000
1000
0000
,
0100
0000
0010
0010
,
0010
0001
1000
0000
,
0001
0000
1000
0000
,
0010
0010
0010
0000
,
0100
0100
0100
0000
,
0001
0100
0001
1000
,
0100
1000
0100
0000
,
0010
0001
1000
0001
,
1000
0010
1000
0000
,
0010
0010
0010
0000
,
0100
0100
0100
0000
,
0001
0000
0010
0000
,
0200
0000
0000
0300
,
1000
1000
0001
0001
,
0100
0001
0100
0001
,
0100
0100
0010
0010
,
1000
0010
1000
0010
,
1000
1000
0001
0001
,
0010
0001
0010
0001
,
0010
0010
0100
0100
,
1000
1000
1000
0000
,
0001
0100
0001
0000
,
1000
0010
1000
0000
,
0001
0000
1000
0000
,
0001
0000
1000
0000
,
0001
0010
0001
0000
,
1000
0100
1000
0000
,
0001
0000
1000
0000
,
0001
0000
1000
0000
,
0001
0000
0000
0000
;

//---------------dance-single - ----------------
#NOTES:
     dance-single:
     :
     Beginner:
     1:
     0.110,0.148,0.000,0.000,0.000,73.000,0.000,0.000,0.000,0.000,0.000,0.110,0.148,0.000,0.000,0.000,73.000,0.000,0.000,0.000,0.000,0.000: // measure 0
0000
0000
0000
0000
,  // measure 1
0000
0000
0000
0000
,  // measure 2
0000
0000
0000
0000
,  // measure 3
0000
0000
0000
0000
,  // measure 4
0001
0001
0000
0000
,  // measure 5
1000
1000
0000
0000
,  // measure 6
0001
0001
0000
0000
,  // measure 7
1000
0000
0000
0000
,  // measure 8
0100
0000
0100
0000
,  // measure 9
0100
0000
0000
0000
,  // measure 10
1000
0000
0000
0000
,  // measure 11
0001
0000
0000
0000
,  // measure 12
0100
0000
0100
0000
,  // measure 13
0100
0000
0000
0000
,  // measure 14
0001
0000
0000
0000
,  // measure 15
1000
0000
0000
0000
,  // measure 16
0100
0000
0100
0000
,  // measure 17
0010
0000
0010
0000
,  // measure 18
0001
0000
0001
0000
,  // measure 19
1000
0000
1000
1000
,  // measure 20
1000
0000
0010
0000
,  // measure 21
1000
0000
0001
0000
,  // measure 22
0010
0000
0001
0000
,  // measure 23
1000
1000
1000
1000
,  // measure 24
1000
0000
0010
0000
,  // measure 25
0100
0000
0000
0000
,  // measure 26
0001
0000
0010
0000
,  // measure 27
0100
0000
0000
0000
,  // measure 28
1000
0000
0000
0000
,  // measure 29
0001
0000
0000
0000
,  // measure 30
1000
0000
0001
0000
,  // measure 31
1000
0000
0000
0000
,  // measure 32
0010
0000
0010
0000
,  // measure 33
0010
0000
0000
0000
,  // measure 34
1000
0000
0000
0000
,  // measure 35
0001
0000
0000
0000
,  // measure 36
0010
0000
0010
0000
,  // measure 37
0010
0000
0000
0000
,  // measure 38
0001
0000
0000
0000
,  // measure 39
1000
0000
0000
0000
,  // measure 40
0010
0010
0010
0000
,  // measure 41
0100
0100
0100
0000
,  // measure 42
0001
0000
0000
0000
,  // measure 43
1000
0000
0000
0000
,  // measure 44
0100
0100
0100
0000
,  // measure 45
0010
0010
0010
0000
,  // measure 46
0001
0000
0000
0000
,  // measure 47
1000
0000
0000
0000
;
