#TITLE:BIZARRE INC.;
#SUBTITLE:;
#ARTIST:RMHN;
#TITLETRANSLIT:;
#SUBTITLETRANSLIT:;
#ARTISTTRANSLIT:;
#GENRE:;
#CREDIT:Telperion;
#BANNER:[Round 3 Singles & Round 2 Doubles] - BIZARRE INC.png;
#BACKGROUND:[Round 3 Singles & Round 2 Doubles] - BIZARRE INC-bg.png;
#JACKET:[Round 3 Singles & Round 2 Doubles] - BIZARRE INC-jacket.png;
#LYRICSPATH:;
#CDTITLE:cdtitle.png;
#MUSIC:[Round 3 Singles & Round 2 Doubles] - BIZARRE INC.ogg;
#OFFSET:-3.300000;
#SAMPLESTART:3.309000;
#SAMPLELENGTH:13.200999;
#SELECTABLE:YES;
#DISPLAYBPM:145.000000:175.000000;
#BPMS:0.000000=145.000000
,100.000000=150.000000
,104.000000=155.000000
,108.000000=160.000000
,112.000000=165.000000
,116.000000=170.000000
,120.000000=175.000000
,192.000000=145.000000
,192.500000=217.500000
,193.500000=145.000000
,195.000000=108.750000
,196.000000=72.500000
,198.000000=54.375000
,198.666672=72.500000
,199.333328=108.750000
,200.000000=145.000000
;
#STOPS:
;
#BGCHANGES:;
#KEYSOUNDS:;
#ATTACKS:;

//---------------dance-single - Telperion----------------
#NOTES:
     dance-single:
     Telperion:
     Hard:
     8:
     0.566473,0.565057,0.163785,0.094823,0.288778,430.000000,19.000000,11.000000,0.000000,0.000000,0.000000,0.566473,0.565057,0.163785,0.094823,0.288778,430.000000,19.000000,11.000000,0.000000,0.000000,0.000000:
1000
1000
0100
0000
0001
0001
0010
0000
,
1000
0100
1000
0000
0010
0000
0000
0000
0001
0100
0001
0000
0010
0000
0000
0000
,
1000
0100
1000
0100
1000
0000
0000
0000
0001
0100
0001
0100
0010
0000
0000
0000
,
1000
0001
1000
0001
1000
0000
0100
0000
0010
0000
0000
0000
0100
0000
1000
0000
,
0001
0001
0100
0000
1000
1000
0010
0000
,
0001
0100
0001
0000
0010
0000
0000
0000
1000
0100
1000
0000
0010
0000
0000
0000
,
0001
0100
0010
0100
0001
0000
0000
0000
1000
0100
1000
0100
0010
0000
0000
0000
,
0001
0010
0001
0010
0001
1000
0010
0000
,
0110
0000
0010
0010
0000
1000
1000
0000
,
1001
0000
0001
0001
0000
0010
0010
0000
,
0110
0000
0100
0100
0000
1000
1000
0000
,
0001
0000
1000
0000
0001
0000
0000
0000
0100
0000
0000
0100
0000
0000
0100
0000
,
0010
0000
0000
1000
0000
0000
0010
0000
0000
1000
0000
0000
0001
0000
0001
0000
,
0010
0000
0000
0001
0000
0000
0010
0000
0000
0001
0000
0000
1000
0001
1000
0000
,
0020
0000
0130
0001
0011
0000
0010
0100
,
1100
0000
2000
0000
3000
0000
0002
0000
0003
0000
0000
1000
0001
0000
0100
0000
,
0010
0000
0000
1000
0000
0000
0010
0000
0100
0000
0100
0000
0000
0000
0001
0000
,
1000
0000
0001
0010
0000
0000
0010
0000
0100
0000
0100
0000
0000
0000
1000
0100
,
1000
0000
0000
0001
0000
0000
0100
0000
0010
0000
0010
0000
0000
0000
1000
0000
,
0001
0000
1000
0010
0000
0000
0100
0000
0001
0000
0010
0000
0000
0000
0010
0000
,
0100
0000
0000
1000
0001
0000
1000
0000
0100
0000
1000
0000
0001
0000
0000
0000
,
0100
0000
0000
0001
1000
0000
0010
0000
1000
0000
0001
0000
0100
0000
0000
0000
,
0010
0010
1000
1000
0001
0001
0010
0001
,
1000
0010
1000
0010
1000
0001
0010
0000
,
0100
0000
0000
0010
0000
0000
0100
0000
0000
1000
0000
0000
0001
0000
0000
0000
,
0100
0000
0000
0010
0000
0000
0100
0000
0000
0001
0000
0000
1000
0000
0000
0000
,
0100
0000
0000
0001
0000
0000
0100
0000
0000
1000
0000
0000
0001
0000
0000
0000
,
0100
0000
0010
0000
0000
0001
0000
0000
1000
0000
0000
0100
0000
0000
0001
0000
,
1000
1000
0100
0100
,
0010
0010
0001
0001
,
1000
0100
0010
0001
1000
0100
0010
0001
,
0200
0000
0001
0000
0000
0010
0000
0000
1300
0000
0000
0100
0000
0000
0001
0000
,
0010
0000
0100
0100
0000
1000
0001
1000
,
0100
0000
1000
1000
0000
0001
1000
0001
,
0100
0000
0001
0001
0000
0100
0010
0000
,
1000
1000
1000
1000
1000
0000
1000
0000
,
0001
0000
0100
0100
0000
0001
1000
0100
,
0010
0000
0001
0001
0000
0010
0100
1000
,
0001
0000
0100
0100
0000
0010
0100
0000
,
0001
0001
0001
0001
0001
0000
1000
0000
,
0101
0000
0100
0100
0000
0010
1000
0010
,
0100
0000
0001
0001
0000
0010
0001
0010
,
0100
0000
1000
1000
0000
0100
0010
0000
,
0001
1000
0001
1000
0001
0000
1000
0000
0001
0000
0000
1000
0000
0000
0001
0000
,
0100
0110
0010
1010
,
1000
1001
0001
0011
,
1000
0001
0100
0010
1000
0001
0100
0010
,
1000
0001
1000
0001
1000
0000
0001
0000
1000
0000
0000
0001
0000
0000
1000
0000
,
0200
0000
0000
0000
,
0000
0000
0300
0000
,
1000
0100
1000
0100
1000
0001
0100
0000
,
0010
0010
0001
0000
0010
0010
1000
0000
,
0001
0100
0001
0000
0010
0000
0000
0000
1000
0100
1000
0000
0010
0000
0000
0000
,
0001
0100
0001
0100
0010
0000
0000
0000
1000
0001
1000
0001
0010
0000
0000
0000
,
0001
1000
0001
1000
0001
0000
0100
0000
0010
0000
0000
0000
0100
0000
0001
0000
,
0100
0100
1000
0000
0100
0100
0001
0000
,
1000
0100
1000
0000
0001
0000
0000
0000
0001
0100
0001
0000
1000
0000
0000
0000
,
0001
0100
0001
0100
0010
0000
0000
0000
1000
0100
0010
0100
1000
0000
0000
0000
,
0001
0000
0000
0100
0001
0000
0000
0000
2000
0000
0000
3002
0000
0000
0103
0000
,
0000
0000
0010
0010
0000
1000
1010
1000
,
0000
0001
0001
0000
1000
0001
0011
0001
,
1000
0000
0010
0000
0100
0001
0101
0000
,
1000
0000
0100
0000
1100
0000
0000
0000
0021
0000
0000
0100
0000
0000
0031
0000
,
1000
1000
1010
1000
0000
0001
0011
0001
,
1000
0000
1000
0000
1100
0000
1000
0000
0000
0000
0001
1000
0001
0000
0100
0000
,
0001
0100
0001
0100
0001
0000
0000
0000
1000
0100
1000
0100
1000
0000
0000
0000
,
0001
0000
2000
0000
3000
0000
0002
0000
0003
0000
0000
0101
0000
0000
0100
0000
,
0020
0000
0000
0000
,
0000
0000
0000
0000
,
0030
0000
0000
0000
;

//---------------dance-single - Telperion----------------
#NOTES:
     dance-single:
     Telperion:
     Medium:
     6:
     0.434707,0.462045,0.129304,0.198266,0.068962,315.000000,15.000000,23.000000,0.000000,0.000000,0.000000,0.434707,0.462045,0.129304,0.198266,0.068962,315.000000,15.000000,23.000000,0.000000,0.000000,0.000000:
1000
0100
0010
0000
0001
0100
0010
0000
,
1000
1000
0010
0000
0001
0001
0010
0000
,
1000
0010
0100
0000
0001
0010
0100
0000
,
1000
0100
1000
0001
0010
0000
0001
0010
,
0100
0010
0001
0000
0100
0010
1000
0000
,
0100
0100
0001
0000
0100
0100
1000
0000
,
0010
0100
0001
0000
0010
0100
1000
0000
,
0010
0000
0000
0010
0100
0000
0000
0000
0002
0000
0000
1000
0000
0000
0103
0000
,
0001
0000
0010
0010
0000
0100
0100
0000
,
1100
0000
0001
0001
0000
0100
0100
0000
,
0101
0000
1000
1000
0000
0010
0010
0000
,
0100
0000
0001
0000
0001
0000
1000
0000
0200
0000
0000
0010
0000
0000
0301
0000
,
0100
0000
0000
1000
0000
0000
0001
0000
0000
1000
0000
0000
0010
0000
0000
0000
,
0100
0000
0000
0001
0000
0000
1000
0000
0000
0001
0000
0000
0010
0000
0000
0000
,
0200
0000
1300
1000
0020
0000
0130
0100
,
0001
0000
0010
0000
0100
0000
1000
0000
0020
0000
0000
1000
0000
0000
0130
0000
,
0001
0000
0001
0000
,
0100
0001
1000
0000
,
0100
0000
0100
0000
,
1000
0100
0010
0000
,
0001
0010
0001
0010
,
0100
1000
0100
1000
,
0001
0100
0001
0000
1000
0100
1000
0000
,
0001
0000
0010
0000
0001
0000
0010
0000
0001
0000
0000
0000
2000
3000
0000
0000
,
2001
0000
0000
0000
,
3020
0000
0000
0000
,
0230
0000
0000
0000
,
0302
0000
0000
0000
,
1003
1000
0100
0100
,
0010
0010
0001
0001
,
1000
0100
1000
0001
1000
0100
1000
0001
,
1000
0000
0100
0000
0000
1000
0000
0000
0002
0000
0000
0100
0000
0000
1003
0000
,
0001
0000
0000
0010
0000
0000
0000
0001
,
0001
0000
0000
1000
0000
0010
0000
0010
,
1000
0000
0000
0100
0000
0000
0000
1000
,
1000
0000
0000
0001
0000
0000
0000
0100
,
0100
0000
0000
0101
0000
0000
0000
1000
,
1000
0000
0000
1100
0000
0001
0000
1000
,
0010
0000
0000
0110
0000
0000
0000
0100
,
0100
0000
0000
0001
0000
1000
0000
0001
,
0010
0000
0010
0100
0000
0100
1000
0000
,
0001
1000
0001
1000
0000
1000
0010
0000
,
0100
0010
0100
0010
0000
0010
1000
0000
,
0002
0000
0000
0000
0003
0000
0001
0000
1000
0000
0000
0001
0000
0000
1000
0000
,
0001
0101
0001
0101
,
1000
1100
1000
1100
,
0001
0100
0001
1000
0001
0100
0001
1000
,
0002
0000
0000
0000
0003
0000
1000
0000
0001
0000
0000
1000
0000
0000
0001
0000
,
0020
0000
0000
0000
,
0000
0000
0030
0000
,
0010
0000
0000
0010
0020
0000
0030
0000
,
0001
0100
0010
0000
1000
0100
0010
0000
,
0001
0001
0010
0000
1000
1000
0010
0000
,
0001
0010
0100
0000
1000
0010
0100
0000
,
0001
0100
0001
1000
0010
0000
1000
0010
,
0100
0010
1000
0000
0100
0010
0001
0000
,
0100
0100
1000
0000
0100
0100
0001
0000
,
0010
0100
1000
0000
0010
0100
0001
0000
,
0010
0000
0000
0010
0100
0000
0000
0000
2000
0000
0000
0001
0000
0000
0100
0000
,
3000
0000
1000
0001
0000
0101
0202
0303
,
0000
0001
1000
0000
0100
1000
0200
0300
,
0010
0011
0010
1010
,
0100
0000
0000
0000
0101
0000
0000
0000
0002
0000
0000
1000
0000
0000
0103
0000
,
0001
0010
0001
0010
0000
0001
1000
0001
,
1000
0010
1000
0010
0000
0010
1000
0001
,
0020
0030
0200
0300
,
1000
0000
0001
0000
0100
0000
0010
0000
2000
0000
0000
0001
0000
0000
3100
0000
,
0010
0000
0000
0000
;

//---------------dance-single - Telperion----------------
#NOTES:
     dance-single:
     Telperion:
     Easy:
     4:
     0.254913,0.346534,0.172405,0.077582,0.000000,178.000000,20.000000,9.000000,0.000000,0.000000,0.000000,0.254913,0.346534,0.172405,0.077582,0.000000,178.000000,20.000000,9.000000,0.000000,0.000000,0.000000:
0100
1000
0100
0001
,
0010
1000
0010
0001
,
0100
1000
0010
0001
,
0010
0000
1000
0000
0100
0000
0001
1000
,
0001
0001
0100
1000
,
0010
0001
0010
1000
,
0100
0001
0010
1000
,
0010
0010
0200
0300
,
0001
0000
0000
1000
0000
0000
0001
0000
,
0010
0000
0000
0001
0000
0000
0010
0000
,
0100
0000
0000
0010
0000
0000
0100
0000
,
1000
0000
0001
1000
,
0100
0100
1000
1000
,
0001
0001
0100
0100
,
0002
0003
2000
3000
,
0010
0100
0001
1000
,
0100
0000
0100
0000
,
0100
0000
0100
0000
,
0010
0000
0010
0000
,
0010
0000
0010
0000
,
0001
0010
0001
0010
,
0001
1000
0001
1000
,
0010
0010
0100
0100
,
0001
1000
0001
0000
,
1001
0000
0000
0000
,
1000
0000
0000
0000
,
0001
0000
0000
0000
,
1000
0000
0000
0000
,
0001
0000
0001
0000
,
1000
0000
1000
0000
,
0001
1000
0001
1000
,
0001
0000
0000
0000
,
0011
0000
0000
0000
,
1010
0000
0000
0000
,
1100
0000
0000
0000
,
0101
0000
0000
0001
0000
0000
0000
0000
,
0101
0000
0000
0000
,
1100
0000
0000
0000
,
1010
0000
0000
0000
,
0011
0000
0000
0010
0000
0000
0000
0000
,
0110
0000
0000
0000
,
1100
0000
0000
0000
,
1010
0000
0000
0000
,
0110
0000
0000
0100
0000
0000
0000
0000
,
0110
0000
0001
0000
,
0101
0000
1000
0000
,
1001
1001
1001
1001
,
1001
0000
0002
0000
,
0103
0000
0000
0000
,
0000
0000
0000
0000
,
0200
0000
0300
0000
,
0010
0001
0010
1000
,
0100
0001
0100
1000
,
0010
0001
0100
1000
,
0100
0000
0001
0000
0010
0000
1000
0001
,
1000
1000
0010
0001
,
0100
1000
0100
0001
,
0010
1000
0100
0001
,
0100
0100
0020
0030
,
1000
0000
0000
0001
0000
0000
1000
0000
,
0000
0100
0000
0000
0010
0000
0100
0000
,
1000
0001
0000
0001
,
1000
0001
1000
0000
,
0010
0010
0000
0100
,
0001
0001
0000
1000
,
0002
0003
2000
3000
,
0010
0100
0002
1000
,
0013
0000
0000
0000
;

//---------------dance-single - Telperion----------------
#NOTES:
     dance-single:
     Telperion:
     Beginner:
     1:
     0.080045,0.115511,0.008620,0.008620,0.000000,63.000000,1.000000,1.000000,0.000000,0.000000,0.000000,0.080045,0.115511,0.008620,0.008620,0.000000,63.000000,1.000000,1.000000,0.000000,0.000000,0.000000:
0001
0000
0000
0000
,
1000
0000
0000
0000
,
0001
0000
0000
0000
,
1000
0000
0000
0000
,
0100
0000
0000
0000
,
0010
0000
0000
0000
,
0100
0000
0000
0000
,
0010
0000
0010
0000
,
0001
0000
0000
0000
,
1000
0000
0000
0000
,
1000
0000
0000
0000
,
1000
0000
0000
0000
,
0010
0000
0000
0000
,
0010
0000
0000
0000
,
0010
0000
0010
0000
,
0100
0000
0100
0000
,
0001
0000
0000
0000
,
0000
0000
0000
0000
,
0000
0000
0000
0000
,
0000
0000
0000
0000
,
1000
0000
0000
0000
,
0001
0000
0000
0000
,
1000
0000
1000
0000
,
1000
0000
1000
0000
,
1000
0000
0000
0000
,
0000
0000
0000
0000
,
0000
0000
0000
0000
,
0000
0000
0000
0000
,
0000
0000
0000
0000
,
0000
0000
0000
0000
,
0000
0000
0000
0000
,
0000
0000
0000
0000
,
0010
0000
0000
0000
,
0010
0000
0000
0000
,
0100
0000
0000
0000
,
0100
0000
0000
0000
,
0001
0000
0000
0000
,
0001
0000
0000
0000
,
1000
0000
0000
0000
,
1000
0000
0000
0000
,
0100
0000
0000
0000
,
0100
0000
0000
0000
,
0010
0000
0000
0000
,
0010
0000
0000
0000
,
0001
0000
0000
0000
,
0001
0000
0000
0000
,
1000
0000
0000
0000
,
1000
0000
0000
0000
,
1001
0000
0000
0000
,
0000
0000
0000
0000
,
0000
0000
0000
0000
,
1000
0000
0000
0000
,
0001
0000
0000
0000
,
1000
0000
0000
0000
,
0001
0000
0000
0000
,
0100
0000
0000
0000
,
0010
0000
0000
0000
,
0100
0000
0000
0000
,
0010
0000
0010
0000
,
1000
0000
0000
0000
,
0001
0000
0000
0000
,
0001
0000
0000
0000
,
0001
0000
0000
0000
,
0010
0000
0000
0000
,
0010
0000
0000
0000
,
0010
0000
0010
0000
,
0100
0000
0200
0000
,
0300
0000
0000
0000
;

//---------------dance-double - Telperion----------------
#NOTES:
     dance-double:
     Telperion:
     Hard:
     9:
     0.536918,0.565057,0.051721,0.103443,0.237057,418.000000,6.000000,12.000000,0.000000,0.000000,0.000000,0.536918,0.565057,0.051721,0.103443,0.237057,418.000000,6.000000,12.000000,0.000000,0.000000,0.000000:
// measure 0
00010000
00001000
00100000
00000000
00010000
00100000
01000000
00000000
,  // measure 1
10000000
01000000
10000000
00000000
00100000
00000000
00000000
00000000
00010000
01000000
00010000
00000000
00100000
00000000
00000000
00000000
,  // measure 2
00001000
00010000
00001000
00010000
00000010
00000000
00000000
00000000
00010000
00001000
00010000
00001000
00100000
00000000
00000000
00000000
,  // measure 3
00001000
00010000
00001000
00010000
00001000
00000000
01000000
00000000
00001000
00000000
00000000
00000000
00000100
00000000
00000001
00000000
,  // measure 4
00000010
00000001
00000100
00000000
00000010
00000100
00000001
00000000
,  // measure 5
00001000
00000100
00001000
00000000
00000010
00000000
00000000
00000000
00000001
00000100
00000001
00000000
00000010
00000000
00000000
00000000
,  // measure 6
00000100
00001000
00000100
00001000
00000100
00000000
00000000
00000000
00010000
00000100
00010000
00000100
00010000
00000000
00000000
00000000
,  // measure 7
00001000
00010000
01000000
00000000
10000000
00100000
10000000
01000000
,  // measure 8
00010000
00000000
00001000
00001000
00000000
01000000
01000000
00000000
,  // measure 9
00011000
00000000
00010000
00010000
00000000
00000100
00000100
00000000
,  // measure 10
00011000
00000000
00000010
00000010
00000000
00001000
00001000
00000000
,  // measure 11
00000001
00000000
00000100
00000000
00000001
00000000
00000000
00000000
00000010
00000000
00000000
00000010
00000000
00000000
00000010
00000000
,  // measure 12
00000100
00000000
00000000
00010000
00000000
00000000
00001000
00000000
00000000
01000000
00000000
00000000
00100000
00000000
00000000
00000000
,  // measure 13
01000000
00000000
00000000
00001000
00000000
00000000
00010000
00000000
00000000
00000100
00000000
00000000
00000010
00000000
00000000
00000000
,  // measure 14
00000002
00000000
00000013
00001000
00020000
00000000
00031000
00010000
,  // measure 15
00100000
00000000
20000000
00000000
30010000
00000000
02000000
00000000
03001000
00000000
00000000
00010000
00000000
00000000
00000100
00000000
,  // measure 16
00000010
00000000
00000000
00000001
00000000
00000000
00000010
00000000
00000100
00000000
00000100
00000000
00000000
00000000
00001000
00000000
,  // measure 17
00000010
00000000
00000000
00010000
00000000
00000000
00001000
00000000
00010000
00000000
00010000
00000000
00000000
00000000
00001000
00000000
,  // measure 18
00100000
00000000
00000000
00010000
00000000
00000000
00100000
00000000
01000000
00000000
01000000
00000000
00000000
00000000
10000000
00000000
,  // measure 19
00010000
00000000
00000000
10000000
00000000
00000000
00100000
00000000
01000000
00000000
01000000
00000000
00000000
00000000
00010000
00000000
,  // measure 20
10000000
00000000
00000000
10000000
00100000
00000000
00000000
00000000
00010000
00000000
00000000
00000000
00001000
00000000
00010000
00000000
,  // measure 21
00001000
00000000
00000000
00001000
00000010
00000000
00000000
00000000
00000001
00000000
00000000
00000000
00001000
00000000
00000001
00000000
,  // measure 22
00001000
00000010
00000100
00001000
00010000
00001000
00000100
00000001
,  // measure 23
00000010
00000100
00001000
00000100
00010000
00000000
00000000
00000000
,  // measure 24
00011000
00001000
00100000
00100000
,  // measure 25
00010000
00010000
10000000
10000000
,  // measure 26
00100000
00100000
01000000
01000000
,  // measure 27
10000000
01000000
00100000
00010000
,  // measure 28
00001000
00010000
00000010
00010000
,  // measure 29
00001000
00100000
00001000
00010000
,  // measure 30
00000100
00001000
00000100
00010000
00001000
01000000
00010000
01000000
,  // measure 31
00200000
00000000
00000000
00000000
00000000
00000000
00000000
00000000
10000000
00000000
00000000
00310000
00000000
00000000
00100000
00000000
,  // measure 32
10000000
00000000
10000000
01000000
00000000
00010000
00001000
00010000
,  // measure 33
01000000
00000000
01000000
00100000
00000000
00001000
00010000
00001000
,  // measure 34
00100000
00000000
00100000
00001000
00000000
00010000
00001000
00010000
,  // measure 35
00000010
00001000
00000010
00001000
00000010
00000000
00000010
00000000
,  // measure 36
00000100
00000000
00000100
00000001
00000000
00000100
00001000
00000100
,  // measure 37
00000010
00000000
00000010
00001000
00000000
00000001
00001000
00000010
,  // measure 38
00010000
00000000
00010000
00001000
00000000
00100000
00001000
00100000
,  // measure 39
00010000
10000000
00010000
10000000
00010000
00000000
00010000
00100000
,  // measure 40
01000000
00000000
10000000
01000000
00000000
00100000
00001000
00010000
,  // measure 41
00001000
00001000
01000000
00001000
00000000
00010000
00000010
00001000
,  // measure 42
00000010
00000010
00010000
00001000
00000000
00010000
00000100
00010000
,  // measure 43
00001000
00010000
00001000
00010000
00001000
00000000
00010000
00000000
00001000
00000000
00000000
00010000
00000000
00000000
00001000
00000000
,  // measure 44
01000000
00010000
00001000
00000010
,  // measure 45
00000100
00001000
00010000
00100000
,  // measure 46
01000000
00010000
00100000
00001000
00010000
00000010
00001000
00000100
,  // measure 47
00010000
00001000
00010000
00001000
00010000
00000000
00001000
00000000
00010000
00000000
00000000
00001000
00000000
00000000
00010000
00000000
,  // measure 48
00000020
00000000
00000000
00000000
,  // measure 49
00000000
00000000
00000030
00000000
,  // measure 50
00000100
00000000
00000000
00000100
00000200
00000000
00000300
00000000
,  // measure 51
00000010
00010000
00001000
00000000
00010000
00000010
00001000
00000000
,  // measure 52
00000001
00000100
00000001
00000000
00000010
00000000
00000000
00000000
00001000
00000100
00001000
00000000
00000010
00000000
00000000
00000000
,  // measure 53
00010000
00001000
00010000
00001000
00100000
00000000
00000000
00000000
00001000
00010000
00001000
00010000
00000010
00000000
00000000
00000000
,  // measure 54
00010000
00001000
00010000
00001000
00010000
00000000
00000100
00000000
00010000
00000000
00000000
00000000
01000000
00000000
10000000
00000000
,  // measure 55
00010000
00010000
01000000
00000000
10000000
10000000
01000000
00000000
,  // measure 56
00010000
01000000
00010000
00000000
00100000
00000000
00000000
00000000
10000000
01000000
10000000
00000000
00100000
00000000
00000000
00000000
,  // measure 57
01000000
00010000
01000000
00010000
01000000
00000000
00000000
00000000
00001000
01000000
00001000
01000000
00001000
00000000
00000000
00000000
,  // measure 58
00010000
00000000
00000000
00010000
00000010
00000000
00000000
00000000
00000102
00000000
00000000
00002003
00000000
00000000
00003100
00000000
,  // measure 59
00010000
00000000
00001000
00001000
00000000
00100000
00010000
10000000
,  // measure 60
00000000
00100000
00100000
00000000
01000000
00001000
00010000
00000100
,  // measure 61
00001000
00000000
00001100
00000000
00010000
00000100
00000100
00000000
,  // measure 62
00010000
00000000
00001000
00000000
00100000
00000000
00000000
00000000
11000000
00000000
00000000
01000000
00000000
00000000
00100000
00000000
,  // measure 63
00010000
10000000
00010000
10000000
00000000
00100000
00010000
00001000
,  // measure 64
01000000
00001000
01000000
00001000
00000000
00010000
00001000
00010000
,  // measure 65
00000100
00010000
00000100
00010000
00000100
00000000
00000000
00000000
01000000
00001000
01000000
00001000
01000000
00000000
00000000
00000000
,  // measure 66
00010000
00000000
20000000
00000000
30100000
00000000
02000000
00000000
03001000
00000000
00000000
00010000
00000000
00000000
00000100
00000000
,  // measure 67
00000020
00000000
00000000
00000000
,  // measure 68
00000000
00000000
00000000
00000000
,  // measure 69
00000030
00000000
00000000
00000000
;

//---------------dance-double - Telperion----------------
#NOTES:
     dance-double:
     Telperion:
     Medium:
     6:
     0.401457,0.404289,0.146544,0.129304,0.004310,294.000000,17.000000,15.000000,0.000000,0.000000,0.000000,0.401457,0.404289,0.146544,0.129304,0.004310,294.000000,17.000000,15.000000,0.000000,0.000000,0.000000:
// measure 0
00010000
00001100
00000100
00011000
,  // measure 1
00001000
01000000
00001000
00000000
00010000
00001000
00010000
00000000
,  // measure 2
00001000
00001000
00100000
00000000
00010000
00010000
10000000
00000000
,  // measure 3
00100000
10000000
00100000
00000000
01000000
00000000
00001000
00010000
,  // measure 4
00001000
01010000
01000000
00011000
,  // measure 5
00010000
00000100
00010000
00000000
00001000
00010000
00001000
00000000
,  // measure 6
00010000
00000100
00001000
00000000
00000100
00000010
00000001
00000000
,  // measure 7
00001000
00000001
00001000
00000000
00000020
00000000
00000100
00000000
,  // measure 8
00001030
00000000
00000001
00000001
00000000
00000010
00000010
00000000
,  // measure 9
00000100
00000000
00010000
00010000
00000000
00001000
00001000
00000000
,  // measure 10
00100000
00000000
00010000
00010000
00000000
10000000
10000000
00000000
,  // measure 11
00100000
10000000
00100000
00000000
02000000
00000000
00100000
00000000
,  // measure 12
03010000
10000000
01000000
00100000
,  // measure 13
00110000
00010000
01000000
00001000
,  // measure 14
00012000
00000100
00023000
01000000
,  // measure 15
00031000
00010000
00001000
00010000
00001000
00000000
00010000
00000000
,  // measure 16
00000100
01000000
00000000
01000000
,  // measure 17
00000000
00000100
00000000
00000100
,  // measure 18
00000000
00010000
00000000
00010000
,  // measure 19
00000000
00001000
00000000
00010000
,  // measure 20
00000010
00010000
00001000
00010000
,  // measure 21
01000000
00010000
00001000
00010000
,  // measure 22
00000010
00001000
00000010
00000000
00010000
00001000
00010000
00000000
,  // measure 23
00000100
00001000
00000100
00001000
00000100
00000000
00000000
00000000
,  // measure 24
00000010
00000000
00000000
00000001
00000000
00000000
00000010
00000000
,  // measure 25
00000100
00000000
00000000
00001000
00000000
00000000
00000100
00000000
,  // measure 26
00000010
00000000
00000000
00001000
00000000
00000000
00010000
00000000
,  // measure 27
00000100
00010000
00001000
00010000
,  // measure 28
00100000
00100000
10000000
10000000
,  // measure 29
01000000
01000000
00010000
00010000
,  // measure 30
00001000
00010000
00001000
00010000
00001000
00010000
00001000
00010000
,  // measure 31
00002000
00000000
00003000
00000000
,  // measure 32
00011000
00000000
00000000
00000100
00000000
00000000
00000000
00001000
,  // measure 33
00001000
00000000
00000000
00000001
00000000
00001000
00000000
00000001
,  // measure 34
00000100
00000000
00000000
00000010
00000000
00000000
00000000
00001000
,  // measure 35
00001000
00000000
00000000
00000100
00000000
00000000
00000000
00010000
,  // measure 36
00001000
00000000
00000000
01000000
00000000
00000000
00000000
00010000
,  // measure 37
00010000
00000000
00000000
00100000
00000000
00010000
00000000
10000000
,  // measure 38
00100000
00000000
00000000
01000000
00000000
00000000
00000000
00010000
,  // measure 39
00010000
00000000
00000000
10000000
00000000
00100000
00000000
01000000
,  // measure 40
00001000
00010000
00001000
00010000
00000000
00010000
00000100
00000000
,  // measure 41
00010000
00001000
00010000
00001000
00000000
00001000
01000000
00000000
,  // measure 42
00010000
00100000
00010000
00100000
00000000
00100000
01000000
00000000
,  // measure 43
20000000
00000000
30000000
00000000
00020000
00000000
00030000
10000000
,  // measure 44
10000000
01000000
00010000
00001000
,  // measure 45
00100000
00001000
00010000
00000100
,  // measure 46
00000010
00000100
00000010
00000100
00000010
00000100
00000010
00000100
,  // measure 47
00002000
00003000
00000002
00000000
,  // measure 48
00000103
00000000
00000000
00000000
,  // measure 49
00000000
00000000
00000000
00000000
,  // measure 50
00000100
00000000
00000000
00000100
00000200
00000000
00000300
00000000
,  // measure 51
00000001
00000011
00001000
00001010
,  // measure 52
00000001
00000100
00000010
00000000
00001000
00000010
00010000
00000000
,  // measure 53
00001000
00001000
00100000
00000000
00010000
00010000
10000000
00000000
,  // measure 54
01000000
10000000
01000000
00000000
00010000
00000000
01000000
10000000
,  // measure 55
00100000
10100000
00010000
00110000
,  // measure 56
10000000
01000000
00100000
00000000
00010000
10000000
00100000
00000000
,  // measure 57
01000000
01000000
00001000
00000000
00010000
00010000
00000010
00000000
,  // measure 58
00001000
00001000
00000012
00000003
,  // measure 59
00001000
00000000
00000000
00000000
00000200
00000000
00000000
00000300
00000000
00000000
00010000
00000000
00001000
00000000
00010000
00000000
,  // measure 60
00000000
00000100
00000100
00000000
00010000
00001000
01000000
01000000
,  // measure 61
00001000
00011000
01000000
01010000
,  // measure 62
00001000
00011000
00000200
00001000
,  // measure 63
00010300
00001000
00010000
00001000
00000000
00100000
00010000
00100000
,  // measure 64
00001000
00010000
00001000
00010000
00000000
00000010
00001000
00000000
,  // measure 65
00001200
00010300
00012000
00103000
,  // measure 66
00010000
00000000
00100000
00000000
01000000
00000000
10000000
00000000
00010000
00000000
00000000
01000000
00000000
00000000
00010000
00000000
,  // measure 67
00100000
00000000
00000000
00000000
;

//---------------dance-double - Telperion----------------
#NOTES:
     dance-double:
     Telperion:
     Easy:
     4:
     0.275848,0.346534,0.034481,0.086202,0.000000,210.000000,4.000000,10.000000,0.000000,0.000000,0.000000,0.275848,0.346534,0.034481,0.086202,0.000000,210.000000,4.000000,10.000000,0.000000,0.000000,0.000000:
// measure 0
00010000
00100000
00001000
00000010
,  // measure 1
00010000
01000000
00001000
00000100
,  // measure 2
01000000
00001000
01000000
00000000
00000100
00010000
00000100
00000000
,  // measure 3
00010000
00001000
00010000
00000000
00000010
00000000
00020000
00030000
,  // measure 4
00001000
00000010
00010000
00100000
,  // measure 5
00001000
00000100
00010000
01000000
,  // measure 6
00000100
00010000
00000100
00000000
01000000
00001000
01000000
00000000
,  // measure 7
00001000
00001000
00100000
00010000
,  // measure 8
10000000
00100000
00010000
00100000
,  // measure 9
10000000
01000000
00010000
01000000
,  // measure 10
10000000
00100000
01000000
00010000
,  // measure 11
00100000
00001000
00010000
00010000
,  // measure 12
00000100
00000000
00000001
00000000
00000100
00000000
00001000
00000100
,  // measure 13
00001000
00000000
00000001
00000000
00000100
00000000
00001000
00000010
,  // measure 14
00001000
00000001
00000010
00000100
,  // measure 15
00010000
00001000
00010000
00001000
00010000
00000000
00000000
00000000
,  // measure 16
00011000
00000000
00100000
00000000
,  // measure 17
00001000
00000000
00000010
00000000
,  // measure 18
00010000
00000000
01000000
00000000
,  // measure 19
00001000
00000000
00000100
00000000
,  // measure 20
00020000
00001000
00000100
00000010
,  // measure 21
00032000
00010000
01000000
00100000
,  // measure 22
00013000
00010000
00001000
00001000
,  // measure 23
00100000
00010000
00100000
00010000
00100000
00000000
00000000
00000000
,  // measure 24
01000000
00000000
00000000
00000000
,  // measure 25
10000000
00000000
00000000
00000000
,  // measure 26
00010000
00000000
00000000
00000000
,  // measure 27
01000000
00000000
00000000
00000000
,  // measure 28
00001000
00000000
00001000
00000000
,  // measure 29
00010000
00000000
00010000
00000000
,  // measure 30
00000010
00000000
00000010
00000000
,  // measure 31
00001000
00000000
00000000
00000000
,  // measure 32
00000001
00000000
00000000
00000001
,  // measure 33
00000010
00000000
00000000
00000010
,  // measure 34
00001000
00000000
00000000
00001000
,  // measure 35
00010000
00010000
00010000
00000000
,  // measure 36
00001000
00000000
00000000
00001000
,  // measure 37
00010000
00000000
00000000
00010000
,  // measure 38
00100000
00000000
00000000
00100000
,  // measure 39
10000000
10000000
10000000
00000000
,  // measure 40
10010000
00000000
00000000
10000000
,  // measure 41
01000000
00000000
00000000
01000000
,  // measure 42
00010000
00000000
00000000
00010000
,  // measure 43
00002000
00003000
00001000
00000000
,  // measure 44
00010000
00001000
00010000
00001000
,  // measure 45
00010000
00000100
00010000
00000100
,  // measure 46
00001000
00000100
00001000
00000100
,  // measure 47
00000010
00000000
00000002
00000000
,  // measure 48
00000103
00000000
00000000
00000000
,  // measure 49
00000000
00000000
00000000
00000000
,  // measure 50
00020000
00000000
00030000
00000000
,  // measure 51
00001000
00000010
00010000
00100000
,  // measure 52
00001000
00000100
00010000
01000000
,  // measure 53
00000100
00010000
00000100
00000000
01000000
00001000
01000000
00000000
,  // measure 54
00001000
00010000
00001000
00000000
00100000
00000000
00002000
00003000
,  // measure 55
00010000
00100000
00001000
00000010
,  // measure 56
00010000
01000000
00001000
00000100
,  // measure 57
01000000
00001000
01000000
00000000
00000100
00010000
00000100
00000000
,  // measure 58
00010000
00010000
00000020
00000030
,  // measure 59
00001000
00000001
00000000
00001001
,  // measure 60
00000000
00000110
00000000
00001000
,  // measure 61
00000001
00001000
00000000
00001000
,  // measure 62
00000000
00000100
00001000
00000100
,  // measure 63
00010000
00010000
00000000
00001000
,  // measure 64
01000000
01000000
00000000
00010000
,  // measure 65
20000000
30000000
00020000
00030000
,  // measure 66
10000000
01000000
00100000
00010000
,  // measure 67
00001000
00000000
00000000
00000000
;

//---------------dance-single - Telperion----------------
#NOTES:
     dance-single:
     Telperion:
     Challenge:
     10:
     0.711786,0.773236,0.413772,0.120683,0.413772,516.000000,48.000000,14.000000,2.000000,0.000000,5.000000,0.711786,0.773236,0.413772,0.120683,0.413772,516.000000,48.000000,14.000000,2.000000,0.000000,5.000000:
1000
1000
0010
0100
0001
0001
0010
0100
,
1000
0100
1000
0000
0010
0000
1000
0000
0001
0100
0001
0000
0010
0000
0100
0000
,
1000
0100
1000
0100
0010
0000
0001
0000
1000
0001
1000
0001
0100
0000
0010
0000
,
0100
0010
0100
0010
1000
0000
0001
0000
0010
0000
0000
0000
0100
0000
0010
0000
,
0001
0001
0100
0010
1000
1000
0001
0010
,
0100
0010
0100
0000
1000
0000
0010
0000
0100
0010
0100
0000
0001
0000
1000
0000
,
0100
1000
0100
1000
0001
0000
0100
0000
0010
0100
0010
0100
0001
0000
1000
0000
,
0010
0000
0000
0000
0000
0000
0000
0000
0000
1000
0000
0000
0001
0000
0000
0000
0000
0000
0000
0000
0000
0000
0000
0000
0010
0000
0000
0001
0000
0000
1000
0000
0001
0000
1000
0000
0010
0000
0000
1000
0000
0000
0010
0000
0000
0000
0000
0000
,
0200
0000
0001
0010
0300
0001
0001
0000
,
1200
0000
0010
1000
0300
1000
1000
0000
,
0012
0000
1000
0100
0003
1000
1000
0000
,
0020
0000
0100
0000
1000
0000
0030
0000
1010
0000
0000
0011
0000
0000
1000
0000
,
0001
0000
0001
0010
0001
0000
1000
0000
0001
0010
0001
0000
1000
0000
1000
0000
,
0010
0000
1000
0001
1000
0000
0010
0000
1000
0001
1000
0000
0010
1000
0010
0100
,
0004
0000
1003
0100
0120
0000
0031
1000
,
1010
0000
0400
0000
0301
0000
0040
0000
0130
0000
1000
0001
1000
0000
0100
0000
,
0010
0000
0100
0010
0100
0000
1000
0000
0001
0000
1000
0000
0000
0000
0010
0000
,
0100
0000
0002
0100
0000
0000
1003
0000
0001
0000
1000
0000
0000
0000
0100
1000
,
0100
0000
0020
0001
0000
0000
0130
0000
1000
0000
0001
0000
0000
0000
0100
0000
,
0001
0020
0030
0100
0100
2000
3000
0001
,
0100
0000
0001
1000
0001
0000
0100
0000
0010
0000
0010
0000
1000
0000
0001
0000
,
0010
0100
0010
0001
1000
0000
0001
0000
0100
0000
0100
0000
0010
0000
0100
0001
,
0100
0010
1000
0010
0100
0000
0001
0000
0010
0000
0010
0000
0100
0000
1000
0000
,
0001
1000
0001
1000
0100
1000
0100
1000
0001
0000
0100
0000
0002
0003
0000
0000
,
10MM
0000
0000
0010
0000
0000
0100
0000
0000
0001
0000
0000
1000
0000
0001
0000
,
0010
0000
0000
0100
0000
0000
0010
0000
0000
0001
0000
0000
1000
0000
0100
0000
,
0001
0000
0000
0100
0000
0000
1000
0000
0000
0001
0000
0000
0100
0000
0010
0000
,
0001
0000
0010
0000
0000
1000
0000
0000
0001
0000
0000
0010
0000
0000
0100
0000
,
1000
0000
0000
0001
1000
0000
0100
0000
1000
0001
0000
0000
1000
0000
0010
0000
,
0100
0000
0000
0100
0001
0000
1000
0000
0001
0100
0000
0000
0001
0000
0010
0000
,
0100
1000
0100
1000
0100
0010
0001
1000
,
0020
0000
0100
0000
0000
1000
0000
0000
0031
0000
0000
0010
0000
0000
1000
0000
,
0001
0000
0010
0011
0000
1000
0010
1000
,
1010
0000
0010
0110
0000
0100
0001
0100
,
0101
0000
0001
1001
0000
1000
0100
1000
,
0001
0010
0010
0010
0010
0000
0110
0000
,
1100
0000
0001
1001
0000
0100
0001
0100
,
0110
0000
0010
1010
0000
1000
0001
0010
,
0011
0000
0001
1001
0000
1000
0001
0100
,
0010
0010
0010
0010
0010
0000
0110
0000
,
1001
0000
0001
0011
0000
1000
0010
0100
,
0101
0001
1000
1001
0000
0001
0010
0000
,
0110
0100
1000
1001
0000
0001
0100
0000
,
0001
1000
0001
1000
0001
0000
0100
0000
1000
0000
0000
0100
0000
0000
0001
0000
,
1000
1100
1001
1100
,
1001
0101
1001
0011
,
1001
1000
1010
0010
0110
0100
0101
0001
,
1000
0100
1000
0100
0010
0000
0001
0000
0010
0001
0010
0001
1000
0001
1000
0001
,
0200
0000
0000
0000
,
0000
0000
0300
0000
,
0010
0000
0000
0000
0000
0000
0010
0000
0020
0000
0000
0000
1030
0000
0001
1000
,
0100
0100
0010
0001
0100
0100
0010
1000
,
0001
0010
0001
0000
1000
0000
0010
0000
1000
0100
1000
0000
0001
0000
0100
0000
,
0001
1000
0100
1000
0001
0000
0100
0000
0001
1000
0010
1000
0001
0000
0010
0000
,
0100
0010
0100
0010
0001
0000
0010
0000
1000
0000
0010
0000
0100
0000
0100
0000
,
1000
1000
0010
0100
0001
0001
0010
0100
,
1000
0010
1000
0000
0001
0000
0010
0000
0001
0100
0001
0000
1000
0000
0100
0000
,
0010
0100
0010
0100
1000
0000
0001
0000
0100
0010
0100
0010
1000
0000
0001
0000
,
0010
0000
0000
0000
0000
0000
0000
0000
0000
0010
0000
0000
0100
0000
0000
0000
0000
0000
0000
0000
0000
0000
0000
0000
1000
0000
0000
0001
0000
0000
1000
0000
0100
0000
1000
0000
0001
0000
0000
1000
0000
0000
0100
0000
0000
0000
0000
0000
,
0010
0000
0000
0000
0001
0010
0100
1000
0000
0000
1100
0000
1001
0000
0001
0000
,
0000
0000
0101
0000
1001
0000
0000
0000
1000
0000
1000
0000
0010
0100
0010
1000
,
0000
0000
0011
0000
1000
0001
1010
0000
,
0001
0000
1000
0000
0101
0000
0000
0000
0110
0000
0000
0101
0000
0000
1100
0000
,
0001
1000
0100
0010
0000
0001
0100
0010
,
1010
0000
0010
0000
0100
0000
0001
0000
0000
0000
1000
0100
1000
0001
0100
0000
,
0010
0100
0010
1000
0001
0000
0000
0000
0010
0100
0010
0001
1000
0000
0000
0000
,
0010
0000
0400
0000
0301
0000
0040
0000
0130
0000
1000
0010
0000
0000
0110
0000
,
0002
0000
0000
0000
,
0000
0000
0000
0000
,
0003
0000
0000
0000
;

//---------------dance-double - Telperion----------------
#NOTES:
     dance-double:
     Telperion:
     Challenge:
     10:
     0.660064,0.654276,0.241367,0.137924,0.379291,492.000000,28.000000,16.000000,2.000000,0.000000,6.000000,0.660064,0.654276,0.241367,0.137924,0.379291,492.000000,28.000000,16.000000,2.000000,0.000000,6.000000:
// measure 0
00010000
00010000
00000010
00010000
00001000
00001000
00100000
00001000
,  // measure 1
00010000
00001000
00010000
00000000
00000010
00000000
00010000
00000000
00001000
00010000
00001000
00000000
00100000
00000000
00010000
00000000
,  // measure 2
10000000
00100000
10000000
00100000
01000000
00000000
00001000
00000000
00010000
00000100
00010000
00000100
00001000
00000000
00000001
00000000
,  // measure 3
00000010
00000100
00000010
00000100
00001000
00000000
00000001
00000000
00000010
00000000
00000000
00000000
00000100
00000000
00010000
00000000
,  // measure 4
00001000
00001000
00100000
00000100
00010000
00010000
00000010
01000000
,  // measure 5
00001000
00010000
00001000
00000000
00100000
00000000
00000100
00000000
00010000
00001000
00010000
00000000
00000010
00000000
00001000
00000000
,  // measure 6
00000001
00000010
00000001
00000010
00000100
00000000
00010000
00000000
00001000
01000000
00001000
01000000
00010000
00000000
10000000
00000000
,  // measure 7
00100000
00000000
00000000
10000000
00010000
00000000
00000000
00000000
01000000
00001000
00040000
00000000
00031000
01000000
00010000
00000000
,  // measure 8
10000000
00000000
11000000
00010000
00000000
00100000
00100000
00000000
,  // measure 9
00001000
00000000
00011000
00000010
00000000
00010000
00010000
00000000
,  // measure 10
00000100
00000000
00001100
00000001
00000000
00000100
00000100
00000000
,  // measure 11
00000000
00000000
00000010
00000000
00001010
00000000
00000000
00000000
00010000
00000000
00000000
00001000
00000000
00000000
00010000
00000000
,  // measure 12
00000100
00000000
00001000
00000100
00010000
00000000
00001000
00000000
01000000
00010000
01000000
00000000
00100000
00000000
10000000
00000000
,  // measure 13
10000000
00000000
00010000
00100000
00001000
00000000
00010000
00000000
00000010
00001000
00000010
00000000
00000100
00000010
00000100
00000010
,  // measure 14
00000200
00000000
00000301
00000100
00002000
00000000
00013000
00100000
,  // measure 15
10000000
00000000
04000000
00000000
03010000
00000000
00004000
00000000
00003010
00000000
00000000
00000001
00000000
00000000
00000010
00000000
,  // measure 16
00000100
00000000
00001000
00000001
00000000
00000000
00001000
00000000
00000100
00000000
00010000
00000000
00000000
00000000
00001000
00000000
,  // measure 17
01000000
00000000
01000000
00010000
00000000
00000000
00100000
00000000
00010000
00000000
10000000
00000000
00000000
00000000
01000000
10000000
,  // measure 18
01000000
00000000
10000000
00010000
00000000
00000000
00010000
00000000
01000000
00000000
00001000
00000000
00000000
00000000
00100000
00000000
,  // measure 19
00000010
00020000
00030000
00001000
00001000
02000000
03000000
00010000
,  // measure 20
00100000
00000000
00000000
00010000
10000000
00000000
00010000
00000000
01000000
00000000
00001000
00000000
00000000
00000000
00010000
00000000
,  // measure 21
00000010
00001000
00000010
00010000
00000000
00000000
00000010
00000000
00001000
00000000
00000001
00000000
00000000
00000000
00000010
00000000
,  // measure 22
00000100
00001000
00000100
00001000
00000001
00000000
00000100
00000000
00000010
00000100
00000010
00000100
00000001
00000000
00001000
00000000
,  // measure 23
00000100
00010000
00000100
00010000
00000100
00010000
00000100
00010000
00001000
00000000
00000000
00000000
00000000
00000000
00000000
00000000
,  // measure 24
001MM010
00000000
00000000
00010000
00000000
00000000
00001000
00000000
00000000
01000000
00000000
00000000
00010000
00000000
00100000
00000000
,  // measure 25
01000000
00000000
00000000
10000000
00000000
00000000
00010000
00000000
00000000
01000000
00000000
00000000
00100000
00000000
00010000
00000000
,  // measure 26
00001000
00000000
00000000
00000010
00000000
00000000
00000100
00000000
00000000
00001000
00000000
00000000
00000001
00000000
00000100
00000000
,  // measure 27
00000010
00000000
00000100
00000000
00000000
00000001
00000000
00000000
00000100
00000000
00000000
00001000
00000000
00000000
00010000
00000000
,  // measure 28
00001000
00100000
00010000
10000000
,  // measure 29
00100000
00010000
00001000
01000000
,  // measure 30
00100000
10000000
00010000
01000000
00001000
00010000
00000100
00001000
,  // measure 31
00000001
00000000
00000010
00000000
00000000
00001000
00000000
00000000
00010000
00000000
00000000
01000000
00000000
00000000
10000000
00000000
,  // measure 32
00200000
00000000
01300000
01010000
00000000
10000000
00100000
01000000
,  // measure 33
00002000
00000000
00013000
00011000
00000000
00100000
00001000
00010000
,  // measure 34
00000200
00000000
00001300
00001100
00000000
00000001
00000010
00000001
,  // measure 35
00001000
00001000
00001000
00001000
00001000
00000000
00000010
00000000
,  // measure 36
00000201
00000000
00000310
00000110
00000000
00000001
00001000
00000100
,  // measure 37
00020000
00000000
00031000
00011000
00000000
00000010
00010000
00001000
,  // measure 38
02000000
00000000
03010000
01010000
00000000
10000000
00010000
01000000
,  // measure 39
00010000
00010000
00010000
00010000
00010000
00000000
10000000
00000000
,  // measure 40
01000000
01000000
10000000
11000000
00000000
01000000
00100000
00000000
,  // measure 41
00001000
00001000
00010000
00011000
00000000
00001000
00000100
00000000
,  // measure 42
00000010
00000010
00001000
00001001
00000000
00000001
00000010
00000000
,  // measure 43
00000100
00001000
00000100
00001000
00000100
00000000
00000010
00000000
00000001
00000000
00000000
00001000
00000000
00000000
00000100
00000000
,  // measure 44
00010000
00000000
00010100
00000000
01001000
00000000
00010100
00010000
,  // measure 45
00001000
00000000
00101000
00000000
00010010
00000000
00101000
00001000
,  // measure 46
00010000
00000100
00001000
00000010
00010000
00001000
00100000
00010000
,  // measure 47
01000000
00010000
01000000
00010000
01000000
00000000
00100000
00000000
10000000
00010000
10000000
00010000
00100000
00010000
00100000
01000000
,  // measure 48
20000000
00000000
00000000
00000000
,  // measure 49
00000000
00000000
30000000
00000000
,  // measure 50
00010000
00000000
00000000
00010000
00020000
00000000
00030000
00000000
,  // measure 51
10000000
10000000
01000000
00010000
10000000
10000000
00100000
00010000
,  // measure 52
10000000
01000000
10000000
00000000
00010000
00000000
00100000
00000000
01000000
00010000
01000000
00000000
00100000
00000000
00001000
00000000
,  // measure 53
00010000
00001000
00010000
00001000
00100000
00000000
00010000
00000000
10000000
01000000
10000000
01000000
00100000
00000000
00001000
00000000
,  // measure 54
00010000
00001000
00010000
00001000
00010000
00000000
00000100
00000000
00000010
00000000
00000000
00000000
00000100
00000000
00001000
00000000
,  // measure 55
00000001
00000001
00000100
00001000
00000001
00000001
00000010
00001000
,  // measure 56
00000001
00000100
00000001
00000000
00001000
00000000
00000010
00000000
00000100
00001000
00000100
00000000
00000010
00000000
00010000
00000000
,  // measure 57
00001000
01000000
00001000
01000000
00010000
00000000
00100000
00000000
00001000
00010000
00001000
00010000
00000010
00000000
00001000
00000000
,  // measure 58
00000001
00000000
00000000
00000001
00000010
00000000
00000000
00000000
00000100
00010000
00004000
00000000
00013000
00000100
00002000
00000000
,  // measure 59
00003000
00000000
00000000
00000000
00000001
00000010
00000100
00001000
00000000
00000000
00001100
00000000
00001100
00000000
00000100
00000000
,  // measure 60
00000000
00000000
00011000
00000000
00011000
00000000
00000000
00000000
01000000
00000000
01000000
00000000
00010000
01000000
00010000
01000000
,  // measure 61
00001000
00000000
00101000
00100000
00000000
00000010
00010010
00000000
,  // measure 62
00001000
00000000
00000100
00000000
00001100
00000000
00000000
00000000
00020000
00000000
00000000
00032000
00000000
00000000
00103000
00000000
,  // measure 63
10000000
00100000
00010000
01000000
00000000
10000000
01000000
00100000
,  // measure 64
00010000
00000000
00001000
00000000
00000010
00000000
00000001
00000000
00000000
00000000
00000010
00000100
00000010
00000100
00001000
00000000
,  // measure 65
00000100
00010000
00001000
00010000
00000100
00000000
00000000
00000000
01000000
00001000
00010000
00001000
01000000
00000000
00000000
00000000
,  // measure 66
00010000
00000000
40000000
00000000
30100000
00000000
00040000
00000000
00031000
00000000
00000000
00000100
00000000
00000000
00000001
00000000
,  // measure 67
00000020
00000000
00000000
00000000
,  // measure 68
00000000
00000000
00000000
00000000
,  // measure 69
00000030
00000000
00000000
00000000
;
