#TITLE:electro peaceful;
#SUBTITLE:;
#ARTIST:Mr.T;
#TITLETRANSLIT:;
#SUBTITLETRANSLIT:;
#ARTISTTRANSLIT:;
#GENRE:;
#CREDIT:;
#BANNER:electro peaceful.png;
#BACKGROUND:electro peaceful-bg.png;
#JACKET:electro peaceful-jacket.png;
#LYRICSPATH:;
#CDTITLE:;
#MUSIC:electro peaceful.mp3;
#OFFSET:-0.430;
#SAMPLESTART:60.180;
#SAMPLELENGTH:18.820;
#SELECTABLE:YES;
#BPMS:0.000=160.000
;
#STOPS:
;
#BGCHANGES:;
#KEYSOUNDS:;
#ATTACKS:;

//---------------dance-double - ----------------
#NOTES:
     dance-double:
     :
     Hard:
     9:
     0.728,0.750,0.531,0.335,0.441,518.000,65.000,41.000,0.000,0.000,0.000,0.728,0.750,0.531,0.335,0.441,518.000,65.000,41.000,0.000,0.000,0.000:
00000000
00000000
00000000
00000000
,
00000000
00000000
00000000
00000000
,
00000000
00000000
00000000
00000000
,
00000000
00000000
00000000
00000000
,
21000000
00010000
00000000
30010000
,
02000000
00001000
00000000
03001000
,
00010000
00001000
00000010
00000001
00000100
00001000
00010000
00100000
,
10000000
01000000
00010000
00001000
00000100
00000001
00000010
00000100
,
00001000
00002010
00003100
00000012
,
00000103
00002100
00003010
00000102
,
00000103
00002100
00003001
00020100
,
00031000
00201000
00310000
20100000
,
31000000
01020000
00130000
21000000
,
30100000
00120000
01030000
10100000
,
10000000
01000000
10000000
00000000
00100000
00000000
01000000
00000000
00010000
00100000
00010000
00000000
00100000
00000000
00001000
00000000
,
00010000
00001000
00010000
00000000
00000100
00001000
00000000
00001000
00000010
00000000
00000100
00000001
00001000
00000000
00000001
00000000
,
00001001
00000000
00000000
00000001
00000100
00000000
00000010
00000000
00001000
00000000
00000000
00001000
00000100
00000000
00010000
00000000
,
00001000
00000000
00000000
00001000
00100000
00000000
00010000
00000000
10000000
00000000
00000000
10000000
01000000
00000000
00100000
00000000
,
00010000
00000000
00000000
00010000
01000000
00000000
00010000
00000000
00200000
00000000
00000000
00000000
00301000
00000000
00000000
00000000
,
00020000
00030100
00002000
00003010
,
00000100
00000000
00000000
00000100
00000001
00000000
00000010
00000000
00000100
00000000
00000000
00000100
00001000
00000000
00000010
00000000
,
00001000
00000000
00000000
00001000
00000100
00000000
00010000
00000000
00001000
00000000
00000000
00001000
00100000
00000000
00010000
00000000
,
01000000
00000000
00000000
01000000
00100000
00000000
10000000
00000000
00020000
00000000
00000000
00000000
01030000
00000000
00000000
00000000
,
00200000
00000000
10300000
00000000
02000000
00000000
03010000
00001000
,
00000010
00000000
00000000
00000010
00000001
00000000
00000100
00000000
00000010
00000000
00000000
00000010
00001000
00000000
00000100
00000000
,
00010000
00000000
00000000
00010000
00001000
00000000
01000000
00000000
00100000
00000000
00000000
00100000
10000000
00000000
01000000
00000000
,
00010000
00000000
00000000
00010000
00001000
00000000
00000010
00000000
00000002
00000000
00000000
00000000
00000103
00000000
00000000
00000000
,
00002000
00000000
00013000
00000000
00200000
00000000
10300000
00010000
,
10000000
00000000
00000000
10000000
01000000
00000000
00010000
00000000
01000000
00000000
00000000
01000000
00100000
00000000
00010000
00000000
,
00100000
00000000
00000000
00100000
00001000
00000000
00010000
00000000
00000100
00000000
00000000
00000100
00001000
00000000
00000010
00000000
,
00000001
00000010
00001000
00000010
00000100
00000001
00000100
00001000
,
00010000
00100000
00010000
00000000
00100000
00000000
10000000
00000000
00010000
10000000
00010000
00000000
10000000
00000000
00100000
01000000
,
00100000
00000000
00000000
00100000
00000000
00000000
10000000
00000000
01000000
00000000
00000000
01000000
00000000
00000000
00010000
00000000
,
00001000
00000000
00000000
00001000
00000000
00000000
00000010
00000000
00000002
00000000
00000000
00000000
00001003
00000000
00000010
00000100
,
00000010
00000000
00000000
00000010
00000000
00000000
00000100
00000000
00000001
00000000
00000000
00000001
00000000
00000000
00001000
00000000
,
00001100
00011000
00110000
10100000
,
20010000
00000000
00000000
00000000
31000000
00000000
10000000
00100000
02000000
00000000
00000000
00000000
03010000
00000000
00000000
00000000
,
00200000
00000000
00000000
00000000
00301000
00000000
00010000
00000000
00000100
00000000
00000000
00001000
00000000
00000000
00000010
00000000
,
00000100
00000000
00000001
00000000
00000010
00000000
00001000
00000000
00010000
00001000
00010000
00000000
00100000
00000000
10000000
00000000
,
01010000
00000000
00000000
10100000
00000000
00000000
11000000
00000000
00120000
00000000
00000000
00000000
10030000
00000000
00010000
01000000
,
00010000
00000000
00000000
01010000
00000000
00000000
01000000
00100000
01000000
00000000
00000000
01100000
00000000
00000000
00100000
10000000
,
00100000
00000000
00000000
10100000
00000000
00000000
10000000
00000000
00020000
00000000
00000000
00000000
01030000
00000000
00010000
00100000
,
00010000
00000000
00000000
00110000
00000000
00000000
00010000
00000000
01000000
00000000
00000000
01010000
00000000
00000000
00100000
00000000
,
00001000
00000000
00000000
00011000
00000000
00000000
00010000
00000000
00000200
00000000
00000000
00000000
00001300
00000000
00000010
00001000
,
00000010
00000000
00000000
00001010
00000000
00000000
00000010
00000100
00000010
00000000
00000000
00000110
00000000
00000000
00000100
00000000
,
00000001
00000000
00000000
00000010
00000000
00000000
00000100
00000000
00002000
00000000
00000000
00000000
00003100
00000000
00010000
00001000
,
00010000
00000000
00000000
00101000
00000000
00000000
00100000
00000000
00001000
00000000
00000000
01001000
00000000
00000000
01000000
00000000
,
00010000
00000000
00100000
00000000
10000000
00000000
01000000
00000000
00010000
10000000
00010000
00000000
01000000
00000000
00010000
10000000
,
00100000
00000000
00000000
10100000
00000000
00000000
00100000
10000000
01000000
00000000
00000000
11000000
00000000
00000000
10000000
01000000
,
00100000
00000000
00000000
00110000
00000000
00000000
00010000
00000000
02000000
00000000
00000000
00000000
03001000
00000000
00100000
00001000
,
00010000
00000000
00000000
00011000
00000000
00000000
00001000
00000000
00010000
00000000
00000000
00010100
00000000
00000000
00000100
00000000
,
00001000
00000000
00000000
00001010
00000000
00000000
00000010
00000000
00000200
00000000
00000000
00000000
00000301
00000000
00001000
00000010
,
00000100
00000000
00000000
00001010
00000000
00000000
00000100
00000000
00000010
00000000
00000000
00000101
00000000
00000000
00000001
00000000
,
00001000
00000000
00000000
00010100
00000000
00000000
00001000
00000000
00200000
00000000
00000000
00000000
00310000
00000000
00000000
00000000
,
10000000
00000000
00000000
01010000
00000000
00000000
00100000
00000000
00001000
00000000
00000000
00010100
00000000
00000000
00001000
00000000
,
00010000
00000000
00000100
00000000
00001000
00000000
00000010
00000000
00000100
00000001
00000100
00000000
00000010
00001000
00000010
00000000
,
00000000
00001000
00000100
00000000
00000000
00000100
00010000
00000000
00000000
00010000
00001000
00000000
00100000
00000000
00010000
00000000
,
00110000
00000000
00000000
00010000
01000000
00000000
00100000
00000000
10000000
00000000
00000000
10000000
01000000
00000000
00100000
00000000
,
00110000
00000000
00110000
00000000
00000000
00000000
00010000
00000000
01000000
00000000
00000000
01000000
00010000
00000000
00100000
00000000
,
00101000
00101000
00101000
00001000
00020000
00000000
00030100
00000000
,
00002010
00003100
00000012
00000103
,
00001001
00000000
00000000
00000001
00000100
00000000
00000010
00000000
00001000
00000000
00000000
00001000
00000100
00000000
00010000
00000000
,
00011000
00000000
00011000
00000000
00000000
00000000
00001000
00000000
00100000
00000000
00000000
00100000
00010000
00000000
10000000
00000000
,
10100000
10100000
10100000
00100000
02000000
00000000
03010000
00000000
,
10000000
00000000
01000000
00000000
00010000
00000000
00001000
00000000
00000100
00000001
00000100
00000000
00000001
00000000
00000010
00000000
,
00000011
00000000
00000000
00000010
00000001
00000000
00000100
00000000
00000010
00000000
00000000
00000010
00001000
00000000
00000100
00000000
,
00010000
00000000
00000000
00010000
00001000
00000000
01000000
00000000
00100000
00000000
00000000
00100000
10000000
00000000
01000000
00000000
,
00010000
00000000
00000000
00010000
00001000
00000000
00000010
00000000
00000002
00000000
00000000
00000000
00000103
00000000
00000000
00000000
,
00002000
00000000
00013000
00000000
00200000
00000000
10300000
00010000
,
10000000
00000000
00000000
10000000
01000000
00000000
00010000
00000000
01000000
00000000
00000000
01000000
00100000
00000000
00010000
00000000
,
00100000
00000000
00000000
00100000
00001000
00000000
00010000
00000000
00000100
00000000
00000000
00000100
00001000
00000000
00000010
00000000
,
00001000
00000100
00001000
00000000
00000010
00000000
00000100
00000001
00000100
00000000
00000010
00000000
00001000
00000001
00001000
00000000
,
00000001
00000100
00000001
00000000
00000100
00000000
00001000
00010000
00001000
00000000
00010000
00000000
00100000
00000000
10000000
00000000
,
10100000
10010000
00000000
00000000
00100000
00001000
00011000
00000000
,
00001100
00000000
00000100
00000000
00000110
00000000
00000010
00000000
00001010
00000000
00000000
00000001
00000010
00000000
00000100
00000000
,
00001000
00000010
00000001
00000010
00000100
00000001
00000100
00001000
,
00010000
00100000
10000000
01000000
00010000
01000000
10000000
00010000
,
00000000
10000000
00100000
10000000
00100000
01000000
00010000
01000000
00010000
00100000
00001000
00100000
00001000
00010000
00000100
00010000
,
00000200
00000000
00000000
00000000
,
00000000
00000000
00000000
00000000
00000000
00000000
00000000
00000300
;

//---------------dance-double - Blank----------------
#NOTES:
     dance-double:
     :
     Easy:
     4:
     0.341,0.293,0.082,0.155,0.000,263.000,10.000,19.000,0.000,0.000,0.000,0.341,0.293,0.082,0.155,0.000,263.000,10.000,19.000,0.000,0.000,0.000:
00000000
00000000
00000000
00000000
,
00000000
00000000
00000000
00000000
,
00000000
00000000
00000000
00000000
,
00000000
00000000
00000000
00000000
,
10000000
01000000
00000000
01000000
,
00100000
00010000
00000000
00010000
,
00100000
00001000
00010000
00000100
,
00001000
00000010
00000100
00000001
,
00001000
00001000
00000100
00000100
,
00000010
00000010
00000001
00000001
,
00001000
00001000
00000010
00000010
,
00000100
00000100
00000001
00000001
,
00001000
00001000
00000100
00000100
,
00010000
00010000
00001000
00001000
,
00100000
00100000
00010000
00010000
,
10000000
10000000
00010000
10010000
,
10000000
10000000
00100000
00100000
,
01000000
01000000
00010000
00010000
,
00100000
00100000
00001000
00000000
,
00020000
00030000
00000200
00000300
,
00001000
00001000
00000010
00000010
,
00000100
00000100
00000001
00000001
,
00001000
00001000
00000100
00000000
,
00000020
00000030
00000002
00001003
,
00000100
00000100
00000010
00000010
,
00000001
00000001
00000100
00000100
,
00001000
00001000
00010000
00000000
,
00200000
00300000
20000000
30000000
,
01000000
01000000
00100000
00100000
,
00010000
00010000
00100000
00100000
,
00001000
00010000
00000100
00001000
,
00000010
00000100
00000001
00000010
,
00000100
00000100
00001000
00001000
,
00000010
00000010
00020000
00030000
,
00001000
00001000
00100000
00100000
,
00010000
01000000
00100000
10000000
,
00020000
00030000
02000000
03000000
,
00200000
00300000
10000000
00010000
,
10000000
01000000
00010000
00001000
,
00000010
00000001
00001000
00001001
,
00000001
00000001
00000100
00000100
,
00000010
00001000
00000200
00000300
,
00001000
00000100
00010000
00001000
,
00100000
00010000
20000000
30000000
,
01000000
10000000
00100000
01000000
,
00010000
00100000
00002000
00003000
,
00010000
00000100
00001000
00000010
,
00000100
00000001
00001000
00001001
,
00000001
00000100
00001000
00010000
,
00100000
10000000
00020000
00030000
,
10000000
01000000
00010000
00001000
,
00000010
00000001
00002000
00003000
,
00000001
00000100
00001000
00000100
,
00000001
00000010
00001000
00000010
,
00000001
00000100
00001000
00010000
,
00100000
10000000
00010000
10000000
,
01000000
01000000
00100000
00100000
,
00110000
00000000
01000000
00000000
,
00100000
00100000
10000000
00000000
,
00010000
00010000
00100000
00000000
,
00011000
00000000
00001100
00000000
,
00000011
00000000
00000001
00000000
,
00001000
00001000
00000010
00000000
,
00000100
00000100
00000001
00000000
,
00001100
00000000
00011000
00000000
,
00010000
00010000
00100000
00100000
,
10000000
10000000
01000000
01000000
,
00010000
00010000
00001000
00000000
,
00000200
00000300
00000002
00000003
,
00001000
00001000
00000100
00000100
,
00000010
00000010
00000001
00000001
,
00000100
00001000
00010000
00100000
,
10000000
01000000
00010000
00001000
,
00000010
00000010
00000001
00000001
,
00001000
00001000
00000100
00000100
,
00010000
00001000
00100000
00010000
,
10000000
01000000
10000000
00100000
,
10000000
01000000
00100000
00010000
,
20020000
00000000
00000000
00000000
,
00000000
00000000
00000000
00000000
00000000
00000000
00000000
30030000
;

//---------------dance-double - Blank----------------
#NOTES:
     dance-double:
     :
     Medium:
     6:
     0.534,0.522,0.408,0.220,0.012,381.000,50.000,27.000,0.000,0.000,0.000,0.534,0.522,0.408,0.220,0.012,381.000,50.000,27.000,0.000,0.000,0.000: // measure 0
00000000
00000000
00000000
00000000
,  // measure 1
00000000
00000000
00000000
00000000
,  // measure 2
00000000
00000000
00000000
00000000
,  // measure 3
00000000
00000000
00000000
00000000
,  // measure 4
12000000
00100000
00000000
03100000
,  // measure 5
00020000
00100000
00000000
00130000
,  // measure 6
00001000
00100000
00001000
00000000
00010000
00000100
00010000
00000000
,  // measure 7
00000010
00001000
00000010
00000000
00000100
00000001
00000100
00000001
,  // measure 8
00001000
00001100
00001000
00001100
,  // measure 9
00000001
00000101
00000001
00000101
,  // measure 10
00001000
00001010
00001000
00001010
,  // measure 11
00000001
00001001
00001000
00011000
,  // measure 12
00010000
00110000
00010000
00110000
,  // measure 13
10000000
10100000
10000000
10100000
,  // measure 14
10000000
01000000
10000000
00000000
00010000
01000000
00010000
00000000
,  // measure 15
10000000
00100000
01000000
00010000
00100000
00001000
00010000
00000100
,  // measure 16
00001000
00000000
00001000
00000100
00010000
00000000
00010000
00001000
,  // measure 17
00100000
00000000
00100000
00010000
10000000
00000000
10000000
00100000
,  // measure 18
01000000
00000000
01000000
00010000
00200000
00000000
00310000
00000000
,  // measure 19
20000000
31000000
20000000
30100000
,  // measure 20
10000000
00000000
10000000
00100000
01000000
00000000
01000000
00010000
,  // measure 21
00100000
00000000
00100000
00001000
00010000
00000000
00010000
00000100
,  // measure 22
00001000
00000000
00001000
00000010
00000200
00000000
00000301
00000000
,  // measure 23
00002000
00000000
00003100
00000000
00000020
00000000
00000031
00001000
,  // measure 24
00000001
00000000
00000001
00000100
00001000
00000000
00001000
00010000
,  // measure 25
00100000
00000000
00100000
10000000
00010000
00000000
00010000
00001000
,  // measure 26
00000100
00000000
00000100
00000001
00002000
00000000
00003100
00000000
,  // measure 27
00000020
00000000
00000031
00000000
00002000
00000000
00003010
00000100
,  // measure 28
00000001
00000000
00000001
00000100
00001000
00000000
00001000
00010000
,  // measure 29
00100000
00000000
00100000
10000000
01000000
00000000
01000000
00010000
,  // measure 30
00001000
00000010
00001000
00000000
00000010
00000001
00000010
00000000
,  // measure 31
00000001
00000100
00000001
00000000
00000100
00001000
00000100
00001000
,  // measure 32
00010000
00010000
00100000
00100000
,  // measure 33
10000000
00000000
00000000
01000000
00000000
00000000
00100000
00000000
00020000
00000000
00000000
00000000
01030000
00000000
00000000
00000000
,  // measure 34
00001000
00001000
00010000
00010000
,  // measure 35
00001100
00001100
00000101
00000101
,  // measure 36
00001002
00000100
00000013
00000001
,  // measure 37
00002000
00000010
00003100
00001000
,  // measure 38
00000001
00000100
00001000
00000000
00010000
00100000
10000000
00000000
,  // measure 39
00010000
00000000
00000000
00100000
00000000
00000000
01000000
00000000
10000000
00000000
00000000
00000000
10010000
00000000
00000000
00000000
,  // measure 40
10000000
00000000
10000000
01000000
00010000
00000000
00010000
01000000
,  // measure 41
10000000
00000000
10000000
00100000
00010000
00000000
00011000
00000000
,  // measure 42
00001000
00000000
00001000
00000100
00000001
00000000
00000001
00000100
,  // measure 43
00001000
00000000
00001000
00010000
00100000
00000000
10010000
00000000
,  // measure 44
10000000
00000000
10000000
01000000
00010000
00000000
00001000
00000100
,  // measure 45
00000001
00000000
00000001
00000010
00001000
00000000
00011000
00000000
,  // measure 46
00010000
00000000
00100000
10000000
01000000
00000000
00100000
00010000
,  // measure 47
01000000
00100000
10000000
01000000
00100000
00010000
00100000
00001000
,  // measure 48
00010000
00000000
00000010
00001000
00000100
00000000
00000010
00000001
,  // measure 49
00000100
00000000
00001000
00010000
00100000
00000000
10010000
00000000
,  // measure 50
10000000
00000000
00100000
01000000
00010000
00000000
00100000
10000000
,  // measure 51
01000000
00000000
10000000
01000000
00010000
00000000
00011000
00000000
,  // measure 52
00000010
00000000
00000001
00000100
00001000
00000000
00000001
00000010
,  // measure 53
00001000
00000000
00000100
00010000
00001000
00000000
00011000
00000000
,  // measure 54
00001000
00100000
00010000
01000000
00100000
10000000
01000000
00100000
,  // measure 55
00010000
00010000
00100000
00100000
00001000
00001000
00010000
00010000
,  // measure 56
00000000
00010100
00000000
00001100
00000000
00001010
00000000
00000101
,  // measure 57
00001001
00000000
00000000
00000000
,  // measure 58
00001100
00001100
00000000
00000000
00000000
00000000
00000000
00000000
,  // measure 59
00011000
00011000
00011000
00000000
00000000
00000000
00000000
00000000
,  // measure 60
20200000
30300000
02020000
03030000
,  // measure 61
10010000
00000000
00000000
00000000
,  // measure 62
01010000
01010000
00000000
00000000
00000000
00000000
00000000
00000000
,  // measure 63
00011000
00011000
00011000
00000000
00000000
00000000
00000000
00000000
,  // measure 64
00000022
00000033
00002200
00003300
,  // measure 65
00000001
00000000
00000001
00000100
00001000
00000000
00001000
00010000
,  // measure 66
00100000
00000000
00100000
10000000
00010000
00000000
00010000
00001000
,  // measure 67
00000100
00000000
00000100
00000001
00002000
00000000
00003100
00000000
,  // measure 68
00000020
00000000
00000031
00000000
00002000
00000000
00003010
00000100
,  // measure 69
00000001
00000000
00000001
00000100
00001000
00000000
00001000
00010000
,  // measure 70
00100000
00000000
00100000
10000000
01000000
00000000
01000000
00010000
,  // measure 71
00001000
00000010
00001000
00000000
00000010
00000001
00000010
00000000
,  // measure 72
00000001
00000100
00000001
00000000
00000100
00001000
00000100
00001000
,  // measure 73
00011000
00011000
00000000
00000000
00100000
00010000
01000000
00000000
,  // measure 74
10100000
00000000
00000000
00000000
10100000
00000000
00000000
00000000
10000000
00000000
00000000
00100000
00000000
00000000
01000000
00000000
,  // measure 75
00010000
00100000
00010000
00100000
01000000
10000000
01000000
10000000
,  // measure 76
00010000
01000000
00010000
01000000
00100000
10000000
00100000
10000000
,  // measure 77
01000000
01000000
00010000
00010000
00001000
00001000
00000010
00000010
,  // measure 78
00002002
00000000
00000000
00000000
,  // measure 79
00000000
00000000
00000000
00000000
00000000
00000000
00000000
00003003
;
