#TITLE:Healing Vision RMX;
#SUBTITLE:;
#ARTIST:Qurter;
#TITLETRANSLIT:;
#SUBTITLETRANSLIT:;
#ARTISTTRANSLIT:;
#GENRE:;
#CREDIT:;
#BANNER:Healing Vision RMX-bn.png;
#BACKGROUND:Healing Vision RMX-bg.png;
#LYRICSPATH:;
#CDTITLE:;
#MUSIC:Healing Vision RMX.mp3;
#OFFSET:-0.625;
#SAMPLESTART:83.180;
#SAMPLELENGTH:12.000;
#SELECTABLE:YES;
#BPMS:0.000=96.000,32.000=192.000,96.000=95.800,98.000=191.800,230.000=191.870,358.000=96.000;
#STOPS:;
#TIMESIGNATURES:0.000=4=4
;
#BGCHANGES:;
#KEYSOUNDS:;

//---------------dance-double - ----------------
#NOTES:
     dance-double:
     :
     Challenge:
     12:
     1.000,0.968,0.111,1.000,0.743,820.000,15.000,161.000,0.000,0.000,0.000,1.000,0.968,0.111,1.000,0.743,820.000,15.000,161.000,0.000,0.000,0.000: // measure 1
00000000
00000000
00000000
00000000
,  // measure 2
00000000
00000000
00000000
00000000
,  // measure 3
00000000
00000000
00000000
00000000
,  // measure 4
00000000
00000000
00000000
00000000
,  // measure 5
00001000
00010000
00001000
01000000
00010000
01000000
00100000
01000000
00000000
00010000
01000000
00100000
01000000
00000000
00010000
01000000
,  // measure 6
00000000
00010000
00100000
00001000
00100000
00000000
00000100
00010000
00000200
00000000
00000000
00000000
00000320
00000000
00000000
00000000
,  // measure 7
00000031
00000010
00000100
00000010
00000000
00000100
00001000
00000100
00000000
00000010
00000001
00000010
00000100
00000000
00010000
00000100
,  // measure 8
00010000
00001000
00020000
00002000
00000000
00000000
00000000
00000000
00033000
00001000
00001000
00010000
00010000
00000010
00010010
00000000
,  // measure 9
00000110
00000000
00000000
00000000
00000010
00000100
00000010
00000000
00001000
00000000
00000001
00000100
00000001
00000000
00000010
00000000
,  // measure 10
00000200
00000000
00002300
00000000
00003020
00000000
00000230
00000000
00000301
00000000
00001000
00000000
00000100
00010000
00000100
00001000
,  // measure 11
00000200
00000000
00000000
00000000
00001300
00000100
00001000
00000000
00000100
00000000
00010000
00001000
00010000
00000000
00001000
00000000
,  // measure 12
00200000
00000000
00320000
00000000
00230000
00000000
02300000
00000000
13000000
00000000
00010000
00000000
01000000
00100000
10000000
00100000
,  // measure 13
02000000
00000000
00000000
00000000
03010000
10000000
00010000
00000000
01000000
00000000
00100000
10000000
00100000
00000000
01000000
00000000
,  // measure 14
00020000
00000000
00230000
00000000
02300000
00000000
23000000
00000000
30100000
00000000
01000000
00000000
00010000
00100000
00001000
00100000
,  // measure 15
00002000
00000000
00000000
00000000
00013000
00000010
00010000
00000000
00000010
00000000
00000100
00000001
00000100
00000000
00000010
00000000
,  // measure 16
00002000
00003200
00000320
00000032
00000103
00000101
00000202
00000303
,  // measure 17
00000110
00000000
00000000
00000000
00000100
00000010
00000100
00000000
00000001
00000000
00001000
00000100
00001000
00000000
00000100
00000000
,  // measure 18
00020000
00000000
00032000
00000000
00203000
00000000
02300000
00000000
13000000
00000000
01000000
00000000
00100000
00010000
00100000
01000000
,  // measure 19
20000000
00000000
00000000
00000000
30010000
00100000
00010000
00000000
10000000
00000000
00010000
00100000
00010000
00000000
10000000
00000000
,  // measure 20
02000000
00000000
03200000
00000000
00320000
00000000
00230000
00000000
00301000
00000000
00010000
00000000
00001000
00010000
00000100
00001000
,  // measure 21
00000200
00000000
00000000
00000000
00000310
00000100
00000010
00000000
00000001
00000000
00000010
00000100
00000010
00000000
00000001
00000000
,  // measure 22
00002000
00000000
00003020
00000000
00000230
00000000
00000302
00000000
00000013
00000000
00000001
00000000
00000100
00000010
00001000
00000010
,  // measure 23
00000200
00000000
00000000
00000000
00000301
00001000
00000001
00000000
00000010
00000000
00000001
00001000
00000001
00000000
00000100
00000000
,  // measure 24
00000002
00000023
00000230
00002300
00003100
00000100
00000010
00000010
,  // measure 25
00000001
00000010
00000100
00000000
00001000
00000100
00000010
00000000
00000001
00000000
00001000
00000000
00000100
00000000
00001000
00000000
,  // measure 26
00000100
00000000
00000100
00010000
00001000
00000000
00100000
00000000
00110000
00000000
00010000
00000000
01000000
00000000
00100000
00000000
,  // measure 27
00010000
00001000
00010000
00100000
00000000
01000000
00010000
00000100
,  // measure 28
00001000
00010000
00001000
00000010
00000100
00001000
00000010
00000001
,  // measure 29
00000010
00000100
00010000
00000100
00000000
00000010
00000100
00000001
,  // measure 30
00000010
00000100
00010000
00001000
00000010
00001000
00010000
01000000
,  // measure 31
00100000
00001000
00010000
01000000
00000000
10000000
00100000
01000000
,  // measure 32
10000000
01000000
00010000
01000000
00001000
00010000
00001000
00000100
,  // measure 33
00001000
00010000
00000010
00001000
00000001
00000001
00000100
00000100
,  // measure 34
00000010
00000000
00000010
00000000
00001000
00000100
00000010
00000001
00002000
00000000
00000000
00000000
00003100
00000010
00000100
00000000
,  // measure 35
00001000
00000000
00000100
00000010
00000100
00000000
00001000
00000000
00000200
00000000
00001000
00000000
00001000
00000000
00001300
00000000
,  // measure 36
00000100
00000000
00010000
00000000
00001000
00010000
00001000
00010000
00002000
00000000
00000000
00000000
00103000
00010000
00100000
00000000
,  // measure 37
00001000
00000000
00100000
00010000
00100000
00000000
01000000
00000000
20000000
00000000
00100000
00000000
00100000
00000000
30100000
00000000
,  // measure 38
10000000
00000000
00010000
00000000
01000000
00100000
10000000
00010000
02000000
00000000
00000000
00000000
03100000
10000000
00100000
00000000
,  // measure 39
01000000
00000000
00100000
10000000
00100000
00000000
01000000
00000000
00020000
00000000
00100000
00000000
00100000
00000000
00130000
00000000
,  // measure 40
00010000
00000000
00100000
00000000
00001000
00010000
00001000
00010000
00002000
00000000
00000000
00000000
00013000
00000100
00010000
00000000
,  // measure 41
00001000
00000000
00010000
00000100
00010000
00000000
00000010
00000000
00000100
00000000
00000100
00000000
00000010
00000000
00000010
00000000
,  // measure 42
00001000
00000001
00000100
00000010
00001000
00000010
00000100
00000001
00002000
00000000
00000000
00000000
00003001
00000010
00000100
00000000
,  // measure 43
00001000
00000000
00000100
00000010
00000001
00000000
00000010
00000000
00000200
00000000
00020300
00000000
00032000
00000000
00203000
00000000
,  // measure 44
01300000
00000000
10000000
00000000
00010000
10000000
01000000
00100000
00020000
00000000
00000000
00000000
10030000
00100000
01000000
00000000
,  // measure 45
00010000
00000000
01000000
00100000
10000000
00000000
00100000
00000000
02000000
00000000
03002000
00000000
00023000
00000000
00030020
00000000
,  // measure 46
00000130
00000000
00000001
00000000
00000100
00000001
00001000
00000001
00000020
00000000
00000000
00000000
00000130
00001000
00000001
00000000
,  // measure 47
00000010
00000000
00000001
00001000
00000100
00000000
00000010
00000000
00000200
00000000
00020300
00000000
00032000
00000000
00203000
00000000
,  // measure 48
01300000
00000000
10000000
00000000
01000000
00100000
00010000
10000000
00020000
00000000
00000000
00000000
10030000
00010000
01000000
00000000
,  // measure 49
00100000
00000000
01000000
00010000
10000000
00000000
00100000
00000000
02000000
00000000
03002000
00000000
00023000
00000000
00032000
00000000
,  // measure 50
00013000
00000000
00010010
00000000
00001020
00000000
00000000
00000000
00000230
00000000
00000000
00000000
00000301
00001000
00000100
00000000
,  // measure 51
00010000
00000000
00000100
00001000
00000001
00000000
00000010
00000000
00000200
00000000
00020300
00000000
00032000
00000000
00023000
00000000
,  // measure 52
00030010
00000000
00000100
00000000
00000001
00001000
00000001
00000010
00000200
00000000
00000000
00000000
00010300
00001000
00100000
00000000
,  // measure 53
00001000
00000000
00100000
00001000
00010000
00000000
00001000
00000000
02000000
00000000
03002000
00000000
00203000
00000000
00320000
00000000
,  // measure 54
00130000
00000000
00001000
00000000
00010000
00001000
01000000
00010000
02000000
00000000
00000000
00000000
03010000
10000000
01000000
00000000
,  // measure 55
00100000
00000000
00010000
00100000
01000000
00000000
10000000
00000000
00200000
00000000
02300000
00000000
03002000
00000000
00023000
00000000
,  // measure 56
00030010
00000000
00001000
00000000
00000010
00010000
00001000
00010000
00002000
00000000
00000000
00000000
00013000
00000010
00001000
00000000
,  // measure 57
00000010
00000000
00001000
00000010
00010000
00000000
00001000
00000000
00200000
00000000
00320000
00000000
02030000
00000000
03200000
00000000
,  // measure 58
10300000
00000000
10000000
01000000
00100000
00000000
00010000
00000000
10010000
00000000
00000000
10000000
01000000
00000000
00100000
00000000
,  // measure 59
00000000
00000000
00100000
00010000
10000000
00000000
01000000
00000000
00100000
00000000
00000000
00100000
00010000
00000000
00010000
01000000
,  // measure 60
00000000
00000000
00100000
00000000
01000000
00100000
10000000
00100000
01000000
00000000
00000000
00000000
01000000
00000000
00010000
00000000
,  // measure 61
00000000
00000000
00010000
00100000
01000000
10000000
01000000
00100000
00010000
00000000
10000000
00000000
01000000
00100000
00010000
00100000
,  // measure 62
01000000
00000000
10000000
00000000
00010000
00000000
00100000
00010000
00100000
00000000
00000000
00000000
00001000
00000000
00010000
00000000
,  // measure 63
00000000
00000000
00000010
00001000
00000010
00000000
00000100
00000000
00000001
00000000
00000000
00000001
00000010
00000000
00000100
00000000
,  // measure 64
00000000
00001100
00000000
00000011
00001100
00000000
00000100
00010000
,  // measure 65
00000000
00000000
00010000
00000100
00010000
00001000
00010000
00000010
00001000
00000000
00000010
00000000
00000100
00000000
00000100
00000010
,  // measure 66
00001000
00000000
00000001
00000000
00000100
00000010
00001000
00000001
00000100
00000000
00000000
00000100
00000010
00000000
00001000
00000000
,  // measure 67
00000000
00000000
00001000
00000100
00001000
00000000
00000010
00000000
00000100
00000000
00000000
00000100
00000010
00000000
00000010
00001000
,  // measure 68
00000000
00000000
00000100
00000000
00001000
00000100
00000010
00000100
00001000
00000000
00000000
00000000
00001000
00000000
00000001
00000000
,  // measure 69
00000000
00000000
00000010
00000001
00001000
00000001
00000100
00000001
00001000
00000000
00000100
00000000
00010000
00000000
00001000
00010000
,  // measure 70
00001000
00000000
00100000
00000000
00010000
10000000
00010000
01000000
00100000
00000000
00000000
00000000
00100000
00000000
10000000
00000000
,  // measure 71
00000000
00000000
10000000
00010000
01000000
00000000
00100000
00000000
10000000
00000000
00000000
10000000
00100000
00000000
01000000
00000000
,  // measure 72
00000000
01010000
00000000
10100000
01010000
00000000
01000000
01000000
,  // measure 73
00000000
00000000
00100000
10000000
00100000
01000000
00100000
10000000
00100000
00000000
10000000
00000000
00010000
00000000
01000000
00010000
,  // measure 74
01000000
00000000
00010000
00000000
10000000
01000000
10000000
01000000
20000000
00000000
00000000
00000000
32000000
00000000
03200000
00000000
,  // measure 75
00000000
00000000
00310000
00100000
00020000
00000000
00230000
00000000
00302000
00000000
00000000
00000000
00023000
00000000
00030020
00000000
,  // measure 76
00000000
00000000
00000130
00000000
00000010
00001000
00000010
00000100
00000020
00000000
00000000
00000000
00002030
00000000
00003200
00000000
,  // measure 77
00000000
00000000
00000310
00000001
00000010
00000100
00001000
00000100
00000020
00000000
00000032
00000000
00002003
00000000
00003100
00000010
,  // measure 78
00000200
00000000
00002300
00000000
00003001
00000010
00000100
00001000
00000002
00000000
00000000
00000000
00002003
00000000
00003020
00000000
,  // measure 79
00000000
00000000
00000130
00000010
00000200
00000000
00000320
00000000
00002030
00000000
00000000
00000000
00003200
00000000
00020300
00000000
,  // measure 80
00000000
00032000
00000000
02003000
03020000
00000000
20030000
32000000
,  // measure 81
00000000
00000000
03100000
00010000
00100000
01000000
00100000
00010000
20000000
00000000
30020000
00000000
02030000
00000000
03100000
10000000
,  // measure 82
00020000
00000000
02030000
00000000
03010000
00100000
00001000
00010000
00002000
00000000
00000000
00000000
00023000
00000000
00030020
00000000
,  // measure 83
00000000
00000000
00000130
00000001
00002000
00000000
00003200
00000000
00000320
00000000
00000000
00000032
00000010
00000000
00000023
00000100
,  // measure 84
00000000
00000000
00000230
00000000
00001300
00000001
00000100
00000010
00002000
00000000
00000000
00000000
00003200
00000000
00020300
00000000
,  // measure 85
00000000
00000000
00031000
00010000
00001000
01000000
00010000
01000000
00200000
00000000
20300000
00000000
32000000
00000000
03100000
00010000
,  // measure 86
20000000
00000000
32000000
00000000
03100000
00010000
10000000
01000000
00200000
00000000
00000000
00000000
00320000
00000000
02030000
00000000
,  // measure 87
00000000
00000000
03100000
10000000
00020000
00000000
20030000
00000000
32000000
00000000
00000000
03200000
01000000
00000000
01300000
10000000
,  // measure 88
00000000
10000000
00010000
00100000
00010000
10000000
01000000
00100000
01000000
00000000
10000000
00000000
00020000
00000000
00230000
00000000
,  // measure 89
00310000
00100000
00001000
00010000
00000010
00001000
00000010
00000000
00000200
00000000
00000302
00000000
00000023
00000000
00000230
00000000
,  // measure 90
00001300
00000100
00010000
00001000
01000000
00001000
01000000
00020000
20000000
00000000
00000000
00000000
00000000
00000000
00000000
00000000
,  // measure 91
00000000
00000000
30030000
10000000
00100000
00000000
00100000
01000000
00000000
01000000
00010000
01000000
10000000
01000000
00100000
01000000
,  // measure 92
00010000
01000000
00001000
00100000
00001000
00010000
00000100
00001000
00000200
00000310
00000001
00000010
00001000
00000010
00000100
00010000
,  // measure 93
00000000
00000100
00001000
00000010
00010000
00000000
00001000
00010000
02000000
00200000
00000000
00000000
00000000
00000000
00000000
00000000
,  // measure 94
00000000
00000000
03300000
00000000
;

//---------------dance-double - ----------------
#NOTES:
     dance-double:
     :
     Hard:
     10:
     0.725,0.865,0.444,0.089,0.255,614.000,60.000,12.000,0.000,0.000,0.000,0.725,0.865,0.444,0.089,0.255,614.000,60.000,12.000,0.000,0.000,0.000: // measure 1
00000000
00000000
00000000
00000000
,  // measure 2
00000000
00000000
00000000
00000000
,  // measure 3
00000000
00000000
00000000
00000000
,  // measure 4
00000000
00000000
00000000
00000000
,  // measure 5
00001000
00010000
00001000
00010000
00000100
00010000
00000100
00001000
00000000
00000100
00000010
00000100
00001000
00000000
00000100
00001000
,  // measure 6
00000000
00000001
00000010
00000001
00001000
00000000
00000001
00000100
00000002
00000000
00000000
00000000
00000203
00000000
00000000
00000000
,  // measure 7
00000310
00000000
00001000
00000000
00000010
00000100
00000010
00001000
00000000
00000100
00001000
00000001
00001000
00000000
00000100
00001000
,  // measure 8
00000100
00010000
00002000
00200000
00000000
00000000
00000000
00303000
00000000
00001000
00100000
00001000
00010000
00000000
00011000
00000000
,  // measure 9
00001000
00000000
00001000
00001000
00000000
01000000
01000000
00100000
,  // measure 10
10000000
00100000
01000000
00010000
10000000
01000000
00100000
00010000
,  // measure 11
00100000
00000000
00100000
00010000
00000000
00110000
00000000
00101000
,  // measure 12
00000000
00100010
00000000
00010010
00000000
00000110
00000000
00000100
,  // measure 13
00000001
00000000
00000001
00000001
00000000
00000010
00000010
00000100
,  // measure 14
00001000
00000100
00000010
00000001
00000100
00000010
00001000
00000100
,  // measure 15
00001000
00000000
00001000
00000100
00000000
00010100
00000000
01000100
,  // measure 16
00000000
01001000
00000000
01010000
00000000
01000000
00100000
00000000
,  // measure 17
10100000
00000000
10000000
10000000
00000000
00010000
00010000
01000000
,  // measure 18
00100000
10000000
01000000
00100000
00010000
01000000
00001000
00010000
,  // measure 19
00001000
00000000
00001000
00010000
00000000
00010010
00000000
00000110
,  // measure 20
00000000
00001010
00000000
00001100
00000000
00010100
00000000
00010000
,  // measure 21
00001000
00000000
00001000
00001000
00000000
00100000
00100000
01000000
,  // measure 22
00100000
00001000
00010000
00001000
00010000
00000010
00001000
00000010
,  // measure 23
00000100
00000000
00000100
00000001
00000000
00000101
00000000
00000110
,  // measure 24
00000000
00001010
00000000
00000010
00001000
00000100
00010000
00000100
,  // measure 25
00010000
00000100
00010000
00000000
00001000
00010000
00001000
00000000
01000000
00000000
00001000
00000000
01000000
00000000
00010000
00000000
,  // measure 26
01000000
00000000
00000000
00100000
01000000
00000000
00010000
00000000
01000000
00000000
00100000
00000000
10000000
00000000
01000000
00000000
,  // measure 27
00100000
00010000
01000000
00100000
00000000
01000000
00100000
10000000
,  // measure 28
01000000
00100000
00010000
00100000
01000000
10000000
00100000
01000000
,  // measure 29
00010000
00100000
00001000
00100000
00000000
00001000
00010000
00000010
,  // measure 30
00010000
00000010
00000100
00000001
00000010
00000100
00001000
00000010
,  // measure 31
00000100
00000001
00001000
00000100
00000000
00001000
00000100
00000010
,  // measure 32
00000001
00001000
00000001
00000100
00000010
00001000
00000100
00001000
,  // measure 33
00000010
00010000
00001000
00010000
00001000
00100000
00001000
00100000
,  // measure 34
00010000
00000000
01000000
00000000
00100000
01000000
00100000
01000000
00010000
00000000
00000000
00000000
01000000
00010000
01000000
00000000
,  // measure 35
00000000
00000000
00010000
01000000
00010000
00000000
01000000
00000000
00100000
00000000
01000000
00000000
00010000
00000000
01000000
00000000
,  // measure 36
00100000
00000000
10000000
00000000
01000000
00000000
01000000
00000000
00000000
00000000
00000000
00000000
00100000
00010000
00100000
00000000
,  // measure 37
00000000
00000000
00010000
00100000
00010000
00000000
00100000
00000000
00001000
00000000
00100000
00000000
00001000
00000000
00010000
00000000
,  // measure 38
00001000
00000000
00010000
00000000
00000010
00000000
00000010
00000000
00000000
00000000
00000000
00000000
00001000
00000010
00001000
00000000
,  // measure 39
00000000
00000000
00000010
00001000
00000010
00000000
00001000
00000000
00000010
00000000
00000100
00000000
00000010
00000000
00001000
00000000
,  // measure 40
00000001
00000000
00000100
00000000
00000001
00000000
00000001
00000000
00000000
00000000
00000000
00000000
00000010
00000001
00000010
00000000
,  // measure 41
00000000
00000000
00000001
00000010
00000001
00000000
00001000
00000000
00000100
00000000
00001000
00000000
00000100
00000000
00000010
00000000
,  // measure 42
00000002
00000203
00000320
00002030
00003100
00000000
00000100
00010000
,  // measure 43
00000000
00010000
00001000
00010000
00100000
00010000
00001000
00010000
,  // measure 44
00000010
00001000
00000010
00010000
00001000
00000000
00000000
00011000
,  // measure 45
00000000
00101000
00000000
01100000
00000000
11000000
00000000
01100000
,  // measure 46
00000000
00101000
00000000
00011000
00011000
00000000
00010000
00001000
,  // measure 47
00000000
00001000
00010000
01000000
00010000
00001000
00010000
00000100
,  // measure 48
00001000
00000001
00000100
00000010
00001000
00000000
00000000
00001010
,  // measure 49
00000000
00000110
00000000
00000101
00000000
00000110
00000000
00010010
,  // measure 50
00000000
00011000
00011000
00000000
00101000
00000000
00100000
01000000
,  // measure 51
00000000
01000000
10000000
00010000
01000000
00100000
01000000
00001000
,  // measure 52
00010000
00001000
00000100
00001000
00010000
00000000
00000000
00011000
,  // measure 53
00000000
01010000
00000000
01100000
00000000
10100000
00000000
10010000
,  // measure 54
00000000
10001000
00000000
01001000
01001000
00000000
01000000
00001000
,  // measure 55
00000000
00001000
00010000
00001000
00000010
00001000
00010000
00001000
,  // measure 56
00100000
00000010
00010000
00000010
00000100
00000000
00000100
00000001
,  // measure 57
00000000
00000001
00001000
00000010
00000100
00000010
00001000
00000001
,  // measure 58
00001000
00000010
00010000
00000100
00010100
00000000
00000100
00010000
,  // measure 59
00000000
00000000
00010000
00000000
00100000
00000000
00010000
00000000
00000010
00000000
00000000
00000010
00000100
00000000
00000001
00000000
,  // measure 60
00000000
00000000
00000100
00000000
00000000
00000001
00000000
00000000
00000011
00000000
00000000
00000000
00000010
00000000
00001000
00000000
,  // measure 61
00000000
00001000
00010000
00001000
00000100
00001000
00010000
00001000
,  // measure 62
00100000
01000000
00100000
00010000
01010000
00000000
00010000
01000000
,  // measure 63
00000000
00000000
01000000
00000000
00001000
00000000
00010000
00000000
00001000
00000000
00000000
00001000
00100000
00000000
00010000
00000000
,  // measure 64
00000000
11000000
00000000
00110000
10000000
00000000
01000000
00100000
,  // measure 65
00000000
00000000
00010000
00100000
00010000
00000000
01000000
00000000
00100000
00000000
10000000
00000000
01000000
00000000
00100000
01000000
,  // measure 66
00100000
00000000
00010000
00000000
01000000
00010000
01000000
00010000
01000000
00000000
00000000
00000000
01000000
00000000
00010000
00000000
,  // measure 67
00000000
00000000
00010000
00000000
00000100
00000000
00010000
00000000
01000000
00000000
00000000
00010000
00100000
00000000
00001000
00000000
,  // measure 68
00000000
00000000
00010000
00000000
00000000
00000010
00000000
00000000
00001010
00000000
00000000
00000000
00000010
00000000
00001000
00000000
,  // measure 69
00000000
00001000
00000100
00000010
00000001
00000100
00001000
00010000
,  // measure 70
00001000
00000100
00001000
00010000
00011000
00000000
00001000
00010000
,  // measure 71
00000000
00000000
00010000
00000000
01000000
00000000
00100000
00000000
00010000
00000000
00000000
10000000
01000000
00000000
00100000
00000000
,  // measure 72
00000000
00110000
00000000
11000000
00010000
00000000
00010000
00100000
,  // measure 73
00000000
00100000
00001000
00010000
00001000
00010000
00000100
00001000
,  // measure 74
00000100
00000010
00000100
00000001
00000100
00000000
00000100
00001000
,  // measure 75
00000000
00001000
00000100
00000010
00000001
00000000
00000001
00001000
,  // measure 76
00000000
00000000
00000100
00000000
00000000
00010000
00000000
00000000
00011000
00000000
00000000
00000000
00001000
00000000
00010000
00000000
,  // measure 77
00000000
00001000
01000000
00010000
01000000
00100000
00000000
00000000
,  // measure 78
00100000
10000000
00000000
00000000
11000000
00000000
01000000
00100000
,  // measure 79
00000000
00010000
00100000
01000000
00100000
00000000
01000000
10000000
,  // measure 80
00000000
10100000
00000000
01010000
10000000
00000000
00100000
10000000
,  // measure 81
00000000
00010000
01000000
00010000
00100000
00000000
00001000
00100000
,  // measure 82
00001000
00010000
00000000
00000100
00010000
00000000
00000100
00000010
,  // measure 83
00000000
00000000
00000001
00000000
00000010
00000000
00001000
00000000
00000010
00000000
00000000
00000100
00001000
00000000
00000100
00000000
,  // measure 84
00000000
00000000
00000010
00000000
00000000
00000001
00000000
00000000
00000101
00000000
00000000
00000000
00000100
00000000
00000010
00000000
,  // measure 85
00000000
00000010
00001000
00000100
00001000
00000010
00010000
00001000
,  // measure 86
00100000
01000000
00100000
00001000
01001000
00000000
01000000
00001000
,  // measure 87
00000000
00001000
01000000
00100000
10000000
00000000
10000000
01000000
,  // measure 88
00000000
00101000
00000000
11000000
00010000
00000000
10000000
00000000
,  // measure 89
01000000
00100000
01000000
10000000
01000000
00100000
01000000
00000000
00100000
00000000
00010000
00000000
00100000
00000000
01000000
00000000
,  // measure 90
10000000
01000000
10000000
01000000
00100000
01000000
00100000
00020000
00200000
00000000
00000000
00000000
00000000
00000000
00000000
00000000
,  // measure 91
00330000
00000000
00000000
00000000
00100000
00001000
00000000
00001000
00100000
00000000
00100000
00001000
00010000
00001000
01000000
00010000
,  // measure 92
01000000
00001000
00010000
00001000
00010000
00000010
00000100
00000001
00000100
00000010
00001000
00000100
00000000
00001000
00000100
00000001
,  // measure 93
00000100
00000000
00001000
00000010
00100000
00000010
00000000
00010000
00001000
00200000
02000000
00000000
00000000
00000000
00000000
00000000
,  // measure 94
00000000
00000000
03300000
00000000
;

//---------------dance-double - ----------------
#NOTES:
     dance-double:
     :
     Medium:
     8:
     0.520,0.692,0.333,0.185,0.081,422.000,45.000,25.000,0.000,0.000,0.000,0.520,0.692,0.333,0.185,0.081,422.000,45.000,25.000,0.000,0.000,0.000:
00000000
00000000
00000000
00000000
,
00000000
00000000
00000000
00000000
,
00000000
00000000
00000000
00000000
,
00000000
00000000
00000000
00000000
,
00010000
00000000
00001000
00000000
00010000
00000000
00000100
00001000
00000000
00000000
00000000
00001000
00000100
00000000
00000100
00000010
,
00000000
00000000
00000000
00000010
00000001
00000000
00000000
00000000
00000200
00000000
00000000
00000000
00000320
00000000
00000000
00000000
,
00002030
00000000
00000000
00000200
00000000
00000000
00000000
00000000
,
00000000
00000000
00000000
00000000
00000000
00000000
00003300
00000000
00000000
00000100
00010000
00001000
00010000
00000000
00011000
00000000
,
01001000
00000000
00000000
01000000
00000000
00000000
00100000
00000000
,
10100000
00000000
00000000
10000000
00000000
01000000
00000000
00000000
,
01100000
00000000
00000000
00100000
00000000
00001000
00000000
00010000
,
00000000
00000010
00000000
00000100
00000000
00000010
00000000
00000100
,
00000101
00000000
00000000
00000001
00000000
00000000
00000010
00000000
,
00000110
00000000
00000000
00000100
00000000
00001000
00000000
00000000
,
00001100
00000000
00000000
00000100
00000000
00010000
00000000
00000100
,
00000000
01000000
00000000
00001000
00000000
01000000
00010000
00000000
,
01010000
00000000
00000000
01000000
00000000
00000000
00100000
00000000
,
10100000
00000000
00000000
10000000
00000000
00010000
00000000
00000000
,
00110000
00000000
00000000
00010000
00000000
01000000
00000000
00001000
,
00000000
00010000
00000000
00000010
00000000
00001000
00000000
00000100
,
00001100
00000000
00000000
00001000
00000000
00000000
00000001
00000000
,
00000011
00000000
00000000
00000010
00000000
00000001
00000000
00000000
,
00000101
00000000
00000000
00000001
00000000
00000010
00000000
00001000
,
00000000
00010000
00000000
00001000
00100000
00010000
00100000
02000000
,
10000000
00000000
10000000
00000000
13000000
01000000
10000000
01000000
,
00100000
00100000
00100000
00010000
01010000
00000000
01000000
00000000
,
00100000
00000000
10000000
00100000
00000000
00000000
01000000
00000000
,
00010000
00000000
00100000
00001000
00000000
00000000
00010000
00000000
,
00000100
00000000
00000010
00000100
00000000
00000000
00001000
00000000
,
00000001
00000000
00001000
00000100
00000000
00000000
00010000
00000000
,
00000010
00000000
00100000
00000010
00000000
00000000
00100000
00000000
,
00001000
00000000
00100000
01000000
00000000
00000000
10000000
00000000
,
00100000
00000000
01000000
00000000
00010000
01000000
00010000
01000000
,
00100000
01000000
00100000
01000000
00200000
00000000
10000000
00000000
,
00000000
10300000
00000000
00000000
00100000
10000000
00100000
10000000
,
00010000
01000000
00010000
01000000
00002000
00000000
00010000
00000000
,
00000000
00013000
00000000
00000000
00001000
00010000
00001000
00010000
,
00000100
00010000
00000100
00010000
00000200
00000000
00000010
00000000
,
00000000
00000310
00000000
00000000
00000010
00000001
00000010
00000001
,
00001000
00000100
00001000
00000100
00000020
00000000
00000001
00000000
,
00000000
00000031
00000000
00000000
00000001
00000010
00000100
00001000
,
00000001
00000010
00000100
00001000
00001100
00000000
00000000
00000100
,
00000000
00000000
00010000
00000000
00011000
00000000
00000000
00001000
,
00000000
01000000
00000000
00000000
01010000
00000000
00000000
01100000
,
00000000
00100000
00000000
10100000
00000000
10010000
00000000
00010000
,
00000000
01010000
00000000
01000000
00001000
00000000
00000000
00010000
,
00000000
00000000
00000100
00000000
00001100
00000000
00000000
00001000
,
00000000
00000001
00000000
00000000
00000011
00000000
00000000
00000110
,
00000000
00000100
00000000
00001100
00000000
00001000
00000000
00000001
,
00000000
00000001
00000010
00000000
00000110
00000000
00000000
00000100
,
00000000
00000000
00010000
00000000
00011000
00000000
00000000
00001000
,
00000000
01000000
00000000
00000000
01010000
00000000
00000000
01001000
,
00000000
00001000
00000000
00011000
00000000
00010000
00000000
00011000
,
00000000
00001000
00000000
00010000
00000100
00000000
00000000
00000010
,
00000000
00000000
00000001
00000000
00000011
00000000
00000000
00000001
,
00000000
00001000
00000000
00000000
00001100
00000000
00000000
00000011
,
00000000
00000010
00000000
00000110
00000000
00000100
00000000
00010000
,
00000100
00010000
00001000
01000000
00010000
00000000
00010000
10000000
,
00000000
10000000
10000000
01000000
10000000
00000000
01000000
10000000
,
00000000
00000000
00010000
00000000
00000000
00010000
00000000
00000000
00110000
00000000
00000000
00000000
00100000
00000000
00001000
00000000
,
00000000
00001000
00010000
00001000
00010000
00000000
00010000
00000010
,
00001000
00000010
00000000
00000010
00000100
00000000
00000100
00000001
,
00000000
00000001
00000010
00000001
00000100
00000000
00000100
00000010
,
00000000
00001010
00000000
00001010
00001000
00000000
00000100
00010000
,
00000000
00010000
00000100
00010000
00001000
00100000
00001000
00010000
,
00001000
00001000
01000000
00010000
01010000
00000000
01000000
00100000
,
00000000
00100000
00100000
10000000
00010000
00000000
01000000
00001000
,
00000000
00000000
00010000
00000000
00000000
00010000
00000000
00000000
00011000
00000000
00000000
00000000
00001000
00000000
00010000
00000000
,
00000000
00010000
00000100
00010000
00001000
00000000
00001000
01000000
,
00010000
01000000
00000000
01000000
00001000
00000000
00001000
00010000
,
00000000
00010000
00000100
00001000
00000100
00000000
00000100
00000010
,
00000000
00000011
00000000
00000011
00000001
00000000
00000001
00001000
,
00000000
00001000
00000100
00000010
00000200
00000000
00002300
00000000
,
00003200
00020300
00032000
00100000
,
00000000
00010000
00000000
01000000
,
00003000
00000000
00001000
00000000
00000000
00001000
00000000
00000000
00021000
00000000
00000000
00000000
00001000
00000000
00000000
00000000
,
00000000
00000100
00000000
00030010
,
00010000
00000010
00000000
00000010
00002000
00000000
00000100
00000000
,
00000000
00000001
00000000
00000010
,
00003000
00001000
00000000
00001000
00000200
00000000
00001000
00000000
,
00000000
00010000
00000000
00001300
,
00000100
00010000
00000100
00010000
00001000
00000000
00001000
00100000
,
00000000
00100000
01000000
10000000
01000000
00000000
01000000
10000000
,
00000000
00000000
00010000
00000000
00000000
00100000
00000000
00000000
00010000
00000000
00000000
00000000
00010000
00000000
01000000
00000000
,
00000000
01000000
00100000
10000000
00100000
00000000
01000000
00010000
,
01000000
00100000
00000000
00100000
10000000
00000000
10000000
01000000
,
00000000
01000000
00100000
00001000
00100000
00000000
00100000
00001000
,
00000000
00001000
00010000
00000010
00010000
00000000
00010010
00000000
,
00000020
00000230
00000320
00000230
00000301
00001000
00000001
00001000
,
00000100
00000010
00000100
00001000
00002200
00000000
00000000
00000000
,
00003300
00000000
00000000
00000100
00001000
00000000
00000100
00001000
00000000
00000001
00001000
00000001
00000100
00000000
00000010
00000000
,
00001000
00000000
00000001
00000100
00000000
00000010
00000100
00000010
00001000
00000000
00000001
00000010
00000000
00000000
00000010
00000001
,
00000000
00000000
00000100
00000010
00000100
00000000
00000010
00001000
00000020
00020000
00000000
00000000
00000000
00000000
00000000
00000000
,
00000000
00000000
00030030
00000000
;

//---------------dance-double - ----------------
#NOTES:
     dance-double:
     :
     Easy:
     5:
     0.322,0.380,0.237,0.170,0.018,250.000,32.000,23.000,0.000,0.000,0.000,0.322,0.380,0.237,0.170,0.018,250.000,32.000,23.000,0.000,0.000,0.000:
00000000
00000000
00000000
00000000
,
00000000
00000000
00000000
00000000
,
00000000
00000000
00000000
00000000
,
00000000
00000000
00000000
00000000
,
00020000
00000000
00000000
00000000
,
00000000
00000000
02030000
03200000
,
20300000
00000000
00000000
32000000
00000000
00000000
00000000
00000000
,
00000000
00000000
00000000
00000000
,
03100000
00000000
00000000
00100000
00000000
00000000
00000000
00000000
,
00010000
00000000
00000000
00010000
00000000
00000000
00000000
00000000
,
01000000
00000000
00000000
02000000
00000000
00000000
00000000
00000000
,
00000000
00000000
00000000
00000000
,
03001000
00000000
00000000
00001000
00000000
00000000
00000000
00000000
,
00010000
00000000
00000000
00010000
00000000
00000000
00000000
00000000
,
00000100
00000000
00000000
00000200
00000000
00000000
00000000
00000000
,
00000000
00000000
00000000
00000300
,
00000100
00000000
00000000
00001000
00000000
00000000
00000000
00000000
,
00000001
00000000
00000000
00001000
00000000
00000000
00000000
00000000
,
00000001
00000000
00000000
00000020
00000000
00000000
00000000
00000000
,
00000000
00000000
00000000
00000000
,
00000130
00000000
00000000
00001000
00000000
00000000
00000000
00000000
,
00000010
00000000
00000000
00001000
00000000
00000000
00000000
00000000
,
00000100
00000000
00000000
00020000
00000000
00000000
00000000
00000000
,
00000000
00000000
00000000
00000000
,
00002000
00000000
00000000
00000000
,
00000000
00033000
00012000
00000000
,
00000000
00000000
02003000
00000000
,
00000000
00000000
03200000
00000000
,
00000000
00000000
20300000
00000000
,
00000000
00000000
32000000
00000000
,
00000000
00000000
23000000
00000000
,
00000000
00000000
30020000
00000000
,
00000000
00000000
00230000
00010000
,
00010000
00310000
00110000
00100000
,
00000000
00100000
00000000
00000000
01000000
00000000
10000000
00000000
,
01000000
10000000
00000000
00010000
,
00000000
00010000
00000000
00000000
01000000
00000000
00001000
00000000
,
01000000
00001000
00000000
00010000
,
00000000
00010000
00000000
00000000
00000010
00000000
00000100
00000000
,
00000010
00000100
00000000
00000001
,
00000000
00000001
00000000
00000000
00000010
00000000
00000010
00000000
,
00000100
00000100
00001000
00000100
,
00000000
00001000
00000000
00000000
00000100
00000000
00010000
00000000
,
00001000
00000000
00010000
00000000
00001000
00000000
00000000
00100000
,
00000000
00010000
00000000
00100000
00000000
01000000
00000000
00100000
,
00000000
00010000
00000000
00100000
01000000
00000000
10000000
00000000
,
00000000
10000000
00000000
00000000
00010000
00000000
01000000
00000000
,
00100000
01000000
00010000
00100000
,
00000000
00100000
00000000
00001000
00000000
00010000
00000000
00001000
,
00000000
00010000
00000010
00000000
00001000
00000000
00000001
00000000
,
00000000
00000100
00000000
00000000
00000001
00000000
00000010
00000000
,
00000001
00000100
00000001
00001000
,
00000000
00000100
00000000
00010000
00000000
00001000
00000000
00010000
,
00000000
00000100
00000000
00000010
00000100
00000000
00001000
00000000
,
00000000
00000100
00000000
00000000
00010000
00000000
00001000
00000000
,
01000000
00000000
00100000
00000000
01000000
00000000
00000000
00010000
,
00000000
01000000
00000000
00100000
00000000
01000000
00000000
00010000
,
00000000
01000000
00000000
00100000
01000000
00000000
00010000
00010000
,
00000000
00100000
00001000
00010000
,
00000000
00011000
00000000
00000000
00011000
00000000
00010000
00010000
,
00000000
00000100
00000110
00000000
,
00000011
00000000
00000000
00000000
00001001
00000000
00001000
00001000
,
00000000
00000100
00000010
00000100
,
00000000
00001100
00000000
00000000
00001100
00000000
00000100
00000100
,
00000000
00001000
00000010
00010000
,
00001000
00000000
00100000
00000000
00101000
00000000
00100000
00100000
,
00000000
00001000
00010000
00000010
,
00000000
00001010
00000000
00000000
00001100
00000000
00001000
00001000
,
00000000
00000100
00010100
00000000
,
00011000
00000000
00000000
00000000
00101000
00000000
00100000
00100000
,
00000000
00010000
00100000
01000000
,
00000000
11000000
00000000
00000000
11000000
00000000
01000000
01000000
,
00000000
10000000
00100000
10000000
,
01000000
00100000
00110000
00010000
,
00000000
01000000
00001000
00010000
,
00000000
00011000
00000000
00000000
00010100
00000000
00010000
00000000
,
00000000
00000010
00010010
00000000
,
00001010
00000000
00000110
00000100
,
00000000
00000001
00000010
00000001
,
00000000
00001001
00000000
00000000
00001100
00000000
00000100
00000000
,
00000000
00010000
00010100
00000000
,
00011000
00000000
00000000
00000000
01001000
00000000
01000000
01000000
,
00000000
00100000
10000000
01000000
,
00000000
11000000
00000000
00000000
01100000
00000000
00100000
00100000
,
00000000
00001000
00100000
00001000
,
00010000
00000000
00000010
00000000
00010010
00000000
00010000
00010000
,
00000000
00000100
00001000
00000100
,
00000010
00000100
00001100
00001000
,
00000200
00000000
00010300
00001000
,
00010000
00001000
00010000
00002000
00020000
00000000
00000000
00000000
,
00033000
00000000
00000000
00000000
00001000
00000000
00000000
00010000
00000000
00000000
00000000
00001000
00000000
00000000
01000000
00000000
,
00010000
00000000
00000000
01000000
00000000
00000000
00010000
00000000
10000000
00000000
00000000
00010000
00000000
00000000
01000000
00000000
,
00000000
00000000
00000000
00000000
00010000
00000000
00000000
00000000
20000000
02000000
00000000
00000000
00000000
00000000
00000000
00000000
,
00000000
00000000
33000000
00000000
;
