#TITLE:朧;
#SUBTITLE:;
#ARTIST:HHH x MM x ST;
#TITLETRANSLIT:Oboro;
#SUBTITLETRANSLIT:;
#ARTISTTRANSLIT:;
#GENRE:Fascination;
#CREDIT:;
#BANNER:Oboro.png;
#BACKGROUND:Oboro-bg.png;
#LYRICSPATH:;
#CDTITLE:;
#MUSIC:Oboro.mp3;
#OFFSET:-0.417125;
#SAMPLESTART:57.980000;
#SAMPLELENGTH:15.000000;
#SELECTABLE:YES;
#BPMS:0.000000=149.000000
;
#STOPS:
;
#BGCHANGES:;
#KEYSOUNDS:;
#ATTACKS:;

//---------------dance-single - ----------------
#NOTES:
     dance-single:
     :
     Easy:
     4:
     0.214919,0.296546,0.090927,0.107459,0.000000,158.000000,11.000000,13.000000,0.000000,0.000000,0.000000,0.214919,0.296546,0.090927,0.107459,0.000000,158.000000,11.000000,13.000000,0.000000,0.000000,0.000000:
0000
0000
0000
0000
,
0000
0000
0000
0000
,
0000
0000
0000
0000
,
0000
0000
0000
0000
,
0001
0000
0000
0000
,
0100
0000
0000
0000
,
0010
0000
0000
0000
,
1000
0000
0000
0000
,
0100
0000
0000
0000
,
0010
0000
0000
0000
,
0001
0000
0000
0000
,
1000
0000
0000
0000
,
0010
0000
0000
0000
,
0220
0000
0330
0000
,
0010
0100
0010
0000
,
1000
0100
1000
0000
,
0001
0010
0100
1000
,
0001
0100
0010
0000
,
1001
0000
0000
0000
,
0001
0000
0100
0000
,
0010
1000
0100
0000
,
1000
0010
0100
0000
,
0001
0010
0100
0000
,
1000
0000
0100
0000
,
0010
0001
1000
0000
,
0010
0000
0100
0000
,
0002
0000
1003
0000
,
0100
0000
0010
0000
,
0100
0100
1000
0000
,
0010
0000
0100
0000
,
0001
0001
0010
0000
,
0100
0000
0010
0000
,
0001
0001
1000
0000
,
0010
0000
0100
0000
,
0001
0000
1000
0000
,
2002
0000
3003
0000
,
0001
1000
0001
1000
,
0010
0100
0010
0100
,
0001
0010
0100
1000
,
0010
0100
0001
0000
,
0001
0100
0001
0100
,
0010
1000
0010
1000
,
0010
0001
1000
0100
,
0001
0010
0100
0000
,
1001
0000
0110
0110
,
0220
0000
0330
0000
,
0010
0000
0000
0000
,
0100
0000
0000
0000
,
0001
0000
0000
0000
,
1000
0000
0000
0000
,
0100
0000
0000
0000
,
0010
0000
0110
0000
,
0200
0000
0300
0000
,
2000
0000
3000
0000
,
0002
0000
0003
0000
,
0200
0000
0300
0000
,
0000
0010
0000
0010
,
0000
1000
0000
1000
,
0001
1000
0001
1000
,
0100
0100
0110
0000
,
0010
0100
0010
0100
,
1000
0001
1000
0001
,
0100
1000
0100
0010
,
1000
0001
0010
0000
,
0001
0010
0001
0010
,
0100
1000
0100
1000
,
0010
0100
0001
0010
,
0100
1000
0001
0000
,
1001
0000
0010
0100
,
0020
0000
0030
0000
,
0110
0000
1000
0001
,
2000
0000
0000
3000
;

//---------------dance-single - ----------------
#NOTES:
     dance-single:
     :
     Hard:
     8:
     0.531392,0.476127,0.289314,0.157056,0.165322,396.000000,35.000000,19.000000,0.000000,0.000000,0.000000,0.531392,0.476127,0.289314,0.157056,0.165322,396.000000,35.000000,19.000000,0.000000,0.000000,0.000000:
// measure 0
0000
0000
0000
0000
,  // measure 1
0000
0000
0000
0000
,  // measure 2
0000
0000
0000
0000
,  // measure 3
0000
0000
0000
0000
0000
0000
1000
0001
,  // measure 4
1001
0000
0000
0000
0100
0000
0010
0100
0000
0000
0000
0000
1000
0000
0100
0000
,  // measure 5
0010
0000
0000
0000
0001
0000
1000
0001
0000
0000
0000
0000
1000
0000
0010
0000
,  // measure 6
2000
0000
0000
0000
3001
0000
0010
0001
0000
0000
0001
0000
0100
0000
0010
0000
,  // measure 7
0100
0000
0001
0000
1000
0000
0100
1000
0000
0000
0000
0000
0010
0000
0100
0000
,  // measure 8
0110
0000
0000
0000
0010
0000
1000
0010
0000
0000
0000
0000
0100
0000
0001
0000
,  // measure 9
0010
0000
0000
0000
0100
0000
1000
0100
0000
0000
0000
0000
0010
0000
0001
0000
,  // measure 10
1000
0000
0010
0000
0100
0000
0001
0100
0000
0000
0010
0000
1000
0000
0001
0000
,  // measure 11
0010
0000
0100
0000
1000
0000
0001
1000
0000
0000
0010
0000
0100
0000
0001
0000
,  // measure 12
2000
0000
0000
0000
3100
0010
0100
0010
,  // measure 13
0220
0000
0000
0330
,  // measure 14
0100
0000
0110
0000
0100
1000
0001
0000
,  // measure 15
0100
0000
0110
0000
0010
1000
0001
0010
,  // measure 16
0100
0000
0000
1000
0000
0000
1100
0000
0000
1000
0001
0000
0100
0000
0010
0000
,  // measure 17
0100
0000
0000
0010
0000
0000
1001
0000
0000
0001
1000
0000
0001
0000
0000
0000
,  // measure 18
2002
0000
0000
3003
,  // measure 19
0001
0100
0010
0100
0001
1000
0100
0010
,  // measure 20
0001
0000
0011
0000
0100
1000
0000
1000
,  // measure 21
0002
0000
0103
0010
0100
0001
1000
0100
,  // measure 22
0001
0000
0100
0000
1100
0000
1000
0010
,  // measure 23
0100
0001
0100
0010
1000
0001
0010
0100
,  // measure 24
0010
0000
1001
0000
0010
0100
0000
0100
,  // measure 25
0010
0000
1000
0000
0100
0010
0001
1000
,  // measure 26
0020
0000
0200
0330
,  // measure 27
0010
0000
1000
0000
0100
0000
1000
0010
0000
0000
0000
0000
0110
0000
0100
0000
,  // measure 28
0001
0000
0010
0000
0100
0000
0010
0001
0000
0000
0000
0000
1001
0000
0100
0000
,  // measure 29
0010
0100
0001
1000
0200
0000
0310
0000
,  // measure 30
0001
0000
0100
0000
0010
0000
0100
0001
0000
0000
0000
0000
0101
0000
0000
0000
,  // measure 31
0010
0000
1000
0000
0100
0000
1000
0010
0000
0000
0000
0000
0110
0000
0001
0000
,  // measure 32
1000
0000
0100
0000
0010
0000
0100
1000
0000
0000
0000
0000
0010
0000
0100
0000
,  // measure 33
0001
0100
0010
1000
0001
0010
0100
1000
,  // measure 34
0010
0000
0000
0100
0000
0000
0001
0000
1000
0000
0000
0000
0100
0000
0000
0000
,  // measure 35
0220
0000
0000
0000
0330
0000
0010
0100
,  // measure 36
0010
0000
0000
0000
0110
0000
0100
1000
0000
0000
0000
0000
0001
0000
0100
0000
,  // measure 37
0010
0000
0000
0000
1010
0000
1000
0010
0000
0000
0000
0000
0100
0000
0001
0000
,  // measure 38
0010
0000
0000
0000
0011
0000
0001
0100
0000
0000
0010
0000
0100
0000
0001
0000
,  // measure 39
1000
0000
0100
0000
0010
0000
0100
1000
0000
0000
0000
0000
0010
0000
0100
0000
,  // measure 40
0010
0000
0000
0000
0110
0000
0100
0001
0000
0000
0000
0000
1000
0000
0100
0000
,  // measure 41
0010
0000
0000
0000
0011
0000
0001
0100
0000
0000
0000
0000
0010
0000
1000
0000
,  // measure 42
0100
0000
1000
0000
0010
0000
0100
0010
0000
0000
1000
0000
0001
0000
0010
0000
,  // measure 43
0100
0000
1000
0000
0010
0000
0100
0010
0000
0000
0100
0000
0001
0000
1000
0000
,  // measure 44
1001
0000
0000
0000
0100
0010
0100
0010
,  // measure 45
0220
0000
0000
0330
,  // measure 46
0010
1000
0100
0010
0000
0000
0010
0100
,  // measure 47
1000
0010
0100
0001
0000
0000
0100
0000
,  // measure 48
0010
1000
0100
0001
0000
0000
1000
0000
,  // measure 49
0010
0001
0100
1000
0000
0000
0100
0000
,  // measure 50
0010
0000
0000
1000
0000
0000
0001
0000
0000
0000
0000
0000
1001
0000
0000
0000
,  // measure 51
2000
0000
0000
0000
3001
0000
1000
0001
,  // measure 52
1000
0000
0000
0000
0001
0000
1000
0001
0000
0000
0000
0000
0100
0000
0010
0000
,  // measure 53
0100
0000
0000
0000
0010
0000
0100
0010
0000
0000
0000
0000
1000
0000
0010
0000
,  // measure 54
1000
0000
0000
0000
0001
0000
0100
0001
0000
0000
1000
0000
0100
0000
1000
0000
,  // measure 55
0100
0000
0010
0000
0001
0000
0010
0001
0000
0000
0000
0000
0100
0000
0010
0000
,  // measure 56
0100
0110
0000
1001
,  // measure 57
0000
0011
0000
1100
,  // measure 58
1000
0000
0100
0000
0010
0000
0001
0100
0000
0000
0010
0000
0100
0000
0001
0000
,  // measure 59
0010
0000
0100
0000
1000
0000
0001
0100
0000
0000
0000
0000
0010
0000
0100
0000
,  // measure 60
0010
0000
0000
0000
0110
0000
0100
0001
0000
0000
0000
0000
1000
0000
0100
0000
,  // measure 61
0010
0000
0000
0000
0011
0000
0001
0100
0000
0000
0000
0000
0010
0000
1000
0000
,  // measure 62
0100
0000
0000
0000
0110
0000
0010
0100
0000
0000
1000
0000
0010
0000
0100
0000
,  // measure 63
0001
1000
0100
0010
0100
0000
1000
0010
,  // measure 64
0100
0000
0000
0000
0110
0000
0100
0001
0000
0000
0000
0000
1000
0000
0100
0000
,  // measure 65
0010
0000
0000
0000
0110
0000
0100
1000
0000
0000
0000
0000
0001
0000
0100
0000
,  // measure 66
0010
0000
0100
0000
0001
0000
1000
0100
0000
0000
0010
0000
0001
0000
0100
0000
,  // measure 67
1000
0000
0100
0000
0001
0000
0010
0100
0000
0000
1000
0000
0010
0000
0100
0000
,  // measure 68
0210
0000
0000
0000
0301
0100
0010
0100
,  // measure 69
0002
0000
0000
0000
0000
0013
0100
1000
,  // measure 70
2001
0000
0000
0000
3010
0100
0001
0100
,  // measure 71
0020
0000
0001
0000
0000
1000
1000
0000
,  // measure 72
0030
0000
0000
0000
;

//---------------dance-single - ----------------
#NOTES:
     dance-single:
     :
     Medium:
     6:
     0.361347,0.355856,0.256249,0.157056,0.000000,256.000000,31.000000,19.000000,0.000000,0.000000,0.000000,0.361347,0.355856,0.256249,0.157056,0.000000,256.000000,31.000000,19.000000,0.000000,0.000000,0.000000:
0000
0000
0000
0000
,
0000
0000
0000
0000
,
0000
0000
0000
0000
,
0000
0000
0000
0000
,
1001
0010
0100
0000
,
0001
1000
0100
0000
,
0020
0031
0100
0010
,
1000
0100
0010
0000
,
0110
0100
1000
0000
,
0001
0100
0010
0000
,
0100
0001
0010
0100
,
1000
0001
0100
0000
,
0020
0000
0130
0100
,
2002
0000
3003
0000
,
0001
0010
0100
1000
,
0010
0000
0100
0000
0001
1000
0001
0000
,
0010
0100
1000
0010
,
0100
0000
0010
0000
0100
0010
0100
0000
,
2002
0000
3003
0000
,
0001
0010
0100
1000
,
0010
0000
1000
0000
0100
0100
0000
0000
,
1000
0010
0100
0001
,
0010
0001
1000
0000
,
0010
0100
0001
1000
,
0100
0010
0200
0300
,
1000
0000
0010
0000
0100
0001
0100
0000
,
0020
0000
1000
0001
,
1030
0000
0100
1000
0100
0000
1000
0000
,
0001
0000
0100
0001
0100
0000
0010
0000
,
0100
0001
0010
0100
,
1000
0100
1000
0000
0001
0000
0100
0000
,
0010
0000
1000
0010
1000
0000
0010
0000
,
0100
0000
0001
0010
0001
0000
0100
0000
,
0010
0000
1000
0000
0100
0010
0100
1000
,
0001
0100
0010
0000
,
0220
0000
0000
0000
0330
0000
0010
0100
,
0010
0000
0100
0000
0110
0000
0100
0001
,
0100
0000
0001
0000
0101
0000
0001
1000
,
0001
1000
1001
1000
,
0100
0010
0100
1000
0001
0000
0100
0010
,
0100
0000
0001
0000
0101
0000
0001
0010
,
0001
0000
0010
0000
0110
0000
0100
1000
,
0100
1000
1010
1000
,
0010
0100
0001
1000
0100
0000
0010
0000
,
0220
0000
0330
0000
0001
1000
0001
0000
,
2002
0000
0000
3003
,
0001
0000
0100
0000
,
0010
0000
1000
0000
,
1100
0000
0100
0000
,
0011
0000
0001
0000
,
0101
0000
0100
0000
,
0020
0000
0000
0000
0130
0000
0010
0100
,
0010
0100
0010
0000
,
1000
0001
1000
0000
,
0001
0010
0001
0000
,
1000
0100
1000
0000
,
0000
1100
0000
0011
,
0000
1001
0000
0110
,
0010
0000
0100
0000
0001
0100
0001
0000
,
1000
0000
0001
0000
1001
0000
0100
0010
,
0100
0000
0010
0000
0110
0000
0100
1000
,
0100
0000
1000
0000
1100
0000
1000
0010
,
1000
0010
1010
0010
,
0100
0001
1000
0100
0010
0000
0100
0010
,
0100
0000
0010
0000
0110
0000
0010
0001
,
0010
0000
0001
0000
0011
0000
0001
0100
,
0001
0100
0110
0010
,
0100
0001
1000
0100
0010
0000
0100
0000
,
0110
0000
0001
1000
,
2002
0000
3003
0010
,
0110
0000
0100
0001
,
2002
0000
0000
3003
;

//---------------dance-single - ----------------
#NOTES:
     dance-single:
     :
     Beginner:
     1:
     0.090927,0.148790,0.057863,0.033064,0.000000,66.000000,7.000000,4.000000,0.000000,0.000000,0.000000,0.090927,0.148790,0.057863,0.033064,0.000000,66.000000,7.000000,4.000000,0.000000,0.000000,0.000000:
0000
0000
0000
0000
,
0000
0000
0000
0000
,
0000
0000
0000
0000
,
0000
0000
0000
0000
,
1000
0000
0000
0000
,
0010
0000
0000
0000
,
0100
0000
0000
0000
,
0001
0000
0000
0000
,
0010
0000
0000
0000
,
0100
0000
0000
0000
,
1000
0000
0000
0000
,
0001
0000
0000
0000
,
1000
0000
0000
0000
,
1001
0000
0000
0000
,
0010
0000
0000
0000
,
0010
0000
0000
0000
,
0100
0000
0000
0000
,
0100
0000
0000
0000
,
1001
0000
0000
0000
,
1000
0000
0000
0000
,
0001
0000
0000
0000
,
0010
0000
0000
0000
,
0100
0000
0000
0000
,
1000
0000
0000
0000
,
0010
0000
0000
0000
,
0100
0000
0000
0000
,
0001
0000
0000
0000
,
1000
0000
0000
0000
,
0100
0000
0000
0000
,
0010
0000
0000
0000
,
0001
0000
0000
0000
,
0100
0000
0000
0000
,
0010
0000
0000
0000
,
1000
0000
0000
0000
,
0001
0000
0000
0000
,
0000
0000
0000
0000
,
0010
0000
0000
0000
,
0010
0000
0000
0000
,
0100
0000
0000
0000
,
0100
0000
0000
0000
,
1000
0000
0000
0000
,
1000
0000
0000
0000
,
0001
0000
0000
0000
,
0001
0000
0000
0000
,
1001
0000
0000
0000
,
0200
0000
0300
0000
,
0100
0000
0000
0000
,
0000
0000
0000
0000
,
0010
0000
0000
0000
,
1000
0000
0000
0000
,
0001
0000
0000
0000
,
2002
0000
3003
0000
,
0001
0000
0000
0000
,
1000
0000
0000
0000
,
0001
0000
0000
0000
,
1000
0000
0000
0000
,
0000
0010
0000
0000
,
0000
0100
0000
0000
,
0100
0000
0000
0000
,
0010
0000
0000
0000
,
1001
0000
0000
0000
,
0100
0000
0000
0000
,
0010
0000
0000
0000
,
0001
0000
0000
0000
,
0100
0000
0000
0000
,
0010
0000
0000
0000
,
1000
0000
0000
0000
,
0001
0000
0000
0000
,
1001
0000
0000
0000
,
0100
0000
0000
0000
,
0110
0000
0000
0000
,
0002
0000
0000
0000
,
0003
0000
0000
0000
;
