#TITLE:見習い天使と星降りの丘;
#SUBTITLE:;
#ARTIST:DJ TOTTO;
#TITLETRANSLIT:Minarai tenshi to hoshifuri no oka;
#SUBTITLETRANSLIT:;
#ARTISTTRANSLIT:;
#GENRE:;
#CREDIT:Silverhawke;
#MENUCOLOR:;
#METERTYPE:DDR;
#BANNER:[Round 2 Singles] - Minarai tenshi to hoshifuri no oka.png;
#BACKGROUND:[Round 2 Singles] - Minarai tenshi to hoshifuri no oka-bg.png;
#LYRICSPATH:;
#CDTITLE:cdtitle.png;
#MUSIC:[Round 2 Singles] - Minarai tenshi to hoshifuri no oka.mp3;
#OFFSET:-0.028;
#SAMPLESTART:57.238;
#SAMPLELENGTH:15.000;
#SELECTABLE:YES;
#LISTSORT:;
#BPMS:0.000=174.000;
#STOPS:;
#BGCHANGES:0.000=[Round 2 Singles] - Minarai tenshi to hoshifuri no oka.avi=1.000=1=0=0,
99999=-nosongbg-=1.000=0=0=0 // don't automatically add -songbackground-
;
#ATTACKS:;

//---------------dance-single - ----------------
#NOTES:
     dance-single:
     :
     Hard:
     10:
     0.844,0.828,0.629,0.384,0.890: // measure 1
0000
0000
0000
0000
,  // measure 2
0000
0000
0000
0000
,  // measure 3
0000
0000
0000
0000
,  // measure 4
0000
0000
0000
0000
,  // measure 5
0000
0000
0000
0000
0000
0000
0000
0000
1100
0000
0000
0101
0000
0000
1100
0000
,  // measure 6
1001
0000
0000
0000
0101
0000
0000
1100
0000
0000
0101
0000
1001
0000
0000
0000
,  // measure 7
0110
0000
0000
0000
1010
0000
0000
0011
0000
0000
1010
0000
1001
0000
0000
0000
,  // measure 8
0011
0000
0000
1010
0000
0000
0011
0000
1001
0000
0000
0000
0110
0000
0000
0000
,  // measure 9
1000
0100
1000
0100
0000
0010
0000
0001
0000
0100
0010
0100
0001
1000
0010
1000
,  // measure 10
0200
0000
0000
0000
0000
0000
0000
0000
0000
0000
0000
0000
0300
0000
1000
0100
,  // measure 11
2000
0000
3001
0100
0010
0000
0110
0000
,  // measure 12
1000
0000
0001
0000
0000
0000
1000
0000
0100
0010
0100
0010
0001
0010
0001
0010
,  // measure 13
0200
0000
1300
0001
0100
0000
0110
0000
,  // measure 14
0010
0000
1000
0000
0000
0000
0001
0000
1000
0010
1000
0010
0100
0010
0100
0010
,  // measure 15
2000
0000
3100
0010
0001
0000
0110
0000
,  // measure 16
0001
0100
1000
0100
0010
1000
1001
0000
,  // measure 17
0101
0000
0000
0011
0000
0000
0101
0000
1001
0000
0000
0000
1100
0000
0000
1010
,  // measure 18
0000
0000
1100
0000
1001
0000
0000
0000
0110
0000
0000
0000
1001
0000
1000
0100
,  // measure 19
0020
0000
0000
0000
0031
0000
0100
0000
0000
0000
0100
0001
0100
0000
0010
0000
,  // measure 20
2000
0000
0000
0000
3100
0000
0010
0000
0001
1000
0001
1000
0010
1000
0010
1000
,  // measure 21
0200
0000
1300
0001
0100
0000
0110
0000
,  // measure 22
0010
0000
1000
0000
0000
0000
0001
0000
0010
0100
0010
0100
1000
0100
1000
0100
,  // measure 23
0020
0000
0000
0000
0031
0000
0100
0001
0020
0000
0000
0000
0130
0000
1000
0000
,  // measure 24
0001
1000
0100
0000
0020
0000
0031
0100
,  // measure 25
1010
0000
0000
1100
0000
0000
1010
0000
1001
0000
0000
0000
0011
0000
0000
0101
,  // measure 26
0000
0000
0000
0011
0000
0000
1001
0000
0000
0000
0000
0000
1000
0000
0100
0000
1000
0000
0001
0000
0100
0000
0001
0000
,  // measure 27
1000
0000
0100
0000
1100
0000
0001
0000
0100
0000
0101
0000
,  // measure 28
2000
0000
3020
0000
0230
0000
0301
0000
0010
0000
0100
1000
,  // measure 29
0200
0000
0310
0000
0001
0000
0200
0000
0310
1000
0001
0010
,  // measure 30
0200
0000
1000
0000
1000
0000
1300
0100
0010
0001
0010
0100
,  // measure 31
1000
0000
0010
0000
1010
0000
0001
0000
0010
0000
0011
0000
,  // measure 32
1000
0000
0001
0000
1001
0000
0010
0000
0100
0000
0110
0000
,  // measure 33
1000
0100
0010
0001
0100
0010
2000
0000
0000
0000
3001
0010
,  // measure 34
0100
1000
0010
0100
1000
0100
0002
0000
0000
0000
1003
0100
,  // measure 35
0010
0001
0010
0100
1000
0100
1000
0010
1000
0001
0100
0001
,  // measure 36
2000
0000
3200
0000
0320
0000
0031
0000
0100
0000
0010
1000
,  // measure 37
0002
0000
0013
0000
0100
0000
2000
0000
3010
0100
0001
1000
,  // measure 38
0200
0000
0010
0000
0010
0000
0310
0001
0100
1000
0100
0001
,  // measure 39
0020
0000
0000
0000
0130
0010
2000
0000
0000
0000
3001
0100
,  // measure 40
0020
0000
0000
0031
0100
0100
1000
0010
0010
0001
0100
0010
,  // measure 41
2000
0000
0000
0000
0001
0000
0000
0000
0001
0000
0000
0000
3001
0000
1000
0100
,  // measure 42
1000
0000
0001
0100
0001
0000
1000
0000
0001
0010
0001
0000
1000
0010
1000
0000
,  // measure 43
1001
0000
1000
0100
0010
0001
1001
0000
,  // measure 44
1000
0000
0100
0000
0001
0000
0100
0000
1000
0010
1000
0000
0001
0010
0001
0000
,  // measure 45
1001
0000
0010
0100
0001
1000
1001
0000
,  // measure 46
0001
0000
0100
0000
1000
0000
0100
0000
0001
0010
0001
0000
1000
0010
1000
0000
,  // measure 47
1001
0000
0000
0000
0001
0000
0100
0001
1000
0000
0010
0000
0020
0000
0000
0000
,  // measure 48
1030
0000
0100
0000
1000
0001
1000
0001
0100
0000
0010
0000
1000
0000
0100
0000
,  // measure 49
0000
0000
0011
0000
0000
1010
0000
0000
1001
0000
0000
0000
0110
0000
1000
0100
,  // measure 50
1000
0000
0001
0100
0001
0000
1000
0000
0100
0010
0001
1000
0010
0000
0100
0000
,  // measure 51
0002
0000
1003
0001
0010
0100
1100
0000
,  // measure 52
0001
0000
1000
0000
0100
0000
0010
0000
0001
0100
0001
0100
0010
0100
0010
0100
,  // measure 53
0002
0000
1003
0100
0001
0100
1100
0000
,  // measure 54
0010
0000
0001
0000
0100
0000
0010
0000
1000
0100
1000
0100
0010
0100
0010
0100
,  // measure 55
2000
0000
0000
0000
3001
0000
0100
0010
1000
0000
0001
0000
0002
0000
0000
0000
,  // measure 56
1003
0000
0001
0000
0010
0100
1000
0100
0010
0000
0001
0000
1000
0000
0010
0000
,  // measure 57
0220
0000
0000
0000
0000
0000
0000
0000
0000
0000
0000
0000
0330
0000
1000
0100
,  // measure 58
1000
0100
0010
0001
0010
0001
1000
0010
2000
0000
0000
0000
3001
0000
0000
0000
,  // measure 59
1100
0000
0000
1000
0100
0000
0000
0100
0010
0000
0000
0010
0001
0000
0000
0001
,  // measure 60
0100
0000
0000
0100
1000
0000
0000
1000
0001
0000
0000
0001
0010
0000
0000
0010
,  // measure 61
1000
0000
0000
1000
0001
0000
0000
0001
0010
0000
0000
0010
1000
0000
0000
1000
,  // measure 62
0001
0000
0000
0001
0100
0000
0000
0100
1000
0000
0000
0011
0000
0000
1010
0000
,  // measure 63
1001
0000
0000
0001
0100
0000
0000
0100
0010
0000
0000
0010
1000
0000
0000
1000
,  // measure 64
0100
0000
0000
0100
0001
0000
0000
0001
0010
0000
0000
0010
1000
0000
0000
1000
,  // measure 65
0001
0000
0000
0001
0100
0000
0000
0100
0010
0000
0000
0010
1000
0000
0001
0000
,  // measure 66
0010
0000
0000
0010
0100
0000
0000
0100
1000
0000
0001
0000
0100
0000
0010
0000
,  // measure 67
1000
0000
1100
0000
0010
0001
0010
0000
0001
0000
0101
0000
1000
0000
0000
0000
,  // measure 68
0001
0000
0101
0000
0010
1000
0010
0000
1000
0000
1100
0000
0001
0000
0001
0000
,  // measure 69
1000
0000
1010
0000
0100
0001
0100
0000
0001
0000
0011
0000
1000
0000
0000
0000
,  // measure 70
0001
0000
0011
0000
0100
1000
0100
0000
1000
0000
0000
1010
0000
0000
0001
0000
,  // measure 71
1000
0100
0010
0100
1000
0100
0010
0100
1000
0100
0010
0100
1000
0100
0010
0100
,  // measure 72
2000
0000
0000
3002
0000
0000
0000
0000
0000
0000
0103
0000
0010
0000
1000
0000
,  // measure 73
0001
0010
0001
1000
0010
1000
0001
0100
0001
1000
0100
1000
,  // measure 74
0002
0000
0013
0200
0000
1300
0001
0100
,  // measure 75
0220
0000
0000
0000
0000
0000
0000
0330
,  // measure 76
1000
0100
0001
0100
1000
0010
0100
0001
0010
1000
0010
0002
,  // measure 77
2000
0000
0000
0000
,  // measure 78
0000
0000
0003
0000
,  // measure 79
0000
0000
0000
0000
,  // measure 80
3000
0000
0000
0000
;

//---------------dance-single - ----------------
#NOTES:
     dance-single:
     :
     Medium:
     9:
     0.680,0.643,0.201,0.506,0.410:
0000
0000
0000
0000
,
0000
0000
0000
0000
,
0000
0000
0000
0000
,
0000
0000
0000
0000
,
0000
0000
0000
0000
0000
0000
0000
0000
0001
0000
0000
0001
0000
0000
0001
0000
,
0101
0000
0000
0000
1000
0000
0000
1000
0000
0000
1000
0000
1100
0000
0000
0000
,
1001
0000
0000
0000
0001
0000
0000
0001
0000
0000
0001
0000
0011
0000
0000
0000
,
1000
0000
0000
1000
0000
0000
1000
0000
1010
0000
0000
0000
0110
0000
0000
0000
,
0001
0000
0100
0010
0000
1000
0000
0010
0000
0100
0000
0001
1000
0000
0100
0010
,
0002
0000
0000
0000
0000
0000
0003
1000
,
0200
0000
0310
0200
0000
1300
0002
0000
,
1003
0000
0010
0000
0000
0000
0100
0000
0001
1000
0001
0000
0010
0000
0100
0000
,
2000
0000
3010
0200
0000
0301
2000
0000
,
3100
0000
0010
0000
0010
0000
0100
0000
1000
0001
1000
0000
0010
0000
0100
0000
,
0002
0000
0013
0200
0000
1300
0002
0000
,
0103
0010
0100
0000
0101
0000
1010
0000
,
0001
0000
0000
0010
0000
0000
0001
0000
1100
0000
0000
0000
1000
0000
0000
0010
,
0000
1000
0101
0000
1001
0000
0110
1000
,
0002
0000
0000
0000
0013
0000
0200
0000
0000
0000
1300
0000
0001
0000
0100
0010
,
0200
0000
0000
0000
0300
0000
0001
0000
1000
0000
0100
0000
0010
0001
0010
0000
,
0200
0000
1300
0002
0000
0103
0020
0000
,
1030
0000
0000
0000
0100
0000
1000
0001
1000
0000
0010
0000
0100
0000
0001
0000
,
0020
0000
0000
0000
0130
0000
1000
0001
2000
0000
0000
0000
3001
0000
0100
0000
,
0010
1000
0100
0001
0200
0000
1300
0001
,
0100
0000
0000
0010
0000
0000
0100
0000
0101
0000
0000
0000
0010
0000
0000
0100
,
0000
0010
1010
0000
1001
0000
0110
0000
,
1000
0000
0100
0000
0010
0000
0001
0000
0100
0000
0010
0000
,
1000
0000
0001
0000
0100
0000
0220
0000
0000
0330
1000
0000
,
0100
0000
0001
0000
0100
0000
1000
0000
0001
0100
0001
0000
,
2000
0000
0000
3000
0000
0000
0001
0000
0100
0000
0010
0000
,
1000
0000
0001
0000
0100
0000
0010
0000
1000
0000
0100
0000
,
0010
0000
0001
0000
1000
0000
0010
0000
0100
0000
0010
0000
,
1000
0000
0001
0100
0001
0000
2000
0000
0000
3000
0001
0000
,
1000
0000
0100
0010
0100
0000
2000
0000
0000
3000
0010
0100
,
0001
0000
0100
0000
0010
0000
1000
0000
0100
0000
0010
0000
,
0001
0000
1000
0000
0100
0000
0220
0000
0000
0330
0001
0000
,
0100
0000
1000
0000
0100
0000
0001
0000
1000
0100
1000
0000
,
0002
0000
0000
0003
0000
0000
1000
0000
0100
0000
0010
0000
,
0002
0000
0000
0000
0103
0000
0020
0000
0000
0000
1030
0000
,
0002
0000
0000
0013
0000
0010
0100
0000
0100
1000
0000
1000
,
0002
0000
0100
0000
0100
0000
0103
0001
,
0010
0000
0100
0000
0010
0000
0100
0000
1000
0001
1000
0000
0001
0000
0100
0000
,
0020
0000
0000
0000
1030
0000
0001
1000
0001
0000
0010
0000
0200
0000
0000
0000
,
1300
0000
0010
0000
0001
0000
0010
0000
1000
0001
1000
0000
0100
0000
0010
0000
,
0002
0000
0000
0000
0103
0000
0010
1000
0010
0000
0100
0000
0002
0000
0000
0000
,
0013
0000
0100
0000
0001
0000
0100
0000
1000
0001
1000
0000
0010
0000
0100
0000
,
0002
0000
0000
0000
0013
0000
0100
1000
0100
0000
0010
0000
0020
0000
0000
0000
,
0031
0000
0100
0000
0010
0000
1000
0000
0010
0100
0010
0000
1000
0000
0001
0000
,
0000
0000
0010
0000
0000
0100
0000
0000
0110
0000
0000
0000
1001
0000
0001
0000
,
0100
1000
0001
0010
1000
0100
0010
0001
,
0020
0000
0000
0000
0031
0000
1000
0001
1000
0000
0010
0000
0200
0000
0000
0000
,
0301
0000
0010
0000
1000
0000
0010
0000
0001
1000
0001
0000
0100
0000
0010
0000
,
2000
0000
0000
0000
3100
0000
0010
0001
0010
0000
0100
0000
2000
0000
0000
0000
,
3010
0000
0100
0000
1000
0000
0100
0000
0001
1000
0001
0000
0010
0000
0100
0000
,
2000
0000
0000
0000
3010
0000
0100
0001
0100
0000
0010
0000
0020
0000
0000
0000
,
1030
0000
0100
0000
0010
0000
0001
0000
0010
0100
0010
0000
0001
0000
1000
0000
,
0000
0000
0010
0000
0000
0100
0000
0000
0110
0000
0000
0000
1001
0000
1000
0000
,
0100
0001
1000
0010
0002
0000
0000
0003
,
2000
0000
3000
0001
0100
0010
1000
0100
,
0002
0000
0103
2000
0000
3010
0100
0001
,
2000
0000
3010
0100
0001
1000
0100
0010
,
0001
0100
1000
0200
0000
0310
0000
0000
,
2000
0100
3200
0310
,
0001
0100
0010
1000
0100
0010
0001
0000
,
1000
0100
0001
0200
0000
1300
0010
0001
,
0010
0100
1000
0200
0000
0301
1000
0100
,
0010
0010
0001
0001
1000
1000
0010
0010
,
0100
0001
1000
0100
0010
0001
0100
0010
,
1000
0100
0001
1000
0010
0001
0100
1000
,
0100
0010
0001
1000
0100
0001
1000
0100
,
0010
0001
0010
1000
0010
0001
0010
1000
,
0010
0000
0000
0200
0000
0000
0000
0000
0300
0000
1000
0000
0001
0000
0100
0000
,
0010
0000
0010
1000
0000
1000
0001
0000
0001
0010
0000
0010
,
0200
0000
1300
0002
0000
0103
0010
1000
,
1001
0000
0000
0000
,
0001
0100
0001
1000
0010
1000
0001
0010
0001
1000
0100
2000
,
0002
0000
0000
0000
,
0000
0000
3003
0000
;

//---------------dance-single - ----------------
#NOTES:
     dance-single:
     :
     Easy:
     5:
     0.348,0.372,0.140,0.131,0.035:
0000
0000
0000
0000
,
0000
0000
0000
0000
,
0000
0000
0000
0000
,
0000
0000
0000
0000
,
0000
0000
0000
0000
1000
0000
0000
0001
,
0100
0000
0001
0000
0000
1000
0100
0000
,
0110
0000
0001
0000
0000
1000
0100
0000
,
1000
0000
0000
0001
0100
0000
0110
0000
,
0010
1000
0001
0010
,
0200
0000
0000
0300
,
1000
0000
0001
0000
0100
0010
0100
0000
,
0001
1000
0100
0010
,
0001
0000
0000
0100
0000
0000
0010
0000
,
0100
0001
1000
0100
,
0010
0000
0000
0001
0000
0000
0100
0000
,
0001
1000
1001
1001
,
0001
0000
0000
1000
0100
0000
1000
0000
,
0000
0001
0100
0000
0110
0000
0010
0000
,
1000
0000
0001
0000
0010
0001
0010
0000
,
0100
0000
1000
0001
,
1000
0000
0000
0010
0000
0000
0100
0000
,
0001
0001
1000
0100
,
0010
0000
0000
0100
1000
0000
0100
0000
,
0010
0001
1001
1000
,
0010
0000
0000
0100
0001
0000
0010
0000
,
0000
0100
1000
0000
0010
0000
0110
0000
,
1000
0000
0001
0000
,
0100
0000
0010
0000
0100
0000
0010
0000
0000
0000
0000
0000
,
1000
0000
0100
0000
,
0020
0000
0030
0000
,
0001
0000
1000
0000
,
0010
0000
0100
0000
0010
0000
0100
0000
0000
0000
0000
0000
,
0001
0000
0000
0000
1000
0000
0100
0000
0000
0000
0000
0000
,
1000
0000
0000
0000
0001
0000
0100
0000
0000
0000
0000
0000
,
0010
0000
1000
0000
,
0001
0000
0010
0000
0100
0000
1000
0000
0000
0000
0000
0000
,
0001
0000
0100
0000
,
0020
0000
0030
0000
,
1000
0000
0100
0000
,
0010
0001
0100
0010
,
2000
0000
0000
3000
,
0001
1000
1001
0000
,
0001
0000
0100
0010
0100
0000
0002
0000
,
0000
0003
1000
0001
,
1000
0000
0100
0010
0100
0000
2000
0000
,
0000
3000
0001
1000
,
0001
0000
0010
0100
0010
0000
0002
0000
,
0000
0003
1000
0001
,
1000
0010
0100
0001
,
1000
0100
0010
0100
1000
0000
0001
0000
,
1000
0000
0010
0100
0010
0000
2000
0000
,
0000
3000
0001
1000
,
0001
0000
0010
0100
0010
0000
0002
0000
,
0000
0003
1000
0001
,
1000
0000
0100
0010
0100
0000
2000
0000
,
0000
3000
0001
1000
,
0020
0000
0030
0000
,
0100
0001
1000
0000
,
0001
0010
0100
1000
,
0001
0010
0100
1000
,
0001
0100
0010
1000
,
0001
0100
0001
0100
0000
0010
0000
0000
,
1000
0100
0010
0001
,
1000
0100
0010
0001
,
1000
0010
0100
0001
,
1000
0010
0100
0010
0000
0000
0100
0000
,
0001
0100
0101
0001
,
1000
0100
1100
1000
,
0001
0010
0011
0001
,
1000
0010
1010
1000
,
0001
0010
1000
0010
,
0001
0100
0002
0000
0000
0000
1003
0000
,
0001
0010
1000
0100
,
0001
0000
1000
0200
0000
0000
0300
0000
,
1001
0000
0000
0000
,
1000
1100
0001
0101
,
2002
0000
0000
0000
,
0000
0000
3003
0000
;

//---------------dance-single - ----------------
#NOTES:
     dance-single:
     :
     Beginner:
     2:
     0.148,0.203,0.052,0.035,0.000:
0000
0000
0000
0000
,
0000
0000
0000
0000
,
0000
0000
0000
0000
,
0000
0000
0000
0000
,
0000
0000
1000
0000
,
0000
0001
0000
0000
,
1000
0001
0000
0000
,
1000
0000
0000
0001
,
1000
0000
0000
0000
,
0200
0000
0300
0000
,
0010
0000
0010
0000
,
0010
0000
0000
0000
,
0001
0000
0001
0000
,
0001
0000
0000
0000
,
1000
0000
1000
0000
,
1000
0000
0000
0000
,
0010
0000
0000
0100
,
0000
0000
0010
0010
,
0010
0000
0000
0000
,
0100
0000
0000
0000
,
0001
0000
0000
0000
,
1000
0000
0000
0000
,
0100
0000
0100
0000
,
0000
0000
0010
0000
,
0010
0000
0000
0001
,
0000
0000
0100
0100
,
0100
0000
0000
0000
,
0010
0000
0000
0000
,
1000
0000
0001
0000
,
1000
0000
0000
0000
,
0001
0000
0000
0000
,
0010
0000
0000
0000
,
0100
0000
1000
0000
,
0100
0000
0010
0000
,
0001
0000
0000
0000
,
1000
0000
0000
0000
,
0010
0000
0000
0000
,
0100
0000
0000
0000
,
0001
0000
1000
0000
,
0100
0000
1000
0000
,
0002
0000
0003
0000
,
0100
0100
0100
0000
,
0001
0000
0000
1001
,
0000
0000
0000
0000
,
1000
0000
0000
1001
,
0000
0000
0000
0000
,
0010
0000
0000
0110
,
0000
0000
0000
0000
,
0100
0000
0000
0000
,
0100
0100
0100
0000
,
0001
0000
0000
0110
,
0000
0000
0000
0000
,
1000
0000
0000
0110
,
0000
0000
0000
0000
,
0100
0000
0000
1001
,
0000
0000
0000
0000
,
0002
0000
0003
0000
,
1000
1000
1000
0000
,
0100
0000
0100
0000
,
0100
0000
0000
0000
,
0010
0000
0010
0000
,
0010
0000
0000
0000
,
0001
0000
0001
0000
,
0001
0000
0000
0000
,
1000
0000
1000
0000
,
1000
0000
0000
0000
,
0010
0000
0010
0000
,
0100
0000
0100
0000
,
0001
0000
0001
0000
,
1000
0000
1000
0000
,
0001
0000
0010
0000
,
0100
0000
1000
0000
,
0010
0000
0100
0000
,
0001
0000
1000
0000
,
0100
0000
0000
0000
,
0001
0001
0001
0001
,
0002
0000
0000
0000
,
0000
0000
0003
0000
;
