#VERSION:0.81;
#TITLE:KiLLER LADY;
#SUBTITLE:;
#ARTIST:花たん;
#TITLETRANSLIT:;
#SUBTITLETRANSLIT:;
#ARTISTTRANSLIT:Hanatan;
#GENRE:;
#ORIGIN:;
#CREDIT:;
#BANNER:[Round 2 Singles] - KiLLER LADY.png;
#BACKGROUND:[Round 2 Singles] - KiLLER LADY-bg.png;
#PREVIEWVID:;
#JACKET:[Round 2 Singles] - KiLLER LADY-jacket.png;
#CDIMAGE:;
#DISCIMAGE:;
#LYRICSPATH:;
#CDTITLE:;
#MUSIC:[Round 2 Singles] - KiLLER LADY.ogg;
#OFFSET:-0.582;
#SAMPLESTART:58.683;
#SAMPLELENGTH:14.545;
#SELECTABLE:YES;
#BPMS:0.000=132.000;
#STOPS:;
#DELAYS:;
#WARPS:;
#TIMESIGNATURES:0.000=4=4;
#TICKCOUNTS:0.000=4;
#COMBOS:0.000=1;
#SPEEDS:0.000=1.000=0.000=0;
#SCROLLS:0.000=1.000;
#FAKES:;
#LABELS:0.000=Song Start;
#BGCHANGES:;
#KEYSOUNDS:;
#ATTACKS:
;

//---------------dance-single - ----------------
#NOTEDATA:;
#CHARTNAME:;
#STEPSTYPE:dance-single;
#DESCRIPTION:;
#CHARTSTYLE:;
#DIFFICULTY:Hard;
#METER:8;
#RADARVALUES:0.571,0.561,0.351,0.501,0.242,377.000,42.000,60.000,0.000,0.000,0.000,0.000,0.000,0.571,0.561,0.351,0.501,0.242,377.000,42.000,60.000,0.000,0.000,0.000,0.000,0.000;
#CREDIT:;
#NOTES:
// measure 0
0000
0000
0000
0000
,  // measure 1
0000
0000
0000
0000
,  // measure 2
0000
0000
0000
0000
,  // measure 3
0000
0000
0000
0000
,  // measure 4
0000
2000
0001
3002
,  // measure 5
0010
0023
0100
0100
,  // measure 6
0100
0230
1000
2300
,  // measure 7
3001
0000
0001
0000
1000
0000
1000
0000
0001
1000
0001
1000
0002
0000
0000
0000
,  // measure 8
1003
0000
0010
0000
0200
0000
0000
0001
0000
0001
0000
0000
0301
0000
0000
0000
,  // measure 9
0001
0000
0010
0000
0200
0000
0000
1000
0000
1000
0000
0000
1300
0000
0000
0000
,  // measure 10
1000
0000
0001
0000
0200
0000
0000
0010
0000
0010
0000
0000
0310
0000
0000
0000
,  // measure 11
0010
0000
1000
0000
0200
0000
0000
0010
0000
0010
0000
0000
0310
0000
0000
0000
,  // measure 12
0010
0001
0010
0001
0100
0000
0010
1000
0000
0200
0000
0000
0310
0000
0000
0000
,  // measure 13
0100
1000
0010
0000
0100
0000
0001
0010
0000
0002
0000
0000
0103
0000
0000
0000
,  // measure 14
0010
1000
0010
0000
1000
0000
0001
1000
0000
0002
0000
0000
1003
0000
0000
0000
,  // measure 15
0001
0000
0010
0000
0100
0000
1000
0000
0010
0100
0001
1000
0200
0000
0000
0000
,  // measure 16
0310
0000
0000
0010
0000
0000
0020
0000
0000
0000
0001
0000
0001
0000
0001
0000
,  // measure 17
0031
0000
0000
0001
0000
0000
0002
0000
0000
0000
0100
0000
0100
0000
0100
0000
,  // measure 18
0103
0000
0000
0100
0000
0000
0200
0000
0000
0000
0010
0000
0010
0000
0010
0000
,  // measure 19
0310
0000
0000
0010
0000
0000
0020
0000
0000
0000
1000
0000
1030
0000
1000
0100
,  // measure 20
0010
0000
0000
0001
0000
0000
0012
0000
0000
0000
0010
0000
0010
0000
0013
0000
,  // measure 21
0001
0000
0000
0100
0000
0000
0201
0000
0000
0000
0001
0000
0001
0000
0301
0000
,  // measure 22
0100
0010
1000
0200
0000
0010
0010
0310
,  // measure 23
0010
0000
0000
0001
0000
0000
2002
0000
0000
0000
0003
0000
0000
0000
0000
0000
,  // measure 24
3001
0010
1000
0010
0001
0100
1000
0000
,  // measure 25
1000
0100
0001
0010
0100
1000
0010
0000
,  // measure 26
0100
0000
0100
0002
0000
0000
0013
0000
0010
0200
0000
0000
1300
0000
1000
0020
,  // measure 27
0000
0000
0130
0000
0100
0002
0000
0000
0013
0100
1000
0000
0002
0000
0000
0000
,  // measure 28
1003
0010
0001
0010
1000
0100
0001
0100
,  // measure 29
1000
0010
0001
1000
0100
0001
0010
0000
,  // measure 30
0100
0000
0000
1100
0000
0000
1000
0000
0000
2001
0000
0000
0001
0000
3001
0000
,  // measure 31
0000
0000
0101
0000
0000
0110
0000
0000
2010
0000
0000
0000
3001
0000
0000
0000
,  // measure 32
0021
0130
2010
3001
,  // measure 33
0001
0100
1000
0100
0001
0000
0101
0001
,  // measure 34
0010
0021
0130
2100
,  // measure 35
3010
0100
0101
0001
1001
0000
1100
0000
,  // measure 36
0120
0031
0012
1003
,  // measure 37
1001
1000
0010
0100
0001
0000
0001
0010
,  // measure 38
0100
1200
0310
0120
,  // measure 39
0031
0100
1000
0010
0001
0000
0011
0000
,  // measure 40
1010
0000
1000
0001
0100
0000
0100
0001
,  // measure 41
0010
0100
1000
0001
0100
0000
0101
0001
,  // measure 42
1001
0000
1100
0000
0110
0010
0011
0000
,  // measure 43
0001
0100
0010
1000
0001
0000
1100
0000
,  // measure 44
0101
0000
0100
0010
1000
0000
1000
0001
,  // measure 45
0010
1000
0001
0100
2000
0001
0001
3002
,  // measure 46
0000
1003
0010
0100
0101
0001
1001
1000
,  // measure 47
1010
0011
2002
3003
,  // measure 48
0101
0000
2010
0000
0001
0001
0001
0001
,  // measure 49
3001
0000
1002
0000
0010
0010
0010
0010
,  // measure 50
0013
0000
0021
0000
0100
0100
0100
0100
,  // measure 51
0130
0000
0210
0000
1000
1000
1000
1000
,  // measure 52
1300
0000
2100
0000
0001
0001
0001
0001
,  // measure 53
3001
0000
1002
0000
1000
1000
1000
1000
,  // measure 54
2003
3200
0320
0032
,  // measure 55
2000
0000
0003
0000
0001
0001
0001
0001
,  // measure 56
3001
0000
0100
0000
0020
0000
0000
1000
0000
1000
0000
0000
1030
0000
0000
0000
,  // measure 57
1000
0000
0001
0000
0020
0000
0000
0001
0000
0001
0000
0000
0031
0000
0000
0000
,  // measure 58
0001
0000
0100
0000
0020
0000
0000
0100
0000
0100
0000
0000
0130
0000
0000
0000
,  // measure 59
0100
0000
0001
0000
0020
0000
0000
0100
0000
0100
0000
0000
0130
0000
0100
0000
,  // measure 60
1000
0001
1000
0001
1000
0000
1000
0010
0000
0002
0000
0000
0013
0000
1000
0000
,  // measure 61
0001
0010
0100
0000
1000
0000
0001
0100
0000
2000
0000
0000
3100
0000
0001
0000
,  // measure 62
1000
0001
0010
0000
0100
0000
1000
0010
0000
0200
0000
0000
0301
0000
0000
0000
,  // measure 63
1000
0000
0100
0000
0001
0000
1000
0000
0010
0000
0001
0000
0100
0010
0100
0010
;

//---------------dance-single - ----------------
#NOTEDATA:;
#CHARTNAME:;
#STEPSTYPE:dance-single;
#DESCRIPTION:;
#CHARTSTYLE:;
#DIFFICULTY:Medium;
#METER:6;
#RADARVALUES:0.403,0.400,0.067,0.209,0.054,305.000,8.000,25.000,0.000,0.000,0.000,0.000,0.000,0.403,0.400,0.067,0.209,0.054,305.000,8.000,25.000,0.000,0.000,0.000,0.000,0.000;
#CREDIT:;
#NOTES:
0000
0000
0000
0000
,
0000
0000
0000
0000
,
0000
0000
0000
0000
,
0000
0000
0000
0000
,
0000
1000
1000
0001
,
0001
0100
0010
1000
,
0001
0001
1000
1000
,
0100
0100
0010
0010
0001
1000
0010
0000
,
0100
0001
1000
0000
0100
0100
0100
0000
,
1000
0001
0100
0000
0010
0010
0010
0000
,
0100
0010
1000
0000
0001
0001
0001
0000
,
1000
0100
0010
0000
0001
0001
0001
0000
,
1000
0001
0100
0010
1000
1000
1000
0000
,
0001
0010
0100
1000
0001
0001
0001
0000
,
1000
0100
0010
0001
0100
0100
0100
0000
,
0010
0010
1000
1000
0001
0010
0100
0000
,
1000
0000
0000
0100
0000
0000
2000
0000
0000
0000
0000
0000
3100
0000
1000
0000
,
0001
0000
0000
1000
0000
0000
0002
0000
0000
0000
0000
0000
1000
0003
0001
0000
,
0100
0000
0000
0001
0000
0000
0200
0000
0000
0000
0000
0000
0301
0000
0100
0000
,
0010
0000
0000
0100
0000
0000
0020
0000
0000
0000
0000
0000
0130
0000
0010
0000
,
1000
0000
0000
0010
0000
0000
2000
0000
0000
0000
0000
0000
3001
0000
1000
0000
,
0001
0000
0000
0010
0000
0000
0002
0000
0000
0000
0000
0000
1003
0000
0001
0000
,
1000
0100
0001
0200
0000
2300
0000
3001
,
0100
0000
0000
0010
0000
0000
2000
0000
0000
0000
3000
0000
0000
0000
0000
0000
,
0010
0000
0100
0000
0001
0010
0200
0000
,
1300
0000
0001
0000
0100
0010
2000
0000
,
3100
0000
0000
1000
0000
0000
0100
0000
1000
0000
0000
0000
0001
0000
0000
1000
,
0000
0000
0001
0000
0000
0100
0000
0000
0010
0000
0010
0000
0020
0000
0000
0000
,
0130
0000
0010
0000
1000
0100
0002
0000
,
0103
0000
1000
0000
0001
0100
2000
0000
,
3100
0000
0000
0200
0000
0000
0301
0000
0000
0002
0000
0000
1003
0000
2000
0000
,
3000
0000
0200
0000
0000
0320
0000
0000
0032
0000
0000
0000
0003
0000
0000
0000
,
1000
0100
1000
0001
,
0100
0000
0010
1000
0010
0000
1000
0001
,
1000
0100
1000
0001
,
0010
0000
0100
0010
0100
0000
0110
0000
,
1001
1000
0010
0100
,
0001
0100
0001
1000
0100
0000
1000
0000
,
0100
0100
0010
0010
,
0001
0010
0100
1000
0010
0000
0110
0000
,
0101
0001
1000
0100
,
0010
0001
1000
0001
1000
0000
0010
1000
,
0010
0000
0100
0000
0001
0100
0001
0000
,
1000
0001
1000
0100
0010
0000
0011
0000
,
1001
0000
1000
0010
0100
0000
0100
0001
,
0020
0000
1000
0000
0031
0000
0010
0001
,
1000
0000
0010
0000
0100
0001
1000
0001
,
0010
0100
2002
3003
,
0001
0100
0010
0010
,
0010
1000
0001
0001
,
0001
0010
0100
0100
,
0100
1000
0001
0001
,
0001
0100
0010
0010
,
0010
1000
0001
0001
,
0001
0010
1000
0010
,
0001
1000
2002
3003
,
0001
0000
0100
0000
0010
0100
0010
0000
,
1000
0000
0100
0000
1000
0100
1000
0001
,
0100
0001
0100
0000
0010
0100
0010
0000
,
1000
0000
0010
0000
0100
0001
0010
0100
,
1000
0000
0001
0000
0010
0100
1000
0000
,
0001
0000
0100
0000
0010
1000
0001
0000
,
1000
0000
0001
0000
0010
0001
0010
0000
,
0001
0000
0100
0000
0010
0100
0010
1000
;

//---------------dance-single - ----------------
#NOTEDATA:;
#CHARTNAME:;
#STEPSTYPE:dance-single;
#DESCRIPTION:;
#CHARTSTYLE:;
#DIFFICULTY:Easy;
#METER:3;
#RADARVALUES:0.271,0.266,0.067,0.042,0.000,214.000,8.000,5.000,0.000,0.000,0.000,0.000,0.000,0.271,0.266,0.067,0.042,0.000,214.000,8.000,5.000,0.000,0.000,0.000,0.000,0.000;
#CREDIT:;
#NOTES:
0000
0000
0000
0000
,
0000
0000
0000
0000
,
0000
0000
0000
0000
,
0000
0000
0000
0000
,
0000
1000
0000
0001
,
0000
0100
0100
0100
,
0000
0010
0000
1000
,
0001
1000
0001
1000
,
0001
0100
0010
0010
,
1000
0100
0010
0010
,
0100
1000
0001
0001
,
1000
0001
1000
1000
,
1000
0010
0010
0100
,
0100
0001
0001
0001
,
0001
1000
1000
0100
,
0100
0010
0001
1000
,
0010
0010
0010
0000
,
0100
0100
0100
0000
,
0001
0001
0001
0000
,
1000
1000
1000
0000
,
0100
1000
0100
0000
,
0010
0001
0010
0000
,
0001
0001
1000
1000
,
0010
0100
0010
0000
,
0100
0001
1000
0000
,
1000
0100
0010
0000
,
0001
0001
1000
1000
,
0010
0100
0001
1000
,
0100
0010
0001
0000
,
0001
1000
0010
0000
,
0100
0100
0001
0001
,
1001
1001
1001
0000
,
2000
0100
3002
0100
,
1003
0001
1001
0000
,
2000
0010
3002
0010
,
1003
0001
1001
0000
,
1000
1000
0100
0100
,
0010
0001
0011
0000
,
0001
0001
0100
0100
,
0010
1000
1010
0000
,
0010
0010
1000
1000
,
0001
1000
0001
0000
,
1000
1000
0100
0100
,
0010
0001
0100
0100
,
0100
0010
1000
0001
,
1000
1000
1000
1000
,
0100
0010
0001
0001
,
0002
0000
0003
0000
,
1000
0001
0100
0100
,
0100
0001
1000
1000
,
1000
0100
0010
0010
,
0010
0001
1000
1000
,
1000
0010
0100
0100
,
0100
0001
0010
0010
,
0100
0100
1000
1000
,
0001
0001
1001
0000
,
1000
0010
0100
0100
,
0001
1000
0100
1000
,
0001
0100
0010
0010
,
1000
0001
0010
0001
,
1000
0010
0010
0100
,
0100
0001
0001
0001
,
0001
1000
1000
0100
,
0100
0010
0001
1000
;

//---------------dance-single - ----------------
#NOTEDATA:;
#CHARTNAME:;
#STEPSTYPE:dance-single;
#DESCRIPTION:;
#CHARTSTYLE:;
#DIFFICULTY:Beginner;
#METER:1;
#RADARVALUES:0.098,0.105,0.000,0.000,0.000,82.000,0.000,0.000,0.000,0.000,0.000,0.000,0.000,0.098,0.105,0.000,0.000,0.000,82.000,0.000,0.000,0.000,0.000,0.000,0.000,0.000;
#CREDIT:;
#NOTES:
0000
0000
0000
0000
,
0000
0000
0000
0000
,
0000
0000
0000
0000
,
0000
0000
0000
0000
,
0000
0000
0000
0000
,
0000
0000
0000
0000
,
0000
0000
0000
0000
,
0000
0000
0000
0000
,
1000
0000
0000
0000
,
0010
0000
0010
0000
,
0010
0000
0000
0000
,
0100
0000
0100
0000
,
0100
0000
0000
0000
,
0001
0000
0001
0000
,
0001
0000
0000
0000
,
1000
0000
1000
0000
,
1000
0000
0000
0000
,
0001
0000
0000
0000
,
1000
0000
0000
0000
,
0001
0000
0000
0000
,
0010
0000
0000
0000
,
0100
0000
0000
0000
,
0010
0000
0000
0000
,
0100
0000
0000
0000
,
1000
0000
1000
0000
,
0001
0000
0001
0000
,
0100
0000
0000
0000
,
0010
0000
0000
0000
,
1000
0000
1000
0000
,
0001
0000
0001
0000
,
0010
0000
0100
0000
,
1000
0000
0000
0000
,
0001
0000
0001
0000
,
0001
0000
0000
0000
,
1000
0000
1000
0000
,
1000
0000
0000
0000
,
0010
0000
0010
0000
,
0010
0000
0000
0000
,
0100
0000
0100
0000
,
0100
0000
0000
0000
,
0001
0000
0100
0000
,
0001
0000
0001
0000
,
1000
0000
0100
0000
,
1000
0000
1000
0000
,
0001
0000
0100
0000
,
0010
0000
1000
0000
,
0100
0000
0010
0000
,
0001
0000
0000
0000
,
1000
0000
0000
0000
,
0010
0000
0000
0000
,
1000
0000
0000
0000
,
0001
0000
0000
0000
,
0010
0000
0000
0000
,
0100
0000
0000
0000
,
1000
0000
0001
0000
,
1000
0000
0001
0000
,
0100
0000
0000
0000
,
0010
0000
0010
0000
,
0010
0000
0000
0000
,
1000
0000
1000
0000
,
1000
0000
0000
0000
,
0001
0000
0001
0000
,
0001
0000
0010
0000
,
0100
0000
0000
0000
;
