#VERSION:0.81;
#TITLE:Iris;
#SUBTITLE:;
#ARTIST:Sta;
#TITLETRANSLIT:;
#SUBTITLETRANSLIT:;
#ARTISTTRANSLIT:;
#GENRE:;
#ORIGIN:;
#CREDIT:TaroNuke;
#BANNER:bn.png;
#BACKGROUND:bg.png;
#PREVIEWVID:;
#JACKET:;
#CDIMAGE:;
#DISCIMAGE:bg_cytus.png;
#LYRICSPATH:;
#CDTITLE:;
#MUSIC:Sta - Iris.ogg;
#OFFSET:-0.844;
#SAMPLESTART:15.573;
#SAMPLELENGTH:12.000;
#SELECTABLE:YES;
#BPMS:0.000=195.000;
#STOPS:;
#DELAYS:;
#WARPS:;
#TIMESIGNATURES:0.000=4=4;
#TICKCOUNTS:0.000=4;
#COMBOS:0.000=1;
#SPEEDS:0.000=1.000=0.000=0;
#SCROLLS:0.000=1.000;
#FAKES:;
#LABELS:0.000=Song Start;
#BGCHANGES:0.000=bg.png=1.000=0=0=1=====,
99999=-nosongbg-=1.000=0=0=0 // don't automatically add -songbackground-
;
#KEYSOUNDS:;
#ATTACKS:
;

//---------------dance-single - TaroNuke----------------
#NOTEDATA:;
#CHARTNAME:TaroNuke;
#STEPSTYPE:dance-single;
#DESCRIPTION:TaroNuke;
#CHARTSTYLE:;
#DIFFICULTY:Hard;
#METER:9;
#RADARVALUES:0.567,0.623,0.305,0.381,0.000,388.000,36.000,45.000,0.000,0.000,0.000,0.000,0.000,0.567,0.623,0.305,0.381,0.000,388.000,36.000,45.000,0.000,0.000,0.000,0.000,0.000;
#CREDIT:TaroNuke;
#NOTES:
0000
0000
0000
0000
,
0000
0000
0000
0000
,
0000
0000
0000
0000
,
0000
0000
0000
0000
,
0000
0000
0000
0000
,
0000
0000
0000
0000
,
1000
0000
0100
0000
1100
0000
0000
0110
,
0000
0000
0010
0001
1000
0000
0010
0000
,
1010
0000
0000
0110
0000
0000
0100
0001
,
0010
0000
0001
0000
0011
0000
0000
0110
,
0000
0000
0010
0001
0100
0000
0001
0000
,
0101
0000
1000
0001
0100
0100
0010
0010
,
2000
0000
3100
0010
0001
0100
0020
0000
,
0100
0000
0130
0000
0002
0000
0013
0100
,
1000
0010
0200
0000
0010
0000
0310
0000
,
0002
0000
1003
0100
0010
0001
2000
0000
,
0010
3010
0002
0023
,
0230
2300
3200
0320
,
0032
0000
0103
0010
1000
0100
0020
0000
,
0001
0000
0031
0000
2000
0000
3100
0010
,
0001
0100
0020
0000
1000
0000
1030
0000
,
0001
0100
0001
0000
1000
0100
0020
0000
,
0001
0000
0130
0000
1000
0100
1000
0000
,
0001
0100
0020
0000
1000
0000
0130
0000
,
0001
0100
0000
1010
0000
1010
0000
1000
,
0100
0010
0001
0000
1000
0010
0000
0101
,
0000
0101
0000
0001
0100
0010
1000
0000
,
0001
0010
0000
1100
0000
1100
0000
1000
,
0100
0010
0001
0100
0020
0000
0000
2030
,
0000
3002
0023
0230
,
1300
0010
0000
0101
0000
0101
0000
1000
,
0001
0010
0100
0000
1000
0100
0000
0011
,
0000
0011
0000
0001
0100
0010
1000
0000
,
0001
0010
0000
1100
0000
1100
0000
1000
,
0100
0010
0001
0100
0010
0010
0000
1001
,
0000
0220
0000
0000
0000
0000
0330
0000
,
2001
0000
0100
0000
0000
3100
0000
0000
,
0000
0000
0000
0000
,
0000
0000
0000
0000
,
1002
0000
0100
0000
0000
0103
0000
0000
,
0000
0000
0000
0000
,
0000
0000
0000
0000
,
1002
0000
0010
0000
0000
0013
0000
0000
,
0000
0000
0000
0000
,
0000
0000
0000
0000
,
2001
0000
0010
0000
0000
3020
0000
0000
,
0000
0000
0000
0000
,
0000
0000
0000
0030
,
0000
1000
0100
1100
,
1000
0100
0010
0000
0011
0000
0001
0100
,
0010
1000
0001
1001
,
0001
0100
0010
0000
1010
0000
1000
0100
,
0010
0001
0100
0101
,
0001
0100
0010
0000
1010
0000
1000
0001
,
0010
0000
0100
1000
0100
0010
0001
0000
,
1000
0100
0010
0000
0101
0000
0001
1000
,
0100
1000
0001
0100
1000
0100
0010
0000
,
1000
0100
0010
0011
0000
0000
1000
0001
,
0100
0001
1000
0100
0001
0100
0010
0000
,
0001
0100
0010
1010
0000
0000
0001
1000
,
0100
1000
0001
0010
1000
0010
0100
0000
,
1000
0010
0100
0101
0000
0000
0001
0010
,
0100
1000
0001
0100
1000
0100
0010
0000
,
1000
0100
0010
0100
0001
0100
0010
0001
,
1000
0010
0200
0000
0000
0000
0000
0000
,
0000
0000
0000
0000
,
0000
0000
0000
0000
,
0300
0000
2002
0000
,
0000
0000
0000
0000
,
0000
0000
3003
0000
,
2000
0000
3001
0100
0001
0100
0010
0000
,
1000
0100
1000
0100
0010
0001
1000
0010
,
0100
0001
0100
0001
1000
0000
0001
0010
,
0100
1000
0010
0100
0010
0100
0001
0000
,
1000
0010
1000
0010
0100
0001
1000
0100
,
0010
0001
0010
0100
1000
0010
0100
0001
,
0100
0010
2000
0000
3001
0010
0100
1000
,
0020
1000
0000
0000
1030
0000
0002
0000
,
1003
0010
0100
0001
0020
0100
0100
0000
,
0130
0000
1000
0100
1000
0100
0010
0001
,
0200
1000
0000
0000
0301
0000
0001
0100
,
0001
0100
0010
1000
0200
0000
0001
0000
,
1300
0000
0001
0020
0000
1000
0000
0031
,
0000
1000
0001
0010
0100
1000
0001
0200
,
0000
1000
0000
0301
0000
1000
0010
0100
,
0001
1000
0100
0020
0000
0001
0000
1030
,
0000
0001
0100
0010
1000
0100
1000
0010
,
0100
0001
0100
0010
1000
0100
0010
0001
,
0010
0100
2000
0000
0000
0000
0000
0000
,
0000
0010
0000
0010
0000
0010
0000
0010
,
0000
0010
0000
0010
0000
0010
0000
0002
,
0000
0000
0000
0000
,
3003
0000
0000
0000
;

//---------------dance-single - TaroNuke----------------
#NOTEDATA:;
#CHARTNAME:TaroNuke;
#STEPSTYPE:dance-single;
#DESCRIPTION:TaroNuke;
#CHARTSTYLE:;
#DIFFICULTY:Medium;
#METER:7;
#RADARVALUES:0.462,0.539,0.245,0.406,0.000,305.000,29.000,48.000,0.000,0.000,0.000,0.000,0.000,0.462,0.539,0.245,0.406,0.000,305.000,29.000,48.000,0.000,0.000,0.000,0.000,0.000;
#CREDIT:TaroNuke;
#NOTES:
0000
0000
0000
0000
,
0000
0000
0000
0000
,
0000
0000
0000
0000
,
0000
0000
0000
0000
,
0000
0000
0000
0000
,
0000
0000
0000
0000
,
1000
0000
0100
0000
1000
0000
0000
0110
,
0000
0000
0001
1000
0001
0000
0100
0000
,
0001
0000
0000
0110
0000
0000
1000
0001
,
1000
0000
0010
0000
1000
0000
0000
0101
,
0000
0000
0001
1000
0001
0000
0010
0000
,
0100
1000
0010
0100
,
0002
0103
0100
0020
,
1030
0000
1000
0000
0200
0000
0300
1000
,
0100
0010
0002
0000
1000
0000
1003
0000
,
0002
0000
0103
0000
0010
1000
0010
0000
,
0100
0001
2000
3200
,
0320
0032
0023
0230
,
2300
3100
0100
0020
,
0031
0000
0001
0000
0200
0000
0300
0001
,
0100
0010
2000
0000
0001
0000
3001
0000
,
2000
0000
3100
0000
0010
0001
0010
0000
,
0200
2300
3002
0203
,
0320
2030
0001
3001
,
1100
0000
0000
1000
0000
0100
0000
1000
,
0100
0000
0110
0000
0011
0000
0000
0010
,
0000
0001
0000
0010
0001
0000
1001
0000
,
1010
0000
0000
0010
0000
1000
0000
0010
,
1000
0000
0110
0000
0002
0000
0000
2003
,
0000
3200
0320
0032
,
0103
0000
0000
0001
0000
0100
0000
0001
,
0100
0000
1001
0000
0011
0000
0000
0001
,
0000
0010
0000
0001
0010
0000
0110
0000
,
1100
0000
0000
0100
0000
1000
0000
0100
,
1000
0000
1001
0000
0001
0100
0000
0010
,
0000
2002
0000
0000
0000
0000
3003
0000
,
0110
0000
1001
0000
0000
1001
0000
0000
,
0000
0000
0000
0000
,
0000
0000
0000
0000
,
1001
0000
0110
0000
0000
0110
0000
0000
,
0000
0000
0000
0000
,
0000
0000
0000
0000
,
0110
0000
1001
0000
0000
1001
0000
0000
,
0000
0000
0000
0000
,
0000
0000
0000
0000
,
1001
0000
0110
0000
0000
0220
0000
0000
,
0000
0000
0000
0000
,
0000
0000
0000
0330
,
0000
0000
1000
0100
1000
0000
0001
0010
,
0001
1000
0010
0100
,
0001
0000
1000
0010
1000
0000
0001
0100
,
0001
1000
0100
0010
,
0001
0000
1000
0010
0100
0000
0001
0010
,
0100
1000
0001
0100
,
0010
0000
1000
0100
0010
0000
0001
0100
,
0010
0000
1000
0000
1000
0000
0001
0010
,
0100
1000
0001
0000
1000
0000
0010
0000
,
1000
0001
1000
0001
0100
0000
0010
0000
,
1000
0100
0010
0001
,
1000
0010
1000
0010
0100
0000
0001
0000
,
1000
0100
0010
0000
0001
0000
1000
0000
,
0001
0100
0001
0100
0010
0000
1000
0000
,
0001
0010
0100
0000
1000
0000
0001
0000
,
0100
0010
1000
0010
0100
0000
0001
0010
,
0100
1000
0020
0000
0000
0000
0000
0000
,
0000
0000
0000
0000
,
0000
0000
0000
0000
,
0030
0000
2002
0000
,
0000
0000
0000
0000
,
0000
0000
3003
0000
,
2000
3001
0100
0010
,
1000
0001
1000
0000
0010
0100
0010
0000
,
1000
0000
0100
0000
0010
0000
0001
1000
,
0001
0000
0010
0100
0010
0000
0001
0000
,
1000
0010
0100
1000
,
0100
0010
1000
0100
,
0010
0002
0103
0100
,
0020
1030
1000
0200
,
0300
1000
0100
0010
0002
0000
1000
0000
,
1003
0000
0002
0000
0103
0000
0010
1000
,
0010
0100
0001
2000
,
3200
0320
0032
0023
,
0230
0000
1300
0000
0000
0001
0000
0100
,
0000
0010
1000
0000
1000
0000
0001
0000
,
0000
1000
0000
0100
0000
0010
0001
0000
,
0001
0000
1000
0000
0000
0010
0000
0100
,
0000
0001
0010
0000
0010
0000
0001
1000
,
0001
1000
0001
0000
0100
0010
0100
0010
,
0100
2002
0000
0000
,
0000
0000
0000
0000
,
0000
0000
0000
0000
,
3003
0000
0000
0000
;

//---------------dance-single - TaroNuke----------------
#NOTEDATA:;
#CHARTNAME:TaroNuke;
#STEPSTYPE:dance-single;
#DESCRIPTION:TaroNuke;
#CHARTSTYLE:;
#DIFFICULTY:Easy;
#METER:4;
#RADARVALUES:0.280,0.346,0.118,0.195,0.000,195.000,14.000,23.000,0.000,0.000,0.000,0.000,0.000,0.280,0.346,0.118,0.195,0.000,195.000,14.000,23.000,0.000,0.000,0.000,0.000,0.000;
#CREDIT:TaroNuke;
#NOTES:
0000
0000
0000
0000
,
0000
0000
0000
0000
,
0000
0000
0000
0000
,
0000
0000
0000
0000
,
0000
0000
0000
0000
,
0000
0000
0000
0000
,
1000
0000
1000
0000
1000
0000
0000
1100
,
0000
0000
0100
0100
,
0100
0000
0000
0101
0000
0000
0000
0000
,
0001
0000
0001
0000
0001
0000
0000
0011
,
0000
0000
0010
0010
,
0010
0000
0000
1010
0000
0000
1000
0000
,
0001
0100
0001
1000
,
0100
1000
0002
0000
,
1003
0020
0000
0130
,
0001
0001
0000
1000
,
1000
0000
0001
0010
,
0100
1000
0100
0010
,
0001
0100
0001
1000
,
0100
1000
0002
0000
,
1003
0200
0000
0310
,
0001
0001
0000
1000
,
1000
0000
0001
0100
,
0010
1000
0001
0001
,
2000
0000
0000
0001
0000
3001
0000
0000
,
0000
0000
0000
0000
0200
0000
0000
0001
,
0000
0301
0000
0000
0000
0000
0000
0000
,
0002
0000
0000
1000
0000
1003
0000
0000
,
0000
0000
0001
0010
,
0100
1000
0100
0010
,
0002
0000
0000
1000
0000
1003
0000
0000
,
0000
0000
0000
0000
0020
0000
0000
1000
,
0000
1030
0000
0000
0000
0000
0000
0000
,
2000
0000
0000
0001
0000
3001
0000
0000
,
0000
0000
0000
0000
0001
1000
0000
0001
,
0000
0200
0000
0000
0000
0000
0000
0000
,
0300
0000
0101
0000
0000
0101
0000
0000
,
0000
0000
0000
0000
,
0000
0000
0000
0000
,
0000
0000
1100
0000
0000
1100
0000
0000
,
0000
0000
0000
0000
,
0000
0000
0000
0000
,
0000
0000
1010
0000
0000
1010
0000
0000
,
0000
0000
0000
0000
,
0000
0000
0000
0000
,
0000
0000
0011
0000
0000
0022
0000
0000
,
0000
0000
0000
0000
,
0000
0000
0000
0033
,
0000
1000
0100
1000
,
0100
0010
0000
0010
,
0000
0001
0100
0001
,
0100
0010
0000
0010
,
0000
1000
0001
1000
,
0001
0100
0000
0100
,
0000
0010
0100
0010
,
0100
0001
0000
0001
,
0000
1000
0000
0100
,
0000
0010
0001
0100
,
0010
1000
0000
0010
,
0000
0100
0001
0010
,
0100
1000
0000
0001
,
0000
1000
0001
0100
,
0010
1000
0000
0001
,
0000
1000
0100
0010
,
0001
0020
0000
0000
,
0000
0000
0000
0000
,
0000
0000
0000
0000
,
0030
0000
2002
0000
,
0000
0000
0000
0000
,
0000
0000
3003
0000
,
1000
0001
0000
0001
,
0000
0100
0000
0100
,
0000
0010
0000
0010
,
0000
1000
0000
1000
,
0000
0100
0000
1000
,
0100
1000
0001
0100
,
0001
1000
0010
1000
,
0001
0010
0001
2000
,
0000
3001
0200
0000
,
0310
1000
1000
0000
,
0001
0001
0000
1000
,
0100
0010
0001
0010
,
0100
0000
2000
0000
0000
0100
0000
3100
,
0000
0000
0000
0200
,
0000
0010
0000
0310
0000
0000
0000
0000
,
0000
0000
0002
0000
0000
0100
0000
0103
,
0000
0000
0000
1000
,
0100
0010
0001
0010
,
0100
2002
0000
0000
,
0000
0000
0000
0000
,
0000
0000
0000
0000
,
3003
0000
0000
0000
;

//---------------dance-single - TaroNuke----------------
#NOTEDATA:;
#CHARTNAME:TaroNuke;
#STEPSTYPE:dance-single;
#DESCRIPTION:TaroNuke;
#CHARTSTYLE:;
#DIFFICULTY:Beginner;
#METER:2;
#RADARVALUES:0.168,0.269,0.068,0.135,0.000,115.000,8.000,16.000,0.000,0.000,0.000,0.000,0.000,0.168,0.269,0.068,0.135,0.000,115.000,8.000,16.000,0.000,0.000,0.000,0.000,0.000;
#CREDIT:TaroNuke;
#NOTES:
0000
0000
0000
0000
,
0000
0000
0000
0000
,
0000
0000
0000
0000
,
0000
0000
0000
0000
,
0000
0000
0000
0000
,
0000
0000
0000
0000
,
1000
0000
0000
0000
,
0000
0000
0001
0000
,
0000
0000
0000
0000
,
0100
0000
0000
0000
,
0000
0000
0010
0000
,
0000
1000
0000
0000
,
0002
0000
0003
2000
,
0000
3000
0020
0000
,
0030
0200
0000
0300
,
0001
0000
0000
0001
,
0000
0000
1000
0000
,
0000
1000
0000
0000
,
0002
0000
0003
0020
,
0000
0030
2000
0000
,
3000
0200
0000
0300
,
0001
0000
0000
0001
,
0000
0000
1000
0000
,
0000
1000
0000
0000
,
0001
0001
0001
0001
,
0001
0000
0100
0100
,
0100
0100
0100
0000
,
0010
0010
0010
0010
,
0010
0000
1000
0000
,
0000
0000
0000
0000
,
1000
1000
1000
1000
,
1000
0000
0100
0100
,
0100
0100
0100
0000
,
0010
0010
0010
0010
,
0010
0000
0001
0001
,
0001
0001
0000
0000
,
0000
1001
0000
0000
,
0000
0000
0000
0000
,
0000
0000
0000
0000
,
0000
0110
0000
0000
,
0000
0000
0000
0000
,
0000
0000
0000
0000
,
0000
1010
0000
0000
,
0000
0000
0000
0000
,
0000
0000
0000
0000
,
0000
0101
0000
0000
,
0000
0000
0000
0000
,
0000
0000
0000
0000
,
0000
1000
0000
0000
,
0000
1000
0000
0000
,
0000
0100
0000
0000
,
0000
0100
0000
0000
,
0000
0010
0000
0000
,
0000
0010
0000
0000
,
0000
0001
0000
0000
,
0000
0001
0000
0000
,
0000
1000
0000
0000
,
0000
1000
0000
0000
,
0000
0010
0000
0000
,
0000
0010
0000
0000
,
0000
0100
0000
0000
,
0000
0100
0000
0000
,
0000
0001
0000
0000
,
0000
0001
0000
0000
,
0000
2002
0000
0000
,
0000
0000
0000
0000
,
0000
0000
0000
0000
,
0000
0000
0000
0000
,
0000
0000
0000
0000
,
0000
0000
3003
0000
,
0000
1000
0000
1000
,
0000
0100
0000
0001
,
0000
0001
0000
0010
,
0000
1000
0000
1000
,
0000
0100
0000
0001
,
0000
0001
0000
0010
,
0000
2000
0000
3000
,
0002
0000
0003
0020
,
0000
0030
0200
0000
,
0300
1000
0000
0000
,
1000
0000
0000
0001
,
0000
0000
0001
0000
,
0000
1000
1000
1000
,
1000
1000
0000
0010
,
0010
0010
0010
0010
,
0000
0100
0100
0100
,
0100
0100
0000
1001
,
0000
0000
0110
0000
,
0000
2002
0000
0000
,
0000
0000
0000
0000
,
0000
0000
0000
0000
,
3003
0000
0000
0000
;
