#TITLE:I WILL NEVER LET YOU DOWN;
#SUBTITLE:;
#ARTIST:RITA ORA;
#TITLETRANSLIT:;
#SUBTITLETRANSLIT:;
#ARTISTTRANSLIT:;
#GENRE:;
#CREDIT:;
#BANNER:[Round 2 Singles] - I WILL NEVER LET YOU DOWN.png;
#BACKGROUND:[Round 2 Singles] - I WILL NEVER LET YOU DOWN-bg.png;
#LYRICSPATH:;
#CDTITLE:bangerz.png;
#MUSIC:[Round 2 Singles] - I WILL NEVER LET YOU DOWN.mp3;
#OFFSET:-0.000157;
#SAMPLESTART:52.500000;
#SAMPLELENGTH:13.000000;
#SELECTABLE:YES;
#DISPLAYBPM:128.000000;
#BPMS:0.000000=128.000000
;
#STOPS:
;
#BGCHANGES:;
#KEYSOUNDS:;
#ATTACKS:;

//---------------dance-single - ----------------
#NOTES:
     dance-single:
     :
     Hard:
     7:
     0.463169,0.448411,0.164857,0.021981,0.093419,278.000000,15.000000,2.000000,0.000000,0.000000,0.000000,0.463169,0.448411,0.164857,0.021981,0.093419,278.000000,15.000000,2.000000,0.000000,0.000000,0.000000:
0000
0000
0000
0000
,
0000
0000
0000
0000
,
0000
0000
0000
0000
,
0000
0000
0000
0000
,
0100
0000
0000
0000
1000
0000
0010
0000
0000
0000
1000
0000
0001
0100
0001
0000
,
1000
0000
1000
0010
0100
0000
0010
1000
,
0100
0000
0000
0000
0010
0000
0001
0000
0000
0000
0010
0000
0100
1000
0100
0000
,
0010
0000
0001
0100
0010
0000
0010
0100
,
0001
0000
0000
0000
0001
0000
1000
0000
0000
0000
0100
0000
0010
0001
0100
0000
,
0010
0000
1000
0001
0100
0000
0001
1000
,
0010
0000
0000
0000
0010
0000
1000
0000
0000
0000
0100
0000
0010
0001
0100
0000
,
0010
0000
0100
0001
0010
0000
0010
0000
,
0100
0000
1000
0000
0010
0000
1000
0000
0100
1000
0010
0000
1000
0000
0100
0000
,
1000
0000
0010
0100
0000
0010
0100
0000
0001
0000
0000
0000
1001
0000
0000
0000
,
0001
0010
0100
0010
0001
0010
0100
0010
,
0001
0000
0100
0010
0000
0100
0010
0000
0100
0000
0000
0000
1001
0000
0000
0000
,
1000
0010
0001
0010
1000
0010
0001
0010
,
1000
0000
0001
0010
0000
0001
0010
0000
0100
0000
0000
0000
0000
0000
0000
0000
,
1000
0000
0010
0100
0000
0001
0100
0001
,
0010
0000
0100
1000
0001
0000
1000
0010
,
0100
0001
0010
0100
,
1000
0100
0010
0001
,
1000
0000
0010
0000
0100
0000
0002
0000
0000
0000
0003
0000
0000
0000
0010
0100
,
1000
0010
0100
0001
0000
0000
0100
0001
,
0010
0001
0100
0010
,
1000
0010
0100
0001
,
0010
0000
0001
0000
0100
0000
0020
0000
0000
0000
0030
0000
0000
0000
0100
0010
,
1000
0100
0010
0001
0000
0100
1001
0010
,
0100
1000
0100
1000
0000
0100
1000
0100
,
1100
1100
1100
0001
,
0010
0000
0001
0000
0010
0000
0100
0000
0000
0000
0100
0000
1000
0000
0010
1000
,
0100
0010
0001
1000
0000
0010
0010
0010
,
0100
0001
0100
0001
0000
0100
0001
0100
,
0101
0101
0101
0010
,
1000
0000
0010
0000
0100
0000
0001
0000
0000
0000
0010
0000
0001
0000
0100
0001
,
0010
0100
1000
0001
0000
1000
1000
1000
,
0010
1000
0010
1000
0000
0010
1000
0010
,
1010
1100
1001
0010
,
0100
0000
1000
0000
0100
0000
0010
0000
0000
0000
0001
0000
0010
0000
0100
1000
,
0001
0100
0010
1000
0000
0100
0100
0100
,
0010
0001
0010
0001
0000
0010
0001
0010
,
0011
0101
0110
1000
,
0010
0000
1000
0000
0001
0000
0100
0000
0000
0000
0100
0000
0001
0000
0010
0100
,
1000
0100
0010
0001
0000
0010
0001
0010
,
0100
0000
0100
1000
0000
1000
0001
0100
,
0010
0000
0100
0010
1000
0000
0010
1000
,
0100
0000
0100
0010
0000
0010
0001
0010
,
0100
0000
1000
0001
0100
0000
0010
1000
,
0100
0000
0000
0000
;

//---------------dance-single - ----------------
#NOTES:
     dance-single:
     :
     Beginner:
     1:
     0.120895,0.131886,0.010990,0.000000,0.000000,76.000000,1.000000,0.000000,0.000000,0.000000,0.000000,0.120895,0.131886,0.010990,0.000000,0.000000,76.000000,1.000000,0.000000,0.000000,0.000000,0.000000:
0000
0000
0000
0000
,
0000
0000
0000
0000
,
0000
0000
0000
0000
,
0000
0000
0000
0000
,
0010
0000
0010
0000
,
0010
0000
0000
0000
,
0100
0000
0100
0000
,
0100
0000
0000
0000
,
1000
0000
1000
0000
,
1000
0000
0000
0000
,
0001
0000
0001
0000
,
0001
0000
0000
0000
,
1000
0000
1000
0000
,
1000
1000
1000
0000
,
0001
0000
0001
0000
,
0001
0001
0001
0000
,
0010
0000
0010
0000
,
0010
0010
0010
0000
,
0000
0000
0000
0000
,
0000
0000
0000
0000
,
1000
0000
1000
0000
,
1000
0000
1000
0000
,
0001
0000
0001
0000
,
0001
0000
0000
0000
,
0010
0000
0010
0000
,
0010
0000
0010
0000
,
0100
0000
0100
0000
,
0100
0000
0000
0000
,
1000
1000
0000
0001
,
0001
0000
0000
0000
,
0010
0000
0010
0000
,
0010
0000
0000
0000
,
0100
0100
0000
0010
,
0010
0000
0000
0000
,
1000
0000
0001
0000
,
1000
0000
0000
0000
,
0010
0010
0000
1000
,
1000
0000
0000
0000
,
1000
0000
1000
0000
,
1000
0000
0000
0000
,
0001
0001
0000
0010
,
0010
0000
0000
0000
,
0010
0000
0010
0000
,
0010
0000
0000
0000
,
0001
0000
0001
0000
,
0001
0000
0000
0000
,
1000
0000
1000
0000
,
1000
0000
0000
0000
,
1001
0000
0000
0000
;

//---------------dance-single - ----------------
#NOTES:
     dance-single:
     :
     Medium:
     5:
     0.384666,0.422034,0.120895,0.175847,0.000000,218.000000,11.000000,16.000000,0.000000,0.000000,0.000000,0.384666,0.422034,0.120895,0.175847,0.000000,218.000000,11.000000,16.000000,0.000000,0.000000,0.000000:
0000
0000
0000
0000
,
0000
0000
0000
0000
,
0000
0000
0000
0000
,
0000
0000
0000
0000
,
1000
0000
0010
1000
0010
0000
1000
0000
,
0001
0000
0010
0000
0100
0000
1000
0100
,
1000
0000
0001
0010
0001
0000
0010
0000
,
0001
0000
0100
0000
0010
0000
1000
0100
,
1000
0000
0001
1000
0001
0000
0010
0000
,
0100
0000
1000
0000
0010
0000
0001
0100
,
0010
0000
1000
0001
1000
0000
0001
0000
,
0010
0100
0010
0001
,
0001
0010
0001
0010
0001
0010
0001
0010
,
0001
0010
0001
0010
0001
0000
0000
0000
,
1000
0010
1000
0010
1000
0010
1000
0010
,
1000
0010
1000
0010
1000
0000
0000
0000
,
0001
1000
0001
1000
0010
0100
0010
0100
,
0001
1000
0001
1000
0001
0000
0000
0000
,
1000
0010
0100
0001
,
0010
0100
1000
0000
,
1000
0100
0010
0001
,
1000
0100
0010
0001
,
1000
0010
1000
0010
0100
0001
0100
0001
,
0010
0010
0010
0000
,
0100
1000
0001
0010
,
0001
0100
0010
1000
,
0001
0010
0001
0010
0100
1000
0100
1000
,
0100
0010
0001
1001
,
1000
0001
1000
0001
0000
1000
0001
1000
,
0001
1000
1001
0000
,
0001
0010
0001
0010
0000
0000
0100
1000
,
0100
0010
0001
0100
,
0010
0100
0010
0100
0000
0010
0100
0010
,
0100
0010
0110
0000
,
0010
1000
0010
1000
0000
0000
0001
0100
,
0001
0000
0010
0000
0100
1000
0100
0000
,
0200
2300
3200
0320
,
0032
0203
0320
2030
,
3001
0001
0001
0001
0000
0000
0000
0000
,
1100
1100
0011
0011
,
0002
0203
0320
2030
,
3002
2003
3200
0320
,
0031
0001
0001
0001
0000
0000
0000
0000
,
0101
0101
1010
1010
,
1000
0000
0000
0001
0000
0000
0010
0001
,
0010
0000
0001
0010
0001
0000
0010
0001
,
0010
0000
0000
0100
0000
0000
1000
0010
,
1000
0000
0010
1000
0010
0000
1000
0010
,
1000
0000
0000
0000
;

//---------------dance-single - ----------------
#NOTES:
     dance-single:
     :
     Easy:
     3:
     0.273191,0.316525,0.142876,0.000000,0.000000,161.000000,13.000000,0.000000,0.000000,0.000000,0.000000,0.273191,0.316525,0.142876,0.000000,0.000000,161.000000,13.000000,0.000000,0.000000,0.000000,0.000000:
0000
0000
0000
0000
,
0000
0000
0000
0000
,
0000
0000
0000
0000
,
0000
0000
0000
0000
,
1000
1000
0100
0100
,
1000
0010
0100
0000
,
0001
0001
0010
0010
,
0100
1000
0010
0000
,
0100
0001
0100
0010
,
1000
1000
1000
0000
,
1000
0010
0100
0001
,
0010
0010
0010
0000
,
0001
0001
0001
0000
0001
0001
0001
0000
,
0001
0001
0001
0000
,
0010
0010
0010
0000
0010
0000
0010
0000
,
0010
0010
0010
0000
,
0100
0000
0100
0000
0100
0100
0100
0000
,
0100
0100
0100
0000
,
1000
0100
0010
0001
,
1000
0010
0100
0000
,
0100
0010
1000
0001
,
0100
0010
1000
0000
,
0001
0000
0000
0010
0000
0000
0000
0000
,
0100
1000
0100
1000
,
0010
1000
0001
0100
,
0010
1000
0001
0100
,
0010
0000
0000
1000
0000
0000
0000
0000
,
0001
0010
0100
1001
,
0001
0001
0001
0000
1000
1000
1000
0000
,
1001
1001
1001
0000
,
0100
0000
0000
0100
0000
0000
0000
0000
,
0001
0100
0010
0000
,
1000
1000
1000
0000
0001
0001
0001
0000
,
1001
1001
1001
0000
,
0010
0000
0000
0010
0000
0000
0000
0000
,
1000
0100
0010
0001
,
0010
0010
0010
0000
0100
0100
0100
0000
,
0110
0110
0110
0000
,
0001
0000
0000
0001
0000
0000
0000
0000
,
1000
0010
0100
0000
,
0010
0010
0010
0000
0100
0100
0100
0000
,
0110
0110
0110
0000
,
1000
0000
0000
1000
0000
0000
0000
0000
,
0001
0001
0001
0000
,
1000
0100
0010
0001
,
1000
0010
0100
0100
,
0001
0010
0100
1000
,
0001
0100
0010
0010
,
0100
0000
0000
0000
;
