#VERSION:0.81;
#TITLE:Give Me Your Love;
#SUBTITLE:;
#ARTIST:星野奏子;
#TITLETRANSLIT:;
#SUBTITLETRANSLIT:;
#ARTISTTRANSLIT:Kanako Hoshino;
#GENRE:;
#ORIGIN:;
#CREDIT:;
#BANNER:[Round 2 Singles] - Give Me Your Love.png;
#BACKGROUND:[Round 2 Singles] - Give Me Your Love-bg.png;
#PREVIEWVID:;
#JACKET:[Round 2 Singles] - Give Me Your Love-jk.png;
#CDIMAGE:;
#DISCIMAGE:;
#LYRICSPATH:[Round 2 Singles] - Give Me Your Love.lrc;
#CDTITLE:cdtitle.png;
#MUSIC:[Round 2 Singles] - Give Me Your Love.mp3;
#OFFSET:0.274308;
#SAMPLESTART:61.048359;
#SAMPLELENGTH:14.790002;
#SELECTABLE:YES;
#BPMS:0.000=130.000;
#STOPS:;
#DELAYS:;
#WARPS:;
#TIMESIGNATURES:0.000=4=4;
#TICKCOUNTS:0.000=4;
#COMBOS:0.000=1;
#SPEEDS:0.000=1.000=0.000=0;
#SCROLLS:0.000=1.000;
#FAKES:;
#LABELS:0.000=Song Start;
#BGCHANGES:;
#KEYSOUNDS:;
#ATTACKS:
;

//---------------dance-single - ----------------
#NOTEDATA:;
#CHARTNAME:;
#STEPSTYPE:dance-single;
#DESCRIPTION:;
#CHARTSTYLE:;
#DIFFICULTY:Hard;
#METER:7;
#RADARVALUES:0.506642,0.477231,0.240440,0.300550,0.107339,350.000000,28.000000,35.000000,0.000000,0.000000,0.000000,0.000000,0.000000,0.506642,0.477231,0.240440,0.300550,0.107339,350.000000,28.000000,35.000000,0.000000,0.000000,0.000000,0.000000,0.000000;
#CREDIT:;
#NOTES:
0000
0000
0000
0000
,
0000
0000
0000
0110
,
1000
0010
1000
0001
1000
0100
0010
0000
,
0001
0010
0001
1000
0001
0100
0010
0100
,
0001
0100
0001
1000
0001
0010
0100
0000
,
1000
0100
1000
0001
1000
0010
0100
0010
,
1000
0001
0100
0001
1000
0001
0010
0000
,
0001
1000
0100
1000
0010
0100
0010
0100
,
0100
0110
0000
0001
1001
0000
1000
1100
,
0000
0001
0001
0001
1001
0000
0110
0000
,
1000
0000
0000
1000
0000
0000
1000
0000
0000
0000
0000
0001
0100
0000
0000
0000
,
0001
0000
0000
0001
0000
0000
0001
0000
0000
0000
0000
1000
0100
0000
1000
0000
,
0010
0000
0000
0010
0000
0000
0010
0000
0000
0000
0000
0100
0010
0000
0000
0000
,
1000
0000
0000
1000
0000
0000
1000
0000
0000
0000
0000
0100
0010
0000
0100
0000
,
0020
0000
0000
0230
0000
0000
2300
0000
,
3000
0001
0010
0100
1000
0000
0001
0000
,
0200
0000
0000
0320
0000
0000
2030
0000
,
3001
0000
0000
0001
0000
0000
0001
0000
0000
0000
0000
1000
0001
0000
1000
0000
,
0010
0000
0000
0010
0100
0000
0010
0000
1000
0000
0100
0000
0001
0000
0100
0000
,
1000
0000
0000
1000
0001
0000
1000
0000
0010
0000
0001
0000
0010
0000
1000
0000
,
0001
0000
0000
0001
1000
0000
0001
0000
0010
0000
0100
0000
1000
0000
0001
0000
,
0100
0000
0000
0100
0010
0000
0100
0000
1000
0000
0100
0000
0010
0000
1000
0000
,
0002
0000
0000
0023
0000
0000
0230
0000
,
0300
1000
0100
1000
0020
0000
0230
0000
,
0302
0000
0000
2003
0000
0000
3200
0000
,
1300
0000
0000
1000
0000
0000
1000
0000
0001
0000
0000
0001
0000
0000
0001
0000
,
0100
0010
1000
0001
0000
0001
0100
0000
,
0001
0000
0000
1000
0000
1000
0001
0010
,
0100
0000
0000
0110
0000
1001
0000
2000
,
0000
3010
0100
0020
0000
1030
0001
0000
,
1000
0100
0010
0001
0000
0001
1000
0000
,
0010
0000
0000
0000
0000
0000
0100
0000
0000
0000
0100
0000
0001
1000
0000
0000
,
1000
0000
0100
0010
0000
0001
0000
1001
,
0000
0100
0100
0100
,
1001
0000
0010
0100
0000
0010
0200
0000
0000
0000
0300
0000
0110
0000
0001
0000
,
1000
0100
0010
0002
0000
0013
0100
1000
,
0000
0001
0010
0000
0001
1000
0000
0020
,
0000
0130
0001
0020
0000
0130
0000
0000
,
0110
0000
0001
1000
0000
0001
2000
0000
0000
0000
3000
0000
1001
0000
1000
0000
,
0010
0100
0001
0020
0000
0031
0100
0010
,
0000
0100
0001
0000
1000
0100
0000
2000
,
0000
3100
0010
0002
0010
0000
0013
0000
,
1001
0000
1000
0100
0000
1000
0002
0000
0000
0000
0003
0000
0101
0000
0001
0000
,
1000
0001
0010
0200
0000
1300
0001
0010
,
0000
0001
1000
0000
0010
0100
0000
0002
,
0000
1003
0001
0020
0000
0130
0000
0000
,
1001
0000
0001
0010
0000
0001
2000
0000
0000
0000
3000
0000
1010
0000
1000
0000
,
0001
1000
0010
0200
0000
0301
0010
0100
,
0000
1000
0100
0000
1000
0001
0000
0200
,
0000
0310
2000
0002
0000
3003
1001
0000
,
0000
0001
0100
0000
0001
0010
0100
1000
,
1000
1100
0000
0001
0101
0000
1000
1010
,
0000
0001
0001
0001
0011
0000
0000
0000
,
1000
0100
1000
0001
1000
0010
0100
0000
,
0001
0100
0001
1000
0001
0010
0100
0010
,
0001
0010
0001
1000
0001
0100
0010
0000
,
1000
0010
1000
0001
1000
0100
0010
0100
,
0001
0100
0010
0100
1000
0001
0100
0000
,
0001
0100
0010
0100
1000
0100
0010
0100
,
0100
0110
0000
0001
1001
0000
0010
0110
,
0000
1000
1000
1000
1001
0000
0110
0000
,
2002
0000
0000
3003
;

//---------------dance-single - ----------------
#NOTEDATA:;
#CHARTNAME:;
#STEPSTYPE:dance-single;
#DESCRIPTION:;
#CHARTSTYLE:;
#DIFFICULTY:Challenge;
#METER:8;
#RADARVALUES:0.540991,0.477231,0.360661,0.283376,0.180330,366.000000,42.000000,33.000000,96.000000,0.000000,0.000000,0.000000,0.000000,0.540991,0.477231,0.360661,0.283376,0.180330,366.000000,42.000000,33.000000,96.000000,0.000000,0.000000,0.000000,0.000000;
#CREDIT:;
#NOTES:
0000
0000
0000
0000
,
0000
0000
0000
0110
,
1000
0000
0001
0100
0000
0001
1000
0000
0100
0000
0020
0000
0100
0000
0030
0000
,
0001
0000
1000
0010
0000
1000
0001
0000
0100
0000
1000
0000
0100
0000
0010
0000
,
1000
0000
0001
0010
0000
0001
1000
0000
0010
0000
0200
0000
0010
0000
0300
0000
,
0001
0000
1000
0100
0000
1000
0001
0000
0010
0000
1000
0000
0010
0000
0100
0000
,
1000
0000
0001
0100
0000
0001
1000
0000
0010
0000
2000
0000
0100
0000
3000
0000
,
0001
0000
1000
0100
0000
1000
0001
0000
0010
0000
0100
0000
0010
0000
0100
0000
,
1000
1010
MMMM
0010
0011
MMMM
0001
0101
,
MMMM
0100
0100
0100
1100
0000
MMMM
0000
,
MMMM
0000
0000
MMMM
0000
0000
0001
0000
0002
0000
0000
0000
0003
0000
0100
0000
,
0010
0000
0100
0010
1000
0000
0001
0000
0010
0000
0100
0000
1000
0000
0100
0000
,
MMMM
0000
0000
MMMM
0000
0000
1000
0000
1000
0000
2000
0000
3000
0000
0100
0000
,
0010
0000
0100
0010
0001
0000
0010
0000
0001
0000
1000
0000
0010
0000
0100
0000
,
0102
0000
0000
2003
0000
0000
3100
0000
,
1000
0001
0010
0001
0200
0000
0320
0000
,
2030
0000
0000
3002
0000
0000
0103
0000
,
0001
1000
0100
1000
0010
0000
0110
0000
,
MMMM
0000
0000
MMMM
0000
0000
0001
0000
0100
0000
0010
0000
1000
0000
0200
0000
,
0010
0000
1300
0010
0100
0000
0001
0000
0010
0000
0001
0000
0100
0000
0010
0000
,
MMMM
0000
0000
MMMM
0000
0000
1000
0000
0100
0000
0010
0000
0001
0000
0200
0000
,
0010
0000
0301
0010
0100
0000
1000
0000
0001
0000
0010
0000
1000
0000
0010
0000
,
0002
0000
0000
0203
0000
0000
1300
0000
,
0100
0010
1000
0100
0010
0000
0001
0000
,
2000
0000
0000
3200
0000
0000
0301
0000
,
MMMM
0000
0000
MMMM
0000
0000
0200
0000
0000
0000
0310
0000
0000
0000
MMMM
0000
,
1001
0001
0100
0010
0000
1000
0000
0001
,
0000
0010
0001
1000
0000
0010
0010
0100
,
0000
MMMM
0000
0101
0000
1010
0000
2000
,
0000
3100
0010
0002
0000
0100
0103
0000
,
0010
1000
0100
0001
0000
0100
0000
1000
,
0000
0000
0010
0000
0100
0000
1000
0000
0000
0000
0001
0000
0010
0100
0000
0000
,
0001
0000
1000
0001
0000
0110
0000
1001
,
0000
0100
0100
0100
,
1100
0000
0001
0010
0000
0100
1000
0000
0010
0000
0010
0000
0100
0000
0001
0000
,
0010
0001
0100
0020
0000
1030
0001
0010
,
0000
0011
0001
0000
1100
1000
0000
0110
,
0000
0001
1000
1001
0000
0110
0000
0000
,
1001
0000
1000
0100
0000
0010
0001
0000
0100
0000
0100
0000
0001
0000
0010
0000
,
0100
0010
0001
2000
0000
3010
0100
0001
,
0000
1100
1000
0000
0011
0001
0000
2000
,
0000
3100
0010
0002
0010
0000
0013
0000
,
0011
0000
0100
1000
0000
0001
0010
0000
0001
0000
0100
0000
0010
0000
1000
0000
,
0100
0010
0001
0200
0000
0301
1000
0100
,
0000
1100
1000
0000
0101
0001
0000
1001
,
0000
0010
0100
1001
0000
0110
0000
0000
,
1001
0000
0010
0001
0000
1000
0100
0000
1000
0000
0100
0000
0010
0000
0001
0000
,
0100
0001
0010
0200
0000
0310
0001
0100
,
0000
0101
0001
0000
1100
1000
0000
1001
,
0000
0001
1000
0220
0000
0330
1001
0000
,
0000
0001
0100
0000
0001
0100
0010
1000
,
1000
1100
MMMM
0100
0101
MMMM
0001
0011
,
MMMM
0010
0010
0010
1010
0000
MMMM
0000
,
1000
0000
0001
0100
0000
1000
0100
0000
0010
0000
2000
0000
0100
0000
3000
0000
,
0001
0000
1000
0100
0000
0001
0100
0000
1000
0000
0010
0000
0001
0000
0010
0000
,
1000
0000
0010
0100
0000
0001
0010
0000
0100
0000
2000
0000
0010
0000
3000
0000
,
0001
0000
0010
0100
0000
1000
0010
0000
0100
0000
1000
0000
0100
0000
0010
0000
,
1000
0000
0100
0010
0000
0001
1000
0000
0010
0000
0200
0000
1000
0000
0300
0000
,
0001
0000
0100
0010
0000
1000
0001
0000
0010
0000
0100
0000
0010
0000
0100
0000
,
0100
0110
MMMM
0001
1001
MMMM
0010
0110
,
MMMM
1000
1000
1000
1001
0000
MMMM
0000
,
2002
0000
0000
3003
;

//---------------dance-single - ----------------
#NOTEDATA:;
#CHARTNAME:;
#STEPSTYPE:dance-single;
#DESCRIPTION:;
#CHARTSTYLE:;
#DIFFICULTY:Medium;
#METER:6;
#RADARVALUES:0.392556,0.397693,0.266202,0.103046,0.017174,277.000000,31.000000,12.000000,0.000000,0.000000,0.000000,0.000000,0.000000,0.392556,0.397693,0.266202,0.103046,0.017174,277.000000,31.000000,12.000000,0.000000,0.000000,0.000000,0.000000,0.000000;
#CREDIT:;
#NOTES:
0000
0000
0000
0000
,
0000
0000
0000
0110
,
1000
0000
0010
0000
0100
0001
0100
0000
,
0001
0000
0010
0000
0100
0100
0100
0000
,
1000
0000
0001
0000
0100
0010
0100
0000
,
0001
0000
0100
0000
0010
0010
0010
0000
,
1000
0000
0001
0000
0010
0100
0010
0000
,
0001
0000
1000
0000
0100
0100
0100
0000
,
1000
1000
0000
0001
0001
0000
0100
0100
,
0000
0010
0010
0010
0010
0000
1001
0000
,
0000
0000
0000
1000
0200
0000
0300
1000
,
0001
0000
0001
0000
1000
0100
1000
0000
,
0000
0000
0000
0001
0100
0100
0000
0001
,
1000
0000
1000
0000
0001
0100
0001
0000
,
0002
0000
0000
2003
0000
0000
3100
0000
,
1000
0001
0100
0100
,
0002
0000
0000
2003
0000
0000
3010
0000
,
1000
0100
0010
0010
,
0001
0000
0010
0000
0001
1000
0001
0000
,
1000
0000
0010
0000
1000
0001
0100
0001
,
1000
0000
0100
0000
1000
0001
1000
0000
,
0001
0000
0100
0000
0001
1000
0010
1000
,
0002
0000
0000
0023
0000
0000
0130
0000
,
1000
0001
0100
0100
,
0020
0000
0000
2030
0000
0000
3001
0000
,
0000
0000
0000
0100
0000
0100
0000
0000
,
1001
0000
0000
1000
0000
1000
0100
0000
,
1000
0000
0000
0001
0000
0001
0100
0000
,
0010
0000
0000
0110
0000
0110
0000
0001
,
0000
1000
1000
1000
0000
0000
1001
0000
,
1000
0000
0000
0010
0000
0010
0100
0000
,
0001
0000
0000
0010
0000
0010
0100
0000
,
1000
0000
0001
0100
0000
1000
0000
0010
,
0000
0010
0010
0010
,
1001
0000
0000
0001
0000
0000
0001
0000
0000
0000
0000
0000
0100
0000
0010
0000
,
0100
0000
0010
0000
1000
0000
0010
0100
,
0000
0001
0001
0000
1000
1000
0000
0010
,
0000
0100
0100
0100
0000
0110
0000
0000
,
1001
0000
0000
1000
0000
0000
1000
0000
0000
0000
0000
0000
0100
0000
0010
0000
,
0100
0000
0010
0000
0001
0000
0010
0100
,
0000
1000
1000
0000
0001
0001
0000
0100
,
0000
0010
0010
0020
0000
0000
0030
0000
,
1001
0000
0000
0110
0000
0000
1001
0000
0000
0000
0000
0000
1000
0000
0100
0000
,
1000
0001
1000
0001
0000
0010
0001
0001
,
0000
0100
0100
0000
0001
0001
0000
1000
,
0000
0100
0100
0100
0000
0110
0000
0000
,
1001
0000
0000
0110
0000
0000
1001
0000
0000
0000
0000
0000
0001
0000
0100
0000
,
0001
1000
0001
1000
0000
0100
1000
1000
,
0000
0001
0001
0000
0100
0100
0000
1000
,
0000
0010
0010
0010
0000
0000
1001
0000
,
0000
0001
1000
0000
0001
1000
0001
1000
,
0100
0100
0000
0010
0010
0000
0100
0100
,
0000
0010
0010
0010
0010
0000
0000
0000
,
1001
0000
1100
0000
0001
1000
0100
0000
,
1001
0000
0101
0000
1000
0001
0100
0000
,
0101
0000
1001
0000
1000
0100
1000
0000
,
1100
0000
1001
0000
0001
0001
0001
0000
,
0011
0000
1001
0000
1000
0010
1000
0000
,
1010
0000
1001
0000
0001
0100
0010
0100
,
0001
0001
0000
1000
1000
0000
0010
0010
,
0000
0100
0100
0100
0100
0000
0110
0000
,
2002
0000
0000
3003
;

//---------------dance-single - ----------------
#NOTEDATA:;
#CHARTNAME:;
#STEPSTYPE:dance-single;
#DESCRIPTION:;
#CHARTSTYLE:;
#DIFFICULTY:Easy;
#METER:4;
#RADARVALUES:0.294417,0.291641,0.197505,0.025761,0.000000,214.000000,23.000000,3.000000,0.000000,0.000000,0.000000,0.000000,0.000000,0.294417,0.291641,0.197505,0.025761,0.000000,214.000000,23.000000,3.000000,0.000000,0.000000,0.000000,0.000000,0.000000;
#CREDIT:;
#NOTES:
0000
0000
0000
0000
,
0000
0000
0000
0110
,
1000
0001
0010
0010
,
0001
1000
0010
0010
,
1000
0010
0100
0100
,
0001
0010
0100
0100
,
1000
0001
0100
1000
,
0100
0001
0010
1000
,
0010
0000
0000
0001
0000
0000
1000
0000
,
0000
0010
0010
0010
0010
0000
0110
0000
,
1000
0000
0000
0001
,
0100
0001
0010
0010
,
0001
0000
0000
1000
,
0100
1000
0010
0010
,
0100
0000
0000
0100
0000
0000
0100
0000
,
0000
0001
1000
0001
,
0010
0000
0000
0010
0000
0000
0010
0000
,
0000
0001
1000
0001
,
0100
0100
0001
1000
,
0100
0010
0100
1000
,
0010
0010
0100
0001
,
0100
0010
1000
0001
,
0100
0000
0000
0100
0000
0000
0100
0000
,
0000
0001
1000
0001
,
0010
0000
0000
0010
0000
0000
0020
0000
,
0000
0000
0000
0030
0000
0000
0000
0000
,
1001
0000
0000
0001
,
0100
0010
0100
0001
,
1000
0000
0000
0110
0000
0110
0000
0000
,
0001
0010
0100
1000
,
0001
0000
0000
1000
,
0010
0100
0010
1000
,
0001
0000
0000
1000
0000
0001
0000
1001
,
0000
0010
0010
0010
,
1001
0110
0001
1000
,
0100
0001
0100
1000
,
0001
0001
0100
0100
,
0010
1000
0001
0100
,
1001
0110
1000
0001
,
0100
1000
0100
0001
,
0010
0010
0100
0100
,
1000
0100
0100
0100
,
1001
0110
1001
0001
,
0010
0001
1000
0001
,
0100
0100
0010
0010
,
1000
0100
1000
0000
,
1001
0110
1001
1000
,
0100
1000
0001
0010
,
0100
0100
1000
1000
,
0010
0100
0010
0100
,
0000
0001
1000
0001
,
0110
0000
0000
1001
0000
0000
0110
0000
,
0000
1000
1000
1000
1000
0000
0000
0000
,
0001
0100
0010
0010
,
1000
0100
0010
0010
,
0001
0010
0100
0100
,
1000
0010
0100
0100
,
0001
0010
1000
1000
,
0010
0001
1000
1000
,
1010
0000
0000
0101
0000
0000
1010
0000
,
0000
0001
0001
0001
0001
0000
1000
0000
,
2002
0000
0000
3003
;

//---------------dance-single - ----------------
#NOTEDATA:;
#CHARTNAME:;
#STEPSTYPE:dance-single;
#DESCRIPTION:;
#CHARTSTYLE:;
#DIFFICULTY:Beginner;
#METER:2;
#RADARVALUES:0.141075,0.185590,0.060110,0.068697,0.000000,100.000000,7.000000,8.000000,0.000000,0.000000,0.000000,0.000000,0.000000,0.141075,0.185590,0.060110,0.068697,0.000000,100.000000,7.000000,8.000000,0.000000,0.000000,0.000000,0.000000,0.000000;
#CREDIT:;
#NOTES:
// measure 0
0000
0000
0000
0000
,  // measure 1
0000
0000
0000
0000
,  // measure 2
1000
0000
0000
0000
,  // measure 3
1000
0000
0000
0000
,  // measure 4
0001
0000
0000
0000
,  // measure 5
0001
0000
0000
0000
,  // measure 6
0100
0000
0000
0000
,  // measure 7
0100
0000
0000
0000
,  // measure 8
0010
0000
0010
0000
,  // measure 9
0010
0000
0000
0000
,  // measure 10
1000
0000
0000
0000
,  // measure 11
0100
0000
0000
0000
,  // measure 12
0010
0000
0000
0000
,  // measure 13
0001
0000
0000
0000
,  // measure 14
0200
0000
0000
0300
,  // measure 15
0000
0000
0000
0000
,  // measure 16
0020
0000
0000
0030
,  // measure 17
0000
0000
0000
0000
,  // measure 18
1000
1000
0000
0000
,  // measure 19
0001
0001
0000
0000
,  // measure 20
0010
0010
0000
0000
,  // measure 21
0100
0100
0000
0000
,  // measure 22
2000
0000
0000
3000
,  // measure 23
1000
1000
0000
0000
,  // measure 24
0002
0000
0000
0003
,  // measure 25
0001
0001
0000
0000
,  // measure 26
1001
0000
0000
0000
,  // measure 27
0100
0000
0000
0000
,  // measure 28
1000
0000
0000
0000
,  // measure 29
0010
0000
0000
0000
,  // measure 30
0100
0000
0000
0000
,  // measure 31
0001
0000
0000
0000
,  // measure 32
1000
0000
0000
0000
0000
0000
0000
2002
,  // measure 33
0000
0000
3003
0000
,  // measure 34
0001
0001
0001
0000
,  // measure 35
0000
0100
0000
0100
,  // measure 36
0000
0010
0000
0010
,  // measure 37
0000
1000
0000
1000
,  // measure 38
0100
0100
0100
0000
,  // measure 39
0000
1000
0000
0001
,  // measure 40
0000
0100
0000
0100
,  // measure 41
0000
0010
0010
0010
,  // measure 42
1000
1000
1000
0000
,  // measure 43
0000
0100
0000
0100
,  // measure 44
0000
0010
0000
0010
,  // measure 45
0000
0001
0000
0001
,  // measure 46
0100
0100
0100
0000
,  // measure 47
0000
0001
0000
0001
,  // measure 48
0000
1000
0000
1000
,  // measure 49
0000
0010
0000
0010
,  // measure 50
0000
0100
0100
0100
,  // measure 51
0100
0000
0000
0000
,  // measure 52
0000
0000
0000
0000
,  // measure 53
1001
0000
1000
0000
,  // measure 54
0110
0000
0100
0000
,  // measure 55
1001
0000
0001
0000
,  // measure 56
0110
0000
0010
0000
,  // measure 57
1000
1000
1000
0000
,  // measure 58
0001
0001
0001
0000
,  // measure 59
0100
0100
0100
0100
,  // measure 60
0010
0010
0010
0000
,  // measure 61
2002
0000
0000
3003
;
