#VERSION:0.81;
#TITLE:Cowbell Rock;
#SUBTITLE:;
#ARTIST:Pyramyth;
#TITLETRANSLIT:;
#SUBTITLETRANSLIT:;
#ARTISTTRANSLIT:;
#GENRE:;
#ORIGIN:;
#CREDIT:;
#BANNER:[Round 2 Singles] - Cowbell Rock.png;
#BACKGROUND:[Round 2 Singles] - Cowbell Rock-bg.png;
#PREVIEWVID:;
#JACKET:[Round 2 Singles] - Cowbell Rock-jacket.png;
#CDIMAGE:;
#DISCIMAGE:;
#LYRICSPATH:;
#CDTITLE:cdtitle.png;
#MUSIC:[Round 2 Singles] - Cowbell Rock.mp3;
#OFFSET:-0.314000;
#SAMPLESTART:25.993999;
#SAMPLELENGTH:17.143000;
#SELECTABLE:YES;
#BPMS:0.000=112.000;
#STOPS:;
#DELAYS:;
#WARPS:;
#TIMESIGNATURES:0.000=4=4;
#TICKCOUNTS:0.000=4;
#COMBOS:0.000=1;
#SPEEDS:0.000=1.000=0.000=0;
#SCROLLS:0.000=1.000;
#FAKES:;
#LABELS:0.000=Song Start;
#BGCHANGES:;
#KEYSOUNDS:;
#ATTACKS:
;

//---------------dance-single - ----------------
#NOTEDATA:;
#CHARTNAME:;
#STEPSTYPE:dance-single;
#DESCRIPTION:;
#CHARTSTYLE:;
#DIFFICULTY:Challenge;
#METER:11;
#RADARVALUES:0.830296,0.758786,0.144876,0.426105,1.000000,615.000000,17.000000,50.000000,40.000000,0.000000,0.000000,0.000000,0.000000,0.830296,0.758786,0.144876,0.426105,1.000000,615.000000,17.000000,50.000000,40.000000,0.000000,0.000000,0.000000,0.000000;
#CREDIT:;
#NOTES:
0000
0000
0000
0000
,
0000
0000
0000
0000
,
0000
0000
0000
0000
,
0000
0000
0000
0000
,
1000
0100
1000
0010
,
0001
0010
1000
0100
,
0010
0001
0100
1000
,
0100
0001
0010
0100
,
1000
0000
0000
0000
0000
1000
0001
0000
0000
0000
0000
0001
0100
0000
0000
0000
0000
0100
0010
0000
0000
0000
0000
0010
,
1000
0000
0000
0000
0000
1000
0100
0000
0000
0000
0000
0100
0010
0000
0000
0000
0000
0010
0001
0000
0000
0000
0000
0001
,
0100
0000
0000
0010
0000
0000
1000
0000
0000
0100
0000
0000
0001
0000
0000
0010
0000
0000
1000
0000
0000
0010
0000
1000
,
0100
1000
0100
1000
0000
0001
0100
0001
0100
0001
0000
1000
0100
1000
0100
1000
0000
0010
0100
0000
0100
0001
0000
0001
,
2000
0000
0000
0100
0000
3100
0000
0000
0010
0001
0000
0001
0200
0000
0000
1300
0000
0100
0010
0000
0100
0001
0000
0001
,
0020
0000
0000
0130
0000
0100
1000
0000
1000
0010
0000
0010
0100
1000
0100
0002
0000
0000
0013
0000
0000
MMMM
0000
0000
,
1002
0000
0000
0100
0000
0103
0000
0000
0010
1000
0000
1000
0200
0000
0000
0301
0000
0100
0010
0000
0100
1000
0000
1000
,
0020
0000
0000
0031
0000
0010
1000
0000
1000
0100
0000
0100
1000
0010
0100
0001
0000
0010
0200
0000
0000
0320
0000
0000
,
0031
0000
0001
0100
0000
0100
0010
0000
0010
1000
0000
1000
0100
0000
0100
0010
0000
0010
2M00
0000
0000
30M1
0000
0001
,
0100
1000
0100
1000
0000
0001
1000
0000
0100
0001
0000
0100
2000
0000
0000
3020
0000
0000
0130
0000
0000
MMMM
0000
0000
,
1000
0000
1000
0001
0000
0001
0100
0000
0100
0010
0000
0010
1000
0000
1000
0100
0000
0100
00M2
0000
0000
1M03
0000
1000
,
0010
0000
0010
0001
0000
0001
0200
0000
0000
0310
0000
0010
2000
0000
3000
0001
0010
0001
0200
0000
0000
0320
0000
0000
,
1030
0000
0010
1000
0000
0010
1000
0000
0010
0100
0000
0000
0001
0010
0001
1000
0000
0010
1000
0000
0100
0010
0000
0100
,
0002
0000
0000
0103
0000
0100
1000
0000
1000
0010
0000
0000
0102
0000
0000
MMM0
0000
0000
0013
0000
0000
0001
0000
0001
,
1000
0000
0001
1000
0000
0010
1000
0100
0010
0001
0000
0001
1000
0100
1000
0010
0000
0001
0010
0000
0100
0001
0000
0010
,
0200
0000
0000
0301
0000
0100
1000
0000
1000
0010
0000
0000
0100
0000
0100
0010
1000
0010
0M02
M000
0000
0013
0000
0010
,
1000
0000
1000
0100
0000
MM11
0000
0000
0000
11MM
0000
0000
0001
0100
0001
0010
0000
0001
0010
0000
1000
0010
0000
0001
,
0200
0000
0000
1300
0000
0100
0001
0000
0001
0010
0000
0000
1200
0000
0000
M0M1
0000
0000
0301
0000
0000
0100
0000
0100
,
1000
0000
0100
1000
0000
1000
0010
0100
0001
1000
0000
1000
0010
1000
0100
0010
0000
0001
0100
0000
0010
1000
0000
0010
,
0002
0000
0000
0013
0000
0010
1000
0000
1000
0100
0000
0000
0010
0000
0010
0001
0100
1000
02MM
0000
M000
0301
0000
0001
,
0010
0000
0001
0010
0100
1000
0001
0000
0100
0010
0000
0010
1000
0000
0000
0100
0000
0100
1000
0000
1000
0010
0000
0100
,
0001
0000
0000
0010
0000
0100
1000
0000
0010
1000
0000
1000
0100
0000
0000
1000
0000
1000
0010
0000
0010
0001
0000
0010
,
0100
0001
0100
0010
0000
0010
1000
0000
0100
0010
0000
0100
1000
0000
0000
0010
0000
0010
0100
0000
0100
0001
0000
0010
,
0100
0000
0000
1000
0000
0010
0100
0000
0010
1000
0000
1000
0100
0000
0000
0001
0000
0001
0100
0000
0100
1000
0000
0010
,
2000
0000
0000
0100
0000
0000
3002
0000
MM00
0013
0000
0001
0100
0000
0000
0001
0000
0100
1000
0000
0100
0010
0000
0100
,
0001
0000
0000
0010
0000
0100
1000
0000
0010
1000
0000
0001
0100
0000
0000
0001
0000
0010
1000
0000
0010
0001
0000
0010
,
0100
1000
0001
1000
0000
0001
0100
0000
1000
0100
0000
0001
0010
0000
0100
0010
0000
1000
0010
0000
0001
0010
0000
0100
,
1000
0000
0000
0010
0000
0001
0010
0000
1000
0100
0000
0000
0011
0000
0001
0100
0000
0000
1010
0000
1000
0100
0000
0000
,
1001
0000
1010
0000
1001
0000
0101
0000
0000
MMMM
0000
0000
0012
0000
0000
0100
0000
0103
0000
0000
1000
0100
0000
0100
,
0002
0000
0000
0013
0000
0100
0010
0000
0001
0100
0000
0010
2000
0000
0000
3100
0000
0100
0010
0000
0010
0001
0000
0001
,
0100
1000
0100
0020
0000
0000
1030
0000
0000
MMMM
0000
0000
2001
0000
0000
0010
0000
3010
0000
0000
1000
0100
0000
0100
,
0002
0000
0000
0103
0000
0010
0001
0000
0100
0001
0000
0001
2000
0000
0000
3010
0000
1000
0001
0000
0001
0010
0000
0010
,
0001
0100
0010
1000
0000
0001
0020
0000
0000
0230
0000
0000
1300
0000
1000
0010
0000
0010
0100
0000
0100
0001
0000
0001
,
1000
0000
1000
0100
0000
0100
00M2
0000
0000
1M03
0000
1000
0010
0001
0010
0001
0000
0010
0001
0000
0100
1000
0000
0001
,
0020
0000
0000
2030
0000
0000
3200
0000
0000
0320
0000
0000
0031
0000
0001
0100
0000
0100
0010
0000
0010
1000
0000
1000
,
0001
0000
0001
0010
0000
0010
2M00
0000
0000
30M1
0000
0001
0100
0000
0100
0010
0000
0010
0002
0000
0000
0103
0000
0100
,
0020
0000
0030
1000
0001
1000
0200
0000
0000
0320
0000
0030
0001
0100
0001
1000
0000
0010
1000
0000
0010
0100
0000
0010
,
0002
0000
0000
0013
0000
1000
0100
0000
0010
0001
0000
0100
0002
0000
0000
0013
0000
0001
0100
0000
0000
0010
0000
1000
,
0100
0000
0000
1001
0000
0000
1000
0000
0010
0100
0000
0001
1000
0100
1000
0001
0000
0010
0001
0000
0100
0010
0000
0100
,
2000
0000
0000
3100
0000
0010
1000
0000
1000
0001
0000
0000
0011
0000
0000
0001
0000
0100
0000
0000
0010
0100
0000
0010
,
1000
0000
0000
1010
0000
1000
0001
0000
0001
0010
0000
0100
1000
0001
1000
0001
0000
0100
0001
0000
0100
0010
0000
1000
,
0020
0000
0000
0031
0000
0010
1000
0000
0010
0100
0000
0001
1000
0000
0000
0010
0000
1000
0000
0000
0001
0010
0000
0100
,
1000
0000
0000
1001
0000
0000
0001
0000
0001
0010
0000
0001
0100
0000
0000
0010
0000
1000
0000
0000
0010
1000
0000
0001
,
0000
0000
0000
0010
0000
0100
0000
0000
0010
0100
0000
1000
0001
0000
0000
0100
0000
0000
1000
0100
0001
0010
0000
0100
,
1000
1000
0010
0100
0000
0000
0000
0000
;

//---------------dance-single - ----------------
#NOTEDATA:;
#CHARTNAME:;
#STEPSTYPE:dance-single;
#DESCRIPTION:;
#CHARTSTYLE:;
#DIFFICULTY:Hard;
#METER:9;
#RADARVALUES:0.642810,0.624883,0.434627,0.204530,0.490021,453.000000,51.000000,24.000000,4.000000,0.000000,0.000000,0.000000,0.000000,0.642810,0.624883,0.434627,0.204530,0.490021,453.000000,51.000000,24.000000,4.000000,0.000000,0.000000,0.000000,0.000000;
#CREDIT:;
#NOTES:
// measure 0
0000
0000
0000
0000
,  // measure 1
0000
0000
0000
0000
,  // measure 2
0000
0000
0000
0000
,  // measure 3
0000
0000
0000
0000
,  // measure 4
1000
0100
0010
0001
,  // measure 5
0100
0010
1000
0001
,  // measure 6
0010
0001
0100
1000
,  // measure 7
0100
0001
0010
0100
,  // measure 8
1100
1010
0011
0101
,  // measure 9
1010
1100
0101
0011
,  // measure 10
0001
0010
1000
0010
0001
0100
1000
0100
,  // measure 11
0001
1000
0001
1000
0000
0000
0001
1000
0001
1000
0000
0000
0001
0000
0000
0011
0000
0000
1010
0000
0000
1100
0000
0000
,  // measure 12
2001
0000
0000
3001
0000
0100
0000
0000
0010
1000
0000
0000
1200
0000
0000
0310
0000
0001
0000
0000
0001
0100
0000
0000
,  // measure 13
0101
0000
0000
0001
0000
0000
0010
0000
0000
0001
0000
0000
1000
0010
1000
0010
0000
0000
1000
0000
0000
0110
0000
0000
,  // measure 14
1002
0000
0000
1003
0000
0100
0000
0000
0010
0001
0000
0000
0021
0000
0000
0130
0000
1000
0000
0000
1000
0010
0000
0000
,  // measure 15
0110
0000
0000
0100
0000
0000
0001
0000
0000
0010
0000
0000
0001
1000
0001
0200
0000
0000
0320
0000
0000
2030
0000
0000
,  // measure 16
3001
0100
1000
0100
0001
0010
2100
3010
,  // measure 17
1000
0001
1000
0001
0000
0001
1000
0000
0000
1010
0000
0000
0100
0000
0000
0100
0000
0000
0001
0000
0000
0110
0000
0000
,  // measure 18
1001
1000
0100
0001
0100
1000
0012
1000
,  // measure 19
0103
0000
0000
0100
0000
0001
0100
0000
0000
0000
0000
0010
1000
0000
0000
0001
0010
0001
0010
0000
0000
0100
0000
0000
,  // measure 20
1000
0000
0000
1000
0000
0000
1000
0000
0001
0100
0000
0000
0001
1000
0001
1000
0000
0000
1000
0000
0000
0001
0000
0000
,  // measure 21
1000
0000
0000
0010
0000
0100
0001
0000
0001
0010
0000
000M
2M10
0000
0000
0000
0000
0000
3100
0000
0000
0010
0000
0010
,  // measure 22
0001
0000
0000
0100
0000
0000
1000
0000
0000
0100
0000
0000
0001
0010
0001
0010
0000
0000
0001
0000
0000
0100
0000
0000
,  // measure 23
0100
0000
0000
0010
0000
0010
1000
0000
0010
0100
0000
0000
0001
0000
0000
0001
0100
0010
2000
0000
0000
3010
0000
1000
,  // measure 24
0010
0000
0000
1000
0000
1010
0000
0000
0000
0101
0000
0000
1000
0001
1000
0001
0000
0000
0001
0000
0000
1000
0000
0000
,  // measure 25
0001
0000
0000
0010
0000
0100
1000
0000
1000
0010
0000
M000
0M12
0000
0000
1000
0000
0000
1000
0000
0000
0103
0000
0100
,  // measure 26
0001
0000
0000
0010
0000
0000
1000
0000
0000
0010
0000
0000
0001
0100
0001
0100
0000
0000
0100
0000
0000
0010
0000
0000
,  // measure 27
1000
0000
0000
0100
0000
0100
0010
0000
0100
1000
0000
0000
0010
0000
0000
1000
0100
0010
0002
0000
0000
0013
0000
0001
,  // measure 28
0010
0000
0000
0100
0000
0000
1000
0000
0000
0001
0000
0000
0100
0000
0000
0010
0000
1000
0010
0000
0010
1000
0000
0000
,  // measure 29
0001
0000
0000
0010
0000
0000
1000
0000
0000
0010
0000
0000
0001
0000
0000
0100
0000
0001
0010
0000
0010
0001
0000
0000
,  // measure 30
0100
0000
0000
0100
0000
0000
0010
0000
0010
1000
0000
1000
0001
0000
0000
1000
0000
0100
0010
0000
0010
0100
0000
0000
,  // measure 31
1000
0000
0000
0010
0000
0000
0001
0000
0000
0010
0000
0000
1000
0000
0000
0100
0000
0010
0001
0000
0001
0010
0000
0000
,  // measure 32
0200
0000
0000
0000
0000
0000
0320
0000
0000
0031
0000
0000
1001
0000
0000
1000
0000
0010
0100
0000
0100
0010
0000
0000
,  // measure 33
1000
0000
0000
0100
0000
0000
0001
0000
0000
0100
0000
0000
1000
0000
0000
0010
0000
0100
0001
0000
0001
0100
0000
0000
,  // measure 34
0010
0000
0000
0010
0000
0000
1000
0000
1000
0001
0000
0001
0010
0000
0001
1000
0000
0001
1000
0000
0001
1000
0000
0000
,  // measure 35
0010
0000
0000
1000
0000
0001
0010
0000
0001
0010
0000
0000
0011
0000
0000
0000
0000
0000
1100
0000
0000
0000
0000
0000
,  // measure 36
0010
0000
0100
0000
0001
0000
1001
0000
0000
0110
0000
0000
1002
0000
0000
1003
0000
0100
0000
0000
1000
0010
0000
0000
,  // measure 37
0201
0000
0000
0310
0000
1000
0000
0000
1000
0100
0000
0000
0011
0000
0000
0001
0000
0000
0100
0000
0000
0010
0000
0000
,  // measure 38
1000
0001
1000
0001
0000
0000
1000
0000
0000
0110
0000
0000
2001
0000
0000
3001
0000
0100
0000
0000
0001
0010
0000
0000
,  // measure 39
1200
0000
0000
0310
0000
0001
0000
0000
0001
0100
0000
0000
1010
0000
0000
1000
0000
0000
0100
0000
0000
0010
0000
0000
,  // measure 40
0001
1000
0001
0020
0000
0000
0032
0000
0000
0203
0000
0000
0310
0000
0000
1000
0000
0000
0100
0000
0000
0001
0000
0000
,  // measure 41
0100
0000
0000
1000
0000
0000
0012
0000
0000
1003
0000
0000
0001
1000
0001
1000
0000
1000
0001
0000
0000
0101
0000
0000
,  // measure 42
0010
0010
1000
0110
1001
0001
0100
1000
,  // measure 43
0100
0000
0000
0010
0000
0000
2001
0000
0000
0100
0000
0000
3001
0000
0000
0001
0000
0010
0001
0000
0000
0000
0000
1000
,  // measure 44
0010
0000
0000
0100
0001
0100
0010
0000
0000
1000
0000
0000
0001
0010
0001
0010
0000
0000
0010
0000
0000
0001
0000
0000
,  // measure 45
1000
0000
0000
0001
0000
1000
0010
0000
0010
1000
0000
0000
0100
0000
0000
1000
0000
0000
0000
0000
0000
1001
0000
0000
,  // measure 46
0000
0000
0000
0110
0000
0000
0001
0000
0001
1000
0000
0000
0010
0100
0010
0100
0000
0000
0100
0000
0000
0010
0000
0000
,  // measure 47
1000
0000
0000
0001
0000
0010
0001
0000
0001
0100
0000
0000
0010
0000
0000
1000
0000
0000
0000
0000
0000
1100
0000
0000
,  // measure 48
0000
0000
0000
0011
0000
0000
0010
0000
0010
0001
0000
0000
1000
0100
1000
0100
0000
0000
0100
0000
0000
1000
0000
0000
,  // measure 49
0001
0000
0000
0100
0000
0010
1000
0000
1000
0001
0000
0000
0010
0000
0000
0100
0000
0000
0000
0000
0000
0110
0000
0000
,  // measure 50
0000
0000
0000
1001
0000
0000
1000
0000
1000
0010
0000
0000
0100
0000
0000
0001
0000
1000
0000
0000
1000
0001
0000
0000
,  // measure 51
0100
0000
0000
0001
0000
1000
0000
0000
1000
0001
0000
0000
0110
0000
0000
1000
0000
0000
0001
1000
0001
1000
0000
0001
,  // measure 52
1000
1000
0010
0100
0000
0000
0000
0000
;

//---------------dance-single - ----------------
#NOTEDATA:;
#CHARTNAME:;
#STEPSTYPE:dance-single;
#DESCRIPTION:;
#CHARTSTYLE:;
#DIFFICULTY:Medium;
#METER:7;
#RADARVALUES:0.476020,0.468662,0.323840,0.213052,0.046872,328.000000,38.000000,25.000000,0.000000,0.000000,0.000000,0.000000,0.000000,0.476020,0.468662,0.323840,0.213052,0.046872,328.000000,38.000000,25.000000,0.000000,0.000000,0.000000,0.000000,0.000000;
#CREDIT:;
#NOTES:
0000
0000
0000
0000
,
0000
0000
0000
0000
,
0000
0000
0000
0000
,
0000
0000
0000
0000
,
0001
0010
0100
1000
,
0001
0100
0010
1000
,
0100
0010
0001
1000
,
0010
0100
0001
1000
,
1100
1100
0011
0011
,
1010
1010
0101
0101
,
1000
0010
1000
0100
1000
0010
1000
0100
,
0010
0000
0000
0000
0000
0010
0001
0100
,
1002
0000
0000
0000
0000
0103
0000
0000
0000
0010
0000
0000
2010
0000
0000
0000
0000
3100
0000
0000
0000
0010
0000
0000
,
0001
0100
1000
0100
0001
0010
0100
1000
,
2001
0000
0000
0000
0000
3100
0000
0000
0000
0010
0000
0000
0012
0000
0000
0000
0000
0103
0000
0000
0000
0010
0000
0000
,
0001
0010
1000
0100
0010
0002
0203
0320
,
1030
1000
0001
0001
0010
0010
2001
0000
,
3010
1000
0010
0100
0001
0001
0010
0100
,
1000
1000
0010
0010
0100
0100
1002
0000
,
0103
0010
1010
0000
0101
0100
0001
0010
,
0200
0000
0000
0300
1000
0001
0001
1000
,
0001
0100
0010
0010
0210
0000
0301
0010
,
0100
0100
1000
0001
1000
0010
1000
1000
,
0100
0010
0001
0001
1000
0010
0102
0000
,
1003
0000
0000
0000
0000
1010
0000
0000
0000
0101
0000
0000
0001
0000
0000
1000
0000
0000
1000
0000
0000
0001
0000
0000
,
1000
0100
0010
0010
0012
1000
1000
0103
,
0001
0001
0010
0100
1000
0010
0100
0100
,
0001
0010
0001
0001
0100
0010
1020
0000
,
0130
0100
0001
0010
0001
0100
0010
1000
,
0001
0100
1000
0100
0001
0010
0001
0100
,
0010
0010
1000
0001
1000
0100
0010
0001
,
1000
0100
0001
0100
1000
0010
0100
0010
,
2000
0000
3002
1000
1003
0010
0100
0001
,
0010
1000
0010
0001
1000
0010
0100
0001
,
1000
1000
0100
0010
0001
0100
0010
1000
,
0100
0001
0100
1000
1010
0000
0101
0000
,
1000
0000
0001
0000
1000
0000
0001
0000
0000
0000
0000
0000
0021
0000
0000
0000
0000
0130
0000
0000
0000
1000
0000
0000
,
1020
0000
0000
0000
0000
0130
0000
0000
0000
0001
0000
0000
0010
0000
0000
1000
0000
0000
0010
0000
0000
0001
0000
0000
,
0100
0000
0000
0010
0000
0000
1000
0000
0000
0100
0000
0000
1200
0000
0000
0000
0000
0310
0000
0000
0000
0001
0000
0000
,
0201
0000
0000
0000
0000
0310
0000
0000
0000
1000
0000
0000
0100
0000
0000
0001
0000
0000
0100
0000
0000
1000
0000
0000
,
0010
0200
0302
0023
0130
0100
1000
1000
,
0010
0010
2001
0000
3001
0010
0001
0100
,
0010
0010
1000
0100
0010
0010
0001
0001
,
0100
0100
1002
0000
0103
0010
1010
0000
,
0101
0100
1000
0100
0001
0010
0010
0001
,
1000
0010
0001
0010
1000
0100
0000
0110
,
0000
1001
1000
1000
0010
0100
0100
0010
,
1000
0100
0001
0100
1000
0010
0000
1010
,
0000
0101
0100
0100
0001
1000
1000
0001
,
0100
1000
0100
0001
0010
0100
0000
1100
,
0000
0011
0001
0001
0000
0100
0001
0010
,
0000
0100
1000
0010
0100
1000
0100
0001
,
1000
1000
0010
0100
0000
0000
0000
0000
;

//---------------dance-single - ----------------
#NOTEDATA:;
#CHARTNAME:;
#STEPSTYPE:dance-single;
#DESCRIPTION:;
#CHARTSTYLE:;
#DIFFICULTY:Easy;
#METER:5;
#RADARVALUES:0.349406,0.357076,0.093743,0.187486,0.004261,254.000000,11.000000,22.000000,0.000000,0.000000,0.000000,0.000000,0.000000,0.349406,0.357076,0.093743,0.187486,0.004261,254.000000,11.000000,22.000000,0.000000,0.000000,0.000000,0.000000,0.000000;
#CREDIT:;
#NOTES:
0000
0000
0000
0000
,
0000
0000
0000
0000
,
0000
0000
0000
0000
,
0000
0000
0000
0000
,
0001
0001
1000
1000
,
0010
0010
0100
0100
,
0001
0001
0010
0010
,
0100
0100
1000
1000
,
0001
0100
0010
1000
,
0001
0010
0100
1000
,
0010
0100
0010
0100
0010
0100
0010
0100
,
0010
0000
0000
0100
,
1002
0000
0103
0010
2000
0000
3100
0010
,
0002
0000
0013
0000
0100
1000
0010
0100
,
0002
0000
0013
0001
0200
0000
0310
1000
,
0200
0000
1300
0000
0010
0001
0010
1000
,
0100
1000
0010
1002
,
0103
0010
0100
0000
0001
0001
1000
0010
,
0100
0001
0010
2001
,
3010
0000
1000
0000
0100
0000
0010
0001
,
0200
0000
0000
0300
0001
1000
0001
0000
,
0100
0000
0010
1000
0200
0000
0301
0000
,
0100
1000
0010
0000
0100
0001
0100
0000
,
0010
0000
1000
0000
0001
0010
0200
0000
,
1300
0000
0000
0000
0000
1001
0000
0000
0000
0000
0000
0000
1000
0000
0000
0001
0000
0000
1000
0000
0000
0000
0000
0000
,
0100
0000
0010
0001
0200
0010
0310
0000
,
0100
0001
0010
0000
0100
1000
0100
0000
,
0010
0000
0001
0000
1000
0010
0200
0000
,
1300
0100
0001
0000
1000
0001
0100
0010
,
0000
0010
0000
1001
0000
0010
1000
0100
,
0000
0100
0010
0001
0000
1000
0001
0100
,
0000
0100
0000
1001
0000
0010
1000
0001
,
0200
0000
0000
0000
0310
0100
0001
0010
,
0000
0010
0000
1001
0000
0010
1000
0100
,
0000
0100
1000
0001
0000
0100
0010
1000
,
0000
0100
0010
0001
0100
0000
0010
0000
,
1000
0000
0110
0000
2001
0000
3010
1000
,
0002
0000
0013
0001
0200
0000
0310
0000
,
0100
0001
0010
0100
2000
0000
3010
1000
,
0200
0000
0310
0001
2000
0000
3010
0000
,
0001
0010
1000
0100
0010
0000
0001
0000
,
0100
0000
2001
0000
3010
0100
0010
0000
,
1000
1000
0001
0010
0100
0000
1000
0000
,
0010
1002
0103
0010
,
1000
0000
0100
0010
0001
0100
0001
0000
,
1000
0000
0010
1000
0100
0000
0010
0000
,
0100
1000
0001
0000
0100
0010
0100
0000
,
0010
0000
1000
0100
0010
0000
0001
0000
,
1000
0010
0100
0000
0001
1000
0001
0000
,
0010
0000
0001
0100
0010
0000
0100
0000
,
0001
1000
0100
0000
0010
0000
0001
0000
,
0100
0000
0010
0000
1000
0001
1000
0001
,
0100
0000
0010
0100
0000
0000
0000
0000
;

//---------------dance-single - ----------------
#NOTEDATA:;
#CHARTNAME:;
#STEPSTYPE:dance-single;
#DESCRIPTION:;
#CHARTSTYLE:;
#DIFFICULTY:Beginner;
#METER:2;
#RADARVALUES:0.164355,0.177260,0.085221,0.000000,0.000000,125.000000,10.000000,0.000000,0.000000,0.000000,0.000000,0.000000,0.000000,0.164355,0.177260,0.085221,0.000000,0.000000,125.000000,10.000000,0.000000,0.000000,0.000000,0.000000,0.000000,0.000000;
#CREDIT:;
#NOTES:
0000
0000
0000
0000
,
0000
0000
0000
0000
,
0000
0000
0000
0000
,
0000
0000
0000
0000
,
0001
0000
1000
0000
,
0001
0000
1000
0000
,
0100
0000
0010
0000
,
0100
0000
0010
0000
,
0001
0001
0001
0000
,
1000
1000
1000
0000
,
0010
0100
0010
0100
,
0010
0000
0000
0000
,
1001
0000
1001
0000
,
1000
1000
1000
0000
,
1001
0000
1001
0000
,
0001
0001
0001
0000
,
0010
0000
0001
0000
,
0100
0000
0100
0000
,
0010
0000
1000
0000
,
0100
0000
0100
0100
,
0100
0000
1000
1000
,
1000
0000
0010
0000
,
0100
0000
0001
0001
,
0001
0000
0010
0000
,
0001
1000
0001
0001
,
0001
0000
0100
0000
,
0010
0000
1000
1000
,
1000
0000
0100
0000
,
0010
0000
0001
0001
,
0001
0000
0100
0100
,
0100
0000
1000
1000
,
1000
0000
0010
0010
,
0010
0000
0001
1000
,
0001
0000
1000
0001
,
1000
0000
0010
0100
,
0010
0000
1001
0000
,
0110
0000
1001
0000
,
1001
0000
0001
0001
,
0001
0000
1001
0000
,
1001
0000
1000
1000
,
1000
0000
0100
0000
,
1000
0000
0010
0000
,
0010
0000
0100
0000
,
0001
0000
0010
0000
,
0010
0001
1000
1000
,
1000
0001
1000
0000
,
0010
0000
0100
0100
,
0100
0010
0100
0000
,
0001
0000
0001
0001
,
0001
1000
0001
0000
,
0010
0000
0100
0000
,
1000
0000
0001
0100
,
1000
0000
0000
0000
;
