#VERSION:0.81;
#TITLE:CAUGHT OUT THERE;
#SUBTITLE:;
#ARTIST:KELIS;
#TITLETRANSLIT:;
#SUBTITLETRANSLIT:;
#ARTISTTRANSLIT:;
#GENRE:;
#ORIGIN:;
#CREDIT:;
#BANNER:[Round 2 Singles] - CAUGHT OUT THERE-banner.png;
#BACKGROUND:;
#PREVIEWVID:;
#JACKET:[Round 2 Singles] - CAUGHT OUT THERE-jacket.png;
#CDIMAGE:;
#DISCIMAGE:;
#LYRICSPATH:;
#CDTITLE:;
#MUSIC:[Round 2 Singles] - CAUGHT OUT THERE.ogg;
#OFFSET:-0.837;
#SAMPLESTART:62.724;
#SAMPLELENGTH:18.172;
#SELECTABLE:YES;
#BPMS:0.000=93.000;
#STOPS:;
#DELAYS:;
#WARPS:;
#TIMESIGNATURES:0.000=4=4;
#TICKCOUNTS:0.000=4;
#COMBOS:0.000=1;
#SPEEDS:0.000=1.000=0.000=0;
#SCROLLS:0.000=1.000;
#FAKES:;
#LABELS:0.000=Song Start;
#BGCHANGES:;
#KEYSOUNDS:;
#ATTACKS:
;

//---------------dance-single - ----------------
#NOTEDATA:;
#CHARTNAME:;
#STEPSTYPE:dance-single;
#DESCRIPTION:;
#CHARTSTYLE:;
#DIFFICULTY:Hard;
#METER:7;
#RADARVALUES:0.360,0.362,0.224,0.000,0.272,266.000,26.000,0.000,0.000,0.000,6.000,0.000,0.000,0.360,0.362,0.224,0.000,0.272,266.000,26.000,0.000,0.000,0.000,6.000,0.000,0.000;
#CREDIT:;
#NOTES:
0000
0000
0000
0000
,
0000
0000
0000
0000
,
0000
0000
0000
0000
,
0000
0000
0000
0000
,
1100
0000
0100
0000
0010
0000
0011
0000
0000
0000
0001
1000
0001
0000
0000
0000
,
1010
0000
0010
0000
0100
0000
0101
0000
0000
0000
0100
0010
0100
0000
0000
0000
,
0001
0000
0000
0100
0001
0000
1000
0000
0100
0000
0000
0100
1000
0000
0001
0000
,
0100
0000
0010
0000
1000
0000
0001
0000
0000
0000
1000
0001
1000
0000
0000
0000
,
1010
0000
0010
0000
0100
0000
0000
0000
0001
0100
0001
0000
1000
0000
0000
0000
,
1100
0000
0100
0000
0010
0000
0000
0000
0001
0000
0010
0001
0010
0000
0001
0000
,
1000
0000
0000
1000
0010
0000
0100
0000
0001
0000
0000
0001
0100
0000
0010
0000
,
1000
0000
0100
0000
0010
0000
0001
0000
0000
0000
0100
0001
0100
0000
0000
0000
,
0101
0000
0100
0000
0010
0000
0000
0000
1000
0010
1000
0000
0001
0000
0000
0000
,
0011
0000
0010
0000
0100
0000
1000
0000
0000
0000
0100
1000
0100
0000
0000
0000
,
1000
0000
0000
1000
0100
0000
0010
0000
0001
0000
0000
0001
0010
0000
0100
0000
,
1000
0000
0010
0000
0100
0000
0001
0000
0000
0000
0010
0001
0010
0000
0000
0000
,
1100
1000
0010
0100
0000
0001
0100
0000
,
0110
0100
1000
0100
0010
0100
0001
0010
,
0010
0000
0100
1000
0100
0000
0010
0000
0001
0000
1000
0001
1000
0000
0000
0000
,
0010
1000
0001
0000
1001
0000
0000
0000
0100
0001
1000
0000
1001
0000
0000
0000
,
1000
0000
0100
0000
0110
0000
0000
0000
0100
0010
0001
0000
1000
0000
0000
0000
,
0001
0000
0100
0000
0110
0000
0000
0000
0100
0000
0010
1000
0001
0000
0010
0000
,
0001
0000
0000
0001
0010
0000
0001
0000
1000
0000
0000
1000
0010
0000
1000
0000
,
0001
0010
0100
1000
0000
0000
0000
0000
,
1000
0000
0100
0000
0100
1000
0000
1000
0001
0000
0100
0001
0100
0000
0000
0000
,
0001
0000
0100
0000
0100
0001
0000
0001
1000
0000
0100
1000
0100
0000
0000
0000
,
0010
0000
0000
0010
0100
0000
0400
0040
0000
0000
0000
0000
0000
0000
0330
0000
,
0100
0000
0010
0000
0100
0010
0000
0010
0001
0000
1000
0001
1000
0000
0000
0000
,
1000
0000
0010
0000
0010
1000
0000
1000
0001
0000
0010
0001
0010
0000
0000
0000
,
0001
0000
0010
0000
0010
0001
0000
0001
1000
0000
0010
1000
0010
0000
0000
0000
,
0100
0000
0000
0100
0010
0000
0040
0400
0000
0000
0000
0000
0000
0000
0330
0000
,
0010
0000
0100
0000
0010
0100
0000
0100
0001
0000
1000
0001
1000
0000
0000
0000
,
0100
0000
1000
0000
0100
0010
0000
0010
0001
0000
1000
0001
0100
0000
0000
0000
,
0100
0000
0001
0000
0100
0010
0000
0010
1000
0000
0001
1000
0100
0000
0000
0000
,
0010
0000
0000
0010
0000
0000
0004
4000
0000
0000
0000
0000
0000
0000
3003
0000
,
1001
0000
0000
0000
,
1001
0000
0000
0001
0100
0000
0010
0000
1010
0000
0000
1000
0010
0000
0100
0000
,
0101
0000
0000
0001
0100
0000
0010
0000
1010
0000
0000
1000
1010
0000
0000
1000
,
1100
0000
0000
1000
0100
0000
0010
0000
0011
0000
0000
0001
0010
0000
0100
0000
,
1100
0000
0000
1000
0100
0000
0010
0000
0011
0000
0000
0001
0011
0000
0000
0001
,
0101
0000
0000
0000
;

//---------------dance-single - ----------------
#NOTEDATA:;
#CHARTNAME:;
#STEPSTYPE:dance-single;
#DESCRIPTION:;
#CHARTSTYLE:;
#DIFFICULTY:Beginner;
#METER:1;
#RADARVALUES:0.084,0.086,0.043,0.000,0.000,63.000,5.000,0.000,0.000,0.000,0.000,0.000,0.000,0.084,0.086,0.043,0.000,0.000,63.000,5.000,0.000,0.000,0.000,0.000,0.000,0.000;
#CREDIT:;
#NOTES:
0000
0000
0000
0000
,
0000
0000
0000
0000
,
0000
0000
0000
0000
,
0000
0000
0000
0000
,
1000
0000
0000
0000
,
0001
0000
0000
0000
,
1000
0000
1000
0000
,
0001
0000
0000
0000
,
1000
0000
1000
0000
,
0001
0000
0001
0000
,
1000
0000
0001
0000
,
1000
0000
0001
0000
,
0001
0000
0001
0000
,
1000
0000
0000
0000
,
0001
0000
1000
0000
,
0001
0000
1000
0000
,
0010
0000
0000
0000
,
0010
0000
0000
0000
,
0010
0000
0000
0000
,
0010
0000
0000
0000
,
0100
0000
0100
0000
,
0010
0000
0010
0000
,
0100
0000
0010
0000
,
0010
0000
0110
0000
,
0001
0000
1000
0000
,
0001
0000
1000
0000
,
0000
0000
0000
1001
0000
0000
0000
0000
,
1000
0000
0001
0000
,
1000
0000
0001
0000
,
1000
0000
0001
0000
,
0000
0000
0000
1001
0000
0000
0000
0000
,
0100
0000
0010
0000
,
0100
0000
0010
0000
,
0100
0000
0010
0000
,
0000
0000
0000
0110
0000
0000
0000
0000
,
1001
0000
0000
0000
,
1000
0000
0001
0000
,
1000
0000
0001
0001
,
0001
0000
1000
0000
,
0001
0000
1000
1000
,
1000
0000
0000
0000
;

//---------------dance-single - ----------------
#NOTEDATA:;
#CHARTNAME:;
#STEPSTYPE:dance-single;
#DESCRIPTION:;
#CHARTSTYLE:;
#DIFFICULTY:Medium;
#METER:5;
#RADARVALUES:0.307,0.310,0.448,0.000,0.065,197.000,52.000,0.000,0.000,0.000,3.000,0.000,0.000,0.307,0.310,0.448,0.000,0.065,197.000,52.000,0.000,0.000,0.000,3.000,0.000,0.000;
#CREDIT:;
#NOTES:
0000
0000
0000
0000
,
0000
0000
0000
0000
,
0000
0000
0000
0000
,
0000
0000
0000
0000
,
0101
0000
0001
0100
0000
0010
0010
0000
,
1010
0000
1000
0001
0000
0010
0010
0000
,
0100
0000
0100
1000
0001
0000
1000
0001
,
0100
0000
0100
0010
0000
1000
1000
0000
,
0100
1000
0001
0000
0010
0010
0011
0000
,
0001
1000
0010
0000
0100
0100
0001
0100
,
0001
0101
0000
0100
0110
0000
0010
1010
,
0000
0000
0000
0101
0000
0100
0100
0000
,
0001
0100
0010
0000
1000
1000
1010
0000
,
1000
0001
0010
0001
0000
1000
1000
0000
,
1000
1100
0000
0100
0110
0000
0010
0011
,
0000
0000
0000
0001
1000
0100
0100
0000
,
1100
0100
0010
0001
0000
0001
1000
0000
,
1010
0010
0100
0001
0100
0010
0010
1000
,
1000
0100
0010
0001
0010
0100
0100
0000
,
1100
1000
0001
0000
0100
0001
1000
0000
,
0010
1000
1010
0000
0010
0100
0001
0000
,
0100
0001
0101
0000
0100
0010
1000
0001
,
0010
0011
0000
0100
0110
0000
1000
1100
,
0000
0000
0000
1001
0000
0000
0000
0000
,
1000
0000
0010
0000
0000
0010
0000
0000
1001
0000
0110
0000
1001
0000
0000
0000
,
0001
0000
0010
0000
0000
0010
0000
0000
1001
0000
0110
0000
1001
0000
0000
0000
,
0010
0000
0000
0010
0000
0000
0040
0000
0000
0000
0000
0000
0000
0000
0030
0000
,
0100
0000
0010
0000
0000
0010
0000
0000
0110
0000
1001
0000
0110
0000
0000
0000
,
0010
0000
0100
0000
0000
0100
0000
0000
0110
0000
1001
0000
0110
0000
0000
0000
,
0100
0000
0010
0000
0000
0010
0000
0000
0110
0000
1001
0000
0110
0000
0000
0000
,
1000
0000
0000
1000
0000
0000
0004
0000
0000
0000
0000
0000
0000
0000
0003
0000
,
1000
0000
0100
0000
0000
0100
0000
0000
1100
0000
1001
0000
0101
0000
0000
0000
,
0001
0000
0100
0000
0000
0100
0000
0000
0101
0000
1001
0000
1100
0000
0000
0000
,
0100
0000
1000
0000
0000
1000
0000
0000
1100
0000
1001
0000
0101
0000
0000
0000
,
0100
0000
0000
0100
0000
0000
0040
0000
0000
0000
0000
0000
0000
0000
0030
0000
,
0110
0000
0000
0000
,
1001
0000
1000
0100
1100
0000
0100
0010
,
0110
0000
0000
0000
0010
0000
0001
0000
0011
0000
0000
0001
0010
0000
0000
0100
,
1000
0000
1000
0001
0101
0000
0100
0010
,
0110
0000
0000
0000
0010
0000
1000
0000
1010
0000
0000
1000
0010
0000
0000
0100
,
0001
0000
0000
0000
;

//---------------dance-single - ----------------
#NOTEDATA:;
#CHARTNAME:;
#STEPSTYPE:dance-single;
#DESCRIPTION:;
#CHARTSTYLE:;
#DIFFICULTY:Easy;
#METER:3;
#RADARVALUES:0.200,0.224,0.155,0.052,0.000,138.000,18.000,6.000,0.000,0.000,0.000,0.000,0.000,0.200,0.224,0.155,0.052,0.000,138.000,18.000,6.000,0.000,0.000,0.000,0.000,0.000;
#CREDIT:;
#NOTES:
// measure 0
0000
0000
0000
0000
,  // measure 1
0000
0000
0000
0000
,  // measure 2
0000
0000
0000
0000
,  // measure 3
0000
0000
0000
0000
,  // measure 4
1000
0000
0000
1000
0000
0000
0000
0000
,  // measure 5
0001
0000
0000
0001
0000
0000
0000
0000
,  // measure 6
0100
0100
0010
0010
,  // measure 7
0100
0000
0000
0100
0000
0000
0000
0000
,  // measure 8
0001
0000
1000
0000
0100
0100
0100
0000
,  // measure 9
1000
0000
0001
0000
0100
0100
0100
0000
,  // measure 10
0001
0001
0000
0100
0100
0000
0001
0001
,  // measure 11
0000
0000
0000
1001
0000
0000
0000
0000
,  // measure 12
0001
0000
0010
0000
0100
0100
0100
0000
,  // measure 13
1000
0100
0000
0000
,  // measure 14
1000
1000
0000
0100
0100
0000
1000
1000
,  // measure 15
0000
0000
1001
0000
,  // measure 16
1000
0010
0100
0100
,  // measure 17
0001
0010
0100
0100
,  // measure 18
1000
0100
0010
0010
,  // measure 19
0001
0001
1000
1000
,  // measure 20
0010
0000
1000
0000
0001
0001
0001
0000
,  // measure 21
0010
0000
0001
0000
1000
1000
1000
0000
,  // measure 22
0001
0001
0000
1000
1000
0000
0001
0001
,  // measure 23
0000
0000
0000
1001
0000
0000
0000
0000
,  // measure 24
0001
0000
0100
0000
0010
0010
0010
0000
,  // measure 25
1000
0000
0100
0000
0010
0010
0010
0000
,  // measure 26
0100
0000
0000
2002
0000
0000
3003
0000
,  // measure 27
1000
0000
0001
0000
0100
0100
0100
0000
,  // measure 28
0001
0000
1000
0000
0100
0100
0100
0000
,  // measure 29
1000
0000
0001
0000
0100
0100
0100
0000
,  // measure 30
0010
0000
0000
0220
0000
0000
0330
0000
,  // measure 31
0010
0000
1000
0000
0001
0001
0001
0000
,  // measure 32
0010
0000
0001
0000
1000
1000
1000
0000
,  // measure 33
0010
0000
1000
0000
0001
0001
0001
0000
,  // measure 34
0010
0000
0000
0220
0000
0000
0330
0000
,  // measure 35
1001
0000
0000
0000
,  // measure 36
1001
0100
1001
0100
,  // measure 37
1001
0100
1001
0110
,  // measure 38
1001
0010
1001
0010
,  // measure 39
1001
0010
1001
0110
,  // measure 40
1001
0000
0000
0000
;
