#VERSION:0.81;
#TITLE:Broken;
#SUBTITLE:;
#ARTIST:dj TAKA feat. AiMEE;
#TITLETRANSLIT:;
#SUBTITLETRANSLIT:;
#ARTISTTRANSLIT:;
#GENRE:;
#ORIGIN:;
#CREDIT:;
#BANNER:[Round 2 Singles] - Broken.png;
#BACKGROUND:[Round 2 Singles] - Broken-bg.png;
#PREVIEWVID:;
#JACKET:[Round 2 Singles] - Broken-jacket.PNG;
#CDIMAGE:;
#DISCIMAGE:;
#LYRICSPATH:;
#CDTITLE:cdtitle.png;
#MUSIC:[Round 2 Singles] - Broken.ogg;
#OFFSET:0.015000;
#SAMPLESTART:59.992798;
#SAMPLELENGTH:16.216217;
#SELECTABLE:YES;
#BPMS:0.000=148.000;
#STOPS:;
#DELAYS:;
#WARPS:;
#TIMESIGNATURES:0.000=4=4;
#TICKCOUNTS:0.000=4;
#COMBOS:0.000=1;
#SPEEDS:0.000=1.000=0.000=0;
#SCROLLS:0.000=1.000;
#FAKES:;
#LABELS:0.000=Song Start;
#BGCHANGES:;
#KEYSOUNDS:;
#ATTACKS:
;

//---------------dance-single - xRGTMx-ESP----------------
#NOTEDATA:;
#CHARTNAME:xRGTMx-ESP;
#STEPSTYPE:dance-single;
#DESCRIPTION:xRGTMx-ESP;
#CHARTSTYLE:;
#DIFFICULTY:Hard;
#METER:10;
#RADARVALUES:0.780041,0.806245,0.240439,0.294731,0.670901,635.000000,31.000000,38.000000,0.000000,0.000000,0.000000,0.000000,0.000000,0.780041,0.806245,0.240439,0.294731,0.670901,635.000000,31.000000,38.000000,0.000000,0.000000,0.000000,0.000000,0.000000;
#CREDIT:xRGTMx-ESP;
#NOTES:
0000
0000
0000
0000
,
0110
1000
0001
0010
0001
0100
0010
1000
,
0100
0010
0001
1000
0010
0100
0001
1000
,
0010
0010
0100
0100
0001
0001
1000
1000
,
0100
0100
0010
0010
0011
0001
1001
1100
,
1000
0100
1000
0000
1000
0001
1000
0000
1000
0010
1000
0000
1000
0001
1000
0000
,
0001
0100
0001
0000
0001
1000
0001
0000
0001
0010
0001
0000
0001
1000
0001
0000
,
1000
0100
1000
0000
0001
0100
0001
0000
1000
0000
1100
0000
0101
0000
1001
0000
,
0110
0000
0000
1000
0001
0000
0110
0000
0000
0000
1000
0001
0100
0001
0100
0001
,
1000
0100
1000
0000
0010
0100
0010
0100
0000
0001
0100
0000
0001
0000
1000
0001
,
1000
0100
1000
0000
0100
0010
0001
0010
0000
0001
0100
0001
1000
0010
1000
0000
,
0001
0100
0001
0000
0010
0100
0010
0100
0000
1000
0100
0000
1000
0000
0001
1000
,
0001
0100
0001
0000
0100
0010
1000
0010
0000
1000
0100
0000
1100
0000
0101
0000
,
0001
0010
0100
0000
1000
0100
1000
0001
0000
0100
0010
0000
0100
0000
0001
1000
,
0100
1000
0001
0000
0010
0100
1000
0100
0000
1000
0010
0000
0100
0001
1000
0000
,
0001
0010
0001
0000
0100
0010
0100
0010
1000
0001
0100
0000
0001
1000
0001
1000
,
0100
1000
0010
0000
0100
0001
1000
0000
0010
0000
1010
0000
0101
0000
1100
0000
,
2001
0000
3020
0000
,
0230
0000
0302
0000
,
2003
0000
3200
0000
,
0320
0000
0030
0000
,
1001
0001
0100
0020
0000
0000
2030
0000
,
3100
1000
0001
0020
0000
0000
0032
0000
,
0103
0001
1000
0200
0000
0000
0010
0010
,
0320
0000
0031
0010
0100
1000
0001
0100
,
0001
1000
0100
2000
0000
0000
0010
0000
,
3002
0000
0013
0001
0000
0001
0100
0000
,
0010
1000
0001
0020
0000
0000
0000
0000
,
0130
0000
0010
2002
0000
0000
3003
0000
,
1000
0000
0100
0000
0100
0000
0001
0000
1000
0000
0010
0000
0010
0000
0001
1000
,
0001
0000
0100
0000
0100
0000
1000
0000
0001
0000
0010
0000
0010
0000
1000
0001
,
1000
0000
0010
0000
0010
0000
0001
1000
0001
0000
0010
0000
0010
0000
1000
0001
,
1000
0000
0100
0000
0100
0000
0001
1000
0001
0000
0100
0000
0100
0000
1000
0001
,
1000
0100
0001
0100
1000
0010
0100
0101
,
0001
0010
1000
0010
0001
0100
0010
1010
,
1000
0100
0100
0100
0010
0010
0010
1001
,
1000
0100
1000
0000
0001
0100
0001
0000
0010
0100
0010
0100
1000
0001
1000
0001
,
1000
0010
0100
0000
0001
0100
0000
0001
1000
0000
0001
0010
0000
0010
0100
0000
,
1000
0001
0010
0000
0001
0100
0000
0010
0100
0000
0001
1000
0000
0100
1000
0000
,
0001
0010
0100
0000
0010
0001
0000
1000
0010
0000
0100
0001
0000
1000
0100
0000
,
1000
0010
0100
0000
0001
0010
0000
0100
1000
0000
0001
0010
0000
0001
0100
0001
,
1000
0100
0010
0000
0100
1000
0000
0100
0001
0000
0100
0010
0000
0100
1000
0000
,
0001
0100
0010
0000
0100
1000
0000
0100
0001
0000
0100
0010
0000
1000
0001
0000
,
0011
0011
0000
1010
1010
0000
1001
2001
,
0000
0000
3100
0000
0010
0000
0002
0000
0000
0000
0103
0000
0010
0100
0001
0000
,
1000
0000
0100
0010
0100
0000
1000
0000
0001
0000
0100
0010
0100
0000
0001
0000
,
1000
0000
0100
0001
0100
0000
1000
0000
0001
0000
0100
1000
0100
0000
0001
0000
,
1000
0000
0100
0010
0001
0000
1000
0000
0010
0000
0100
0010
1000
0000
0001
0000
,
0010
0000
0100
1000
0001
0000
0100
0000
0010
0000
0001
0010
1000
0000
0001
0000
,
0020
0000
0100
0100
0000
0000
1000
0000
,
0032
0000
0000
0000
0100
0000
0000
1000
,
2000
0000
0000
0003
,
3010
1000
0100
0000
0010
0001
0100
0000
0001
0000
0010
0100
1000
0001
0100
0001
,
1000
0000
0100
0010
0000
0010
0100
0000
1000
0000
0100
0001
0000
0001
0100
0000
,
1000
0000
0010
0100
0000
0010
0100
0010
1000
0000
0100
0000
0010
0000
0001
1000
,
0001
0000
0100
0010
0000
0010
0100
0000
0001
0000
0100
1000
0000
1000
0100
0000
,
0001
0000
0000
0001
0010
0000
0100
0010
0001
0000
1000
0000
0010
0100
0010
0000
,
1000
0100
1000
0010
1000
0001
1000
0000
0001
0100
0001
0010
0001
1000
0001
0000
,
0100
0000
0000
0000
0010
1000
0001
0010
0100
1000
0001
0100
0010
1000
0001
0010
,
0100
1000
0100
1000
0001
1000
0001
0000
0100
0001
0100
0001
1000
0001
1000
0000
,
1010
0000
0000
0000
0110
0000
0000
0000
0101
0000
0001
0010
0001
1000
0001
1000
,
0010
1000
0010
0000
0100
0000
0001
0100
0001
0000
0010
0000
0100
0000
1000
0100
,
1000
0001
1000
0000
0010
0000
0100
0001
0100
0000
0010
1000
0010
0000
0100
0000
,
0001
0010
0001
0100
0001
0000
0010
0001
0010
0000
0100
0000
1000
0000
0010
1000
,
0010
0100
0001
0000
1000
0000
0100
1000
0100
0000
0010
0001
0010
0000
0100
0000
,
1000
0100
0001
0000
0100
0000
1000
0010
0001
0000
0010
0000
1000
0000
0100
0010
,
0001
0100
1000
0000
0100
0000
0001
0010
1000
0000
0010
0001
0100
0000
0010
0000
,
1000
0010
0001
0000
0010
0000
1000
0100
0001
0000
0100
0000
1000
0000
0010
0100
,
0001
0000
0010
0100
1000
0000
0001
0100
1000
0100
0001
0010
0100
1000
0001
0100
,
0002
0000
0023
0000
,
0230
0000
2300
0000
,
3002
0000
0203
0000
,
2300
0000
3020
0000
,
0032
0000
0203
0000
,
0320
0000
2030
0000
,
3002
0000
0013
0110
,
2002
0000
0000
0000
,
3003
0000
0000
0000
;

//---------------dance-single - xRGTMx-DSP----------------
#NOTEDATA:;
#CHARTNAME:xRGTMx-DSP;
#STEPSTYPE:dance-single;
#DESCRIPTION:xRGTMx-DSP;
#CHARTSTYLE:;
#DIFFICULTY:Medium;
#METER:8;
#RADARVALUES:0.548466,0.507636,0.139610,0.349024,0.031024,432.000000,18.000000,45.000000,0.000000,0.000000,0.000000,0.000000,0.000000,0.548466,0.507636,0.139610,0.349024,0.031024,432.000000,18.000000,45.000000,0.000000,0.000000,0.000000,0.000000,0.000000;
#CREDIT:xRGTMx-DSP;
#NOTES:
// measure 0
0000
0000
0000
0000
,  // measure 1
0010
1000
0100
0000
1000
0001
0010
0000
,  // measure 2
0100
0010
0001
0000
0100
0001
1000
0000
,  // measure 3
0100
0100
1000
0000
1000
1000
0001
0000
,  // measure 4
0001
0001
0100
0000
0010
0100
1001
0000
,  // measure 5
1000
0100
1000
0100
0010
0100
0010
0000
,  // measure 6
0001
0100
0001
0100
0010
0100
0010
0000
,  // measure 7
1000
0100
0001
0000
0001
0100
1000
0000
,  // measure 8
0110
0000
1001
1001
0000
1000
0100
0010
,  // measure 9
0001
0100
0001
0100
0001
1000
0001
1000
,  // measure 10
0001
0010
0001
0010
0001
1000
0001
0001
,  // measure 11
1000
0100
1000
0100
1000
0001
1000
0001
,  // measure 12
1000
0010
1000
0010
1000
0001
1000
1000
,  // measure 13
0100
1000
0100
1000
0100
0010
0100
0010
,  // measure 14
0100
0001
0100
0001
0100
1000
0100
0100
,  // measure 15
1000
0010
1000
0010
0001
0010
0001
0010
,  // measure 16
1000
0000
0110
1001
0000
1000
0100
0010
,  // measure 17
0002
0000
0023
0000
,  // measure 18
0230
0000
2300
0000
,  // measure 19
3002
0000
0203
0000
,  // measure 20
0320
0000
0030
0000
,  // measure 21
1001
1000
0010
0200
0000
0000
0302
0000
,  // measure 22
0013
0001
1000
0200
0000
0000
2300
0000
,  // measure 23
3010
1000
0001
0020
0000
0000
0100
0000
,  // measure 24
0230
0000
1300
0100
0010
0001
1000
0010
,  // measure 25
1000
0001
0010
0002
0000
0000
0100
0000
,  // measure 26
2003
0000
3100
1000
0000
1000
0010
0000
,  // measure 27
0100
0001
1000
0200
0000
0000
0000
0000
,  // measure 28
0310
0000
0100
2002
0000
0000
3003
0000
,  // measure 29
1000
0010
0010
0001
1000
0001
1000
0000
,  // measure 30
0001
0010
0010
1000
0001
1000
0001
0000
,  // measure 31
1000
0100
0100
0001
1000
0001
1000
0000
,  // measure 32
0001
0100
0100
1000
0001
1000
0001
0000
,  // measure 33
1000
0100
0010
0001
0100
0010
0010
0000
,  // measure 34
0001
0010
0100
1000
0010
0100
0100
0000
,  // measure 35
1000
0100
0010
0001
1000
0010
0100
0001
,  // measure 36
1000
0000
0000
0001
1000
0000
0000
1000
0001
0000
0010
0000
0100
0000
0010
0000
,  // measure 37
0001
0000
0100
0010
0000
0100
0001
1000
,  // measure 38
0000
0100
0020
0100
0000
0031
0100
0020
,  // measure 39
0000
1030
0100
2000
0000
3001
0010
0001
,  // measure 40
0100
0000
0010
0000
1000
0010
0100
0001
,  // measure 41
1000
0000
0100
0020
0000
0031
0010
0100
,  // measure 42
2000
0000
3010
0100
0001
1000
0100
0000
,  // measure 43
0010
0110
0000
0001
1001
0000
0100
0120
,  // measure 44
0000
0000
0130
1001
0000
1000
0100
0010
,  // measure 45
0001
0100
0010
0100
0001
0100
0010
0000
,  // measure 46
1000
0100
0010
0100
1000
0100
0010
0000
,  // measure 47
0001
0100
1000
0100
0001
0100
0010
0000
,  // measure 48
1000
0100
0001
0100
1000
0100
0010
0000
,  // measure 49
1002
0000
0000
0200
0003
0000
0010
0000
,  // measure 50
0320
0000
0200
0330
,  // measure 51
2002
0000
0000
3003
,  // measure 52
1000
0100
1000
0000
0001
0100
0001
0000
1000
0000
0100
0000
0010
0000
0001
0000
,  // measure 53
1000
0000
0000
0010
0000
0000
0100
0000
0010
0000
0000
1000
0000
0000
0001
0000
,  // measure 54
0010
0000
0100
0010
0001
1000
0010
0100
,  // measure 55
0001
0000
0000
0100
0000
0000
0010
0000
0100
0000
0000
0001
0000
0000
1000
0000
,  // measure 56
0100
0000
0010
0001
0010
0100
1000
0001
,  // measure 57
0100
0010
0100
0001
0100
1000
0100
0001
,  // measure 58
0010
0000
0100
0010
0001
1000
0010
0100
,  // measure 59
0001
0010
0100
1000
0001
0100
0010
1000
,  // measure 60
1001
0000
0110
0000
1001
0001
0010
0100
,  // measure 61
1000
0100
1000
0000
0100
0001
0100
0000
,  // measure 62
0001
0010
0001
0000
0010
1000
0010
0000
,  // measure 63
1000
0100
0001
0000
0100
0001
0010
0000
,  // measure 64
0001
0010
1000
0000
0010
1000
0100
0000
,  // measure 65
1000
0010
0100
0010
1000
0100
1000
0000
,  // measure 66
0001
0010
0100
0010
0001
0100
0001
0000
,  // measure 67
1000
0010
0010
0001
1000
0010
0010
0001
,  // measure 68
1000
0100
0100
0001
1000
0100
0100
0001
,  // measure 69
2000
0000
3200
0000
,  // measure 70
0320
0000
0032
0000
,  // measure 71
2003
0000
3020
0000
,  // measure 72
0230
0000
0302
0000
,  // measure 73
2003
0000
3200
0000
,  // measure 74
0320
0000
0032
0000
,  // measure 75
0203
0000
0310
0100
,  // measure 76
2002
0000
0000
0000
,  // measure 77
3003
0000
0000
0000
;

//---------------dance-single - xRGTMx-BSP----------------
#NOTEDATA:;
#CHARTNAME:xRGTMx-BSP;
#STEPSTYPE:dance-single;
#DESCRIPTION:xRGTMx-BSP;
#CHARTSTYLE:;
#DIFFICULTY:Easy;
#METER:5;
#RADARVALUES:0.302487,0.328470,0.062049,0.139610,0.000000,247.000000,8.000000,18.000000,0.000000,0.000000,0.000000,0.000000,0.000000,0.302487,0.328470,0.062049,0.139610,0.000000,247.000000,8.000000,18.000000,0.000000,0.000000,0.000000,0.000000,0.000000;
#CREDIT:xRGTMx-BSP;
#NOTES:
// measure 0
0000
0000
0000
0000
,  // measure 1
1000
1000
0001
0001
,  // measure 2
0010
0100
0010
0010
,  // measure 3
0001
0001
1000
1000
,  // measure 4
0010
0000
0100
0000
0010
0100
0010
0000
,  // measure 5
1000
1000
0100
0100
,  // measure 6
0010
0010
0001
0001
,  // measure 7
1000
0001
1000
0001
,  // measure 8
0100
0000
0000
0010
0000
0000
1001
0000
,  // measure 9
1000
0100
1000
0000
0100
0000
0100
0000
,  // measure 10
0010
0001
1000
0000
,  // measure 11
0001
0100
0001
0000
0100
0000
0100
0000
,  // measure 12
0010
1000
0001
0000
,  // measure 13
1000
0100
1000
0000
0100
0000
0010
0000
,  // measure 14
0001
0100
0100
0000
,  // measure 15
0001
1000
0001
0000
1000
0001
1000
0000
,  // measure 16
0010
0100
0110
1001
,  // measure 17
1000
0000
0100
0000
,  // measure 18
0010
0000
0001
0000
,  // measure 19
0010
0000
0100
0000
,  // measure 20
1000
0000
0000
0000
,  // measure 21
0020
0000
0000
0030
0000
0000
0000
0000
,  // measure 22
2000
0000
0000
3000
0000
0000
0000
0000
,  // measure 23
0002
0000
0000
0003
0000
0000
0000
0000
,  // measure 24
0020
0030
0200
0300
,  // measure 25
2000
0000
3001
0000
,  // measure 26
0002
0000
1003
0000
,  // measure 27
0020
0000
0000
0000
,  // measure 28
0130
0000
0110
0000
,  // measure 29
1000
1000
0001
0001
,  // measure 30
1000
0001
1000
1000
,  // measure 31
0001
0001
1000
1000
,  // measure 32
0001
1000
0001
0001
,  // measure 33
0100
0100
0010
0010
,  // measure 34
0100
0010
0100
0100
,  // measure 35
0020
0030
0200
0300
,  // measure 36
0110
0000
1001
0000
1000
0001
1000
0000
,  // measure 37
0001
0010
0001
0100
,  // measure 38
0010
1000
0100
1000
,  // measure 39
0001
0100
0010
1000
,  // measure 40
0100
0010
0100
1000
,  // measure 41
0001
0100
0010
1000
,  // measure 42
0100
0010
0100
1000
,  // measure 43
0001
0001
0000
1000
1000
0000
0010
0020
,  // measure 44
0000
0000
0000
0130
0000
0100
0010
0000
,  // measure 45
1000
0100
0100
0001
,  // measure 46
1000
0100
0100
0001
,  // measure 47
1000
0010
0010
0001
,  // measure 48
1000
0010
0010
0001
,  // measure 49
2000
0000
3000
0000
,  // measure 50
0002
0000
0003
0000
,  // measure 51
0220
0000
0330
0000
,  // measure 52
1000
0000
0001
0000
0010
0100
0010
0000
,  // measure 53
0001
0100
1000
0100
,  // measure 54
0001
0010
0100
1000
,  // measure 55
0001
0010
1000
0010
,  // measure 56
0001
0100
0010
1000
,  // measure 57
0001
0010
0001
0000
0100
0000
0010
0000
,  // measure 58
0100
0001
1000
0100
,  // measure 59
0010
0100
0010
0000
0100
0000
1000
0000
,  // measure 60
0001
0000
0001
0000
1000
0001
1000
0000
,  // measure 61
0001
0001
0100
0000
,  // measure 62
0100
0100
0010
0000
,  // measure 63
0010
0010
1000
0000
,  // measure 64
1000
1000
0001
0000
,  // measure 65
1000
0100
0010
0000
,  // measure 66
0100
0010
0001
0000
,  // measure 67
1000
0010
0100
0000
,  // measure 68
0001
1000
0001
1000
,  // measure 69
0001
0000
0010
0000
,  // measure 70
0010
0000
0100
0000
,  // measure 71
0100
0000
1000
0000
,  // measure 72
1000
0000
0001
0000
,  // measure 73
1000
0000
0010
0000
,  // measure 74
0100
0000
0001
0000
,  // measure 75
0020
0000
0030
0000
,  // measure 76
2002
0000
0000
0000
,  // measure 77
3003
0000
0000
0000
;

//---------------dance-single - xRGTMx-BEG----------------
#NOTEDATA:;
#CHARTNAME:xRGTMx-BEG;
#STEPSTYPE:dance-single;
#DESCRIPTION:xRGTMx-BEG;
#CHARTSTYLE:;
#DIFFICULTY:Beginner;
#METER:2;
#RADARVALUES:0.158446,0.268748,0.077561,0.062049,0.000000,125.000000,10.000000,8.000000,0.000000,0.000000,0.000000,0.000000,0.000000,0.158446,0.268748,0.077561,0.062049,0.000000,125.000000,10.000000,8.000000,0.000000,0.000000,0.000000,0.000000,0.000000;
#CREDIT:xRGTMx-BEG;
#NOTES:
// measure 0
0000
0000
0000
0000
,  // measure 1
1000
0000
1000
0000
,  // measure 2
0100
0000
0100
0000
,  // measure 3
0010
0000
0010
0000
,  // measure 4
0001
0000
0001
0000
,  // measure 5
1000
1000
0000
0000
,  // measure 6
0001
0001
0000
0000
,  // measure 7
0100
0000
0010
0000
,  // measure 8
1001
0000
0000
0000
,  // measure 9
1000
1000
1000
0000
,  // measure 10
0001
0001
0001
0000
,  // measure 11
0100
0000
0100
0000
,  // measure 12
0010
0000
1001
0000
,  // measure 13
0001
0001
0001
0000
,  // measure 14
1000
1000
1000
0000
,  // measure 15
0100
0000
0100
0000
,  // measure 16
0010
0000
1001
0000
,  // measure 17
1000
0000
0000
0000
,  // measure 18
0001
0000
0000
0000
,  // measure 19
1000
0000
0000
0000
,  // measure 20
0001
0000
0000
0000
,  // measure 21
1001
0000
0000
0000
,  // measure 22
0000
0000
0000
0000
,  // measure 23
0000
0000
0000
0000
,  // measure 24
0000
0000
0000
0000
,  // measure 25
0100
0000
0000
0000
,  // measure 26
0000
0000
0000
0000
,  // measure 27
0000
0000
0000
0000
,  // measure 28
0000
0000
0000
0000
,  // measure 29
2000
0000
3000
0000
,  // measure 30
0000
0000
0000
0000
,  // measure 31
0002
0000
0003
0000
,  // measure 32
0000
0000
0000
0000
,  // measure 33
0200
0000
0300
0000
,  // measure 34
0020
0000
0030
0000
,  // measure 35
0100
0000
0000
0000
,  // measure 36
1001
0000
1001
1001
,  // measure 37
1001
0000
1000
0000
,  // measure 38
0100
0000
0100
0000
,  // measure 39
0010
0000
0010
0000
,  // measure 40
0001
0000
0001
0000
,  // measure 41
0100
0000
0100
0000
,  // measure 42
0010
0000
0010
0000
,  // measure 43
1000
0000
0000
0001
0000
0000
1000
0000
,  // measure 44
0000
0000
0000
0010
0000
0000
0010
0000
,  // measure 45
0010
0000
1000
0000
,  // measure 46
0100
0000
0010
0000
,  // measure 47
0001
0000
0010
0000
,  // measure 48
0100
0000
1000
0000
,  // measure 49
0002
0000
0000
0000
,  // measure 50
0003
0000
0000
0000
,  // measure 51
2000
0000
0000
0000
,  // measure 52
3000
0000
0000
0000
,  // measure 53
0001
0001
0001
0000
,  // measure 54
0010
0010
0010
0000
,  // measure 55
0100
0100
0100
0000
,  // measure 56
1000
1000
1000
0000
,  // measure 57
0001
0000
0010
0000
,  // measure 58
0100
0000
1000
0000
,  // measure 59
0001
0000
0100
0000
,  // measure 60
0010
0010
0010
0000
,  // measure 61
1000
0000
0100
0000
,  // measure 62
1000
0000
0100
0000
,  // measure 63
0010
0000
0001
0000
,  // measure 64
0010
0000
0001
0000
,  // measure 65
1000
1000
1000
0000
,  // measure 66
0010
0010
0010
0000
,  // measure 67
0100
0100
0100
0000
,  // measure 68
0001
0001
0001
0000
,  // measure 69
1000
0000
0000
0000
,  // measure 70
0100
0000
0000
0000
,  // measure 71
0010
0000
0000
0000
,  // measure 72
0001
0000
0000
0000
,  // measure 73
0100
0000
0000
0000
,  // measure 74
0010
0000
0000
0000
,  // measure 75
0110
0000
0000
0000
,  // measure 76
2002
0000
0000
0000
,  // measure 77
3003
0000
0000
0000
;
