#VERSION:0.81;
#TITLE:Somebody That I Used To Know;
#SUBTITLE:;
#ARTIST:Mayday Parade ft. Vic Fuentes;
#TITLETRANSLIT:;
#SUBTITLETRANSLIT:;
#ARTISTTRANSLIT:;
#GENRE:;
#ORIGIN:;
#CREDIT:;
#BANNER:Somebody That I Used To Know - Mayday Parade ft. Vic Fuentesbn.png;
#BACKGROUND:Somebody That I Used To Know - Mayday Parade ft. Vic Fuentesbg.png;
#PREVIEWVID:;
#JACKET:;
#CDIMAGE:;
#DISCIMAGE:;
#LYRICSPATH:Somebody That I Used To Know - Mayday Parade ft. Vic Fuentes.lrc;
#CDTITLE:encorerebirth.png;
#MUSIC:Somebody That I Used To Know - Mayday Parade ft. Vic Fuentes.ogg;
#OFFSET:-0.022;
#SAMPLESTART:77.547;
#SAMPLELENGTH:14.018;
#SELECTABLE:YES;
#BPMS:0.000=136.000;
#STOPS:;
#DELAYS:;
#WARPS:;
#TIMESIGNATURES:0.000=4=4;
#TICKCOUNTS:0.000=4;
#COMBOS:0.000=1;
#SPEEDS:0.000=1.000=0.000=0;
#SCROLLS:0.000=1.000;
#FAKES:;
#LABELS:0.000=Song Start;
#BGCHANGES:;
#KEYSOUNDS:;
#ATTACKS:
;

//---------------dance-single - Spork!----------------
#NOTEDATA:;
#CHARTNAME:;
#STEPSTYPE:dance-single;
#DESCRIPTION:Spork!;
#CHARTSTYLE:;
#DIFFICULTY:Beginner;
#METER:1;
#RADARVALUES:0.092,0.103,0.061,0.123,0.000,60.000,8.000,16.000,0.000,0.000,0.000,0.000,0.000,0.092,0.103,0.061,0.123,0.000,60.000,8.000,16.000,0.000,0.000,0.000,0.000,0.000;
#CREDIT:Spork!;
#NOTES:
0000
0000
0000
0000
,
0000
0000
0000
0000
,
0000
0000
0000
0000
,
0000
0000
0000
0000
,
2000
0000
0000
0000
,
0000
0000
0000
0000
,
3000
0000
0000
0000
,
0000
0000
0000
0000
,
0002
0000
0000
0000
,
0000
0000
0000
0000
,
0003
0000
0000
0000
,
0000
0000
0000
0000
,
0200
0000
0000
0000
,
0300
0000
0000
0000
,
0020
0000
0000
0000
,
0030
0000
0000
0000
,
1000
0000
0000
0000
,
0001
0000
0000
0000
,
0010
0000
0000
0000
,
0000
0000
0000
0000
,
1001
0000
0000
0000
,
0100
0000
0000
0000
,
0110
0000
0000
0000
,
0001
0000
0000
0000
,
1000
0000
1000
0000
,
0001
0000
0001
0000
,
1000
0000
0100
0000
,
0010
0000
0001
0000
,
1000
0000
0000
0000
,
2000
0000
0000
0000
,
3000
0000
0000
0000
,
0000
0000
0000
0000
,
0001
0000
0000
0000
,
0002
0000
0000
0000
,
0003
0000
0000
0000
,
0000
0000
0000
0000
,
0220
0000
0000
0000
,
0330
0000
0000
0000
,
2002
0000
0000
0000
,
3003
0000
0000
0000
,
0010
0000
0000
0000
,
0001
0000
0000
0000
,
1000
0000
0001
0000
,
1000
0000
0000
0000
,
0001
0000
0100
0000
,
0002
0000
0003
0000
,
1000
0000
0010
0000
,
1000
0000
0001
0000
,
1000
0000
0100
0000
,
2000
0000
3000
0000
,
1001
0000
0000
0000
,
0110
0000
0000
0000
,
1000
0000
0100
0000
,
2000
0000
3000
0000
,
0001
0000
0100
0000
,
0001
0000
1000
0000
,
0001
0000
0010
0000
,
0002
0000
0003
0000
,
0110
0000
0000
0000
,
1001
0000
0000
0000
,
0200
0000
0000
0000
,
0300
0000
0000
0000
,
0001
0000
0000
0000
,
1000
0000
0000
0000
,
0200
0000
0000
0000
,
0300
0000
0000
0000
,
0100
0000
0000
0000
,
0010
0000
0000
0000
;

//---------------dance-single - Spork!----------------
#NOTEDATA:;
#CHARTNAME:;
#STEPSTYPE:dance-single;
#DESCRIPTION:Spork!;
#CHARTSTYLE:;
#DIFFICULTY:Easy;
#METER:3;
#RADARVALUES:0.211,0.237,0.100,0.268,0.000,145.000,13.000,35.000,0.000,0.000,0.000,0.000,0.000,0.211,0.237,0.100,0.268,0.000,145.000,13.000,35.000,0.000,0.000,0.000,0.000,0.000;
#CREDIT:Spork!;
#NOTES:
0000
0000
0000
0000
,
0000
0000
0000
0000
,
0000
0000
0000
0000
,
0000
0000
0000
0000
,
0010
0000
1000
0000
,
0100
0000
0010
0000
,
0020
0000
0000
0000
,
0230
0000
0000
0000
,
0310
0000
0001
0000
,
0100
0000
0010
0000
,
0020
0000
0000
0000
,
0230
0000
0000
0000
,
0310
0000
1000
0000
,
1001
0000
0110
0000
,
0100
0000
0001
0000
,
1001
0000
0110
0000
,
0100
0000
1000
0000
,
0010
0000
0100
0000
,
0200
0000
0000
0000
,
0320
0000
0000
0000
,
2030
0100
0000
0100
,
0000
0001
0000
3001
,
0002
0100
0000
0100
,
0100
0000
1000
0003
,
0020
0100
0100
0000
,
0001
0000
0031
1000
,
0020
0100
0100
0000
,
1030
0000
0001
0000
,
1000
0000
0100
0000
,
1000
0000
0010
0000
,
2000
0000
0000
0000
,
3000
0000
0000
0000
,
0001
0000
0010
0000
,
0001
0000
0100
0000
,
0200
0000
0000
0000
,
0320
0000
0000
0000
,
1030
0000
0001
0000
,
1100
0000
0011
0000
,
0001
0000
1000
0000
,
0101
0000
1010
0000
,
1000
0000
0100
0000
,
0110
0000
1001
0000
,
0010
0000
1000
0000
,
0100
0000
0010
0000
,
1002
0000
0100
0100
,
0203
0000
0320
0000
,
2030
0001
3001
1000
,
0001
0010
0100
1000
,
2000
0000
0010
3010
,
0020
0000
0230
0000
,
0302
1000
1003
0000
,
1010
0000
0011
0000
,
2000
0000
0100
3100
,
0200
0000
0320
0000
,
0032
1000
1003
0001
,
1000
0010
0100
0001
,
0002
0000
0010
0013
,
0020
0000
0230
0000
,
2300
0001
3001
1000
,
0001
0010
0100
1000
,
2000
0000
0000
0000
,
3001
0000
0100
0000
,
0002
1000
1003
0001
,
1000
0010
0100
0001
,
0002
0000
0000
0000
,
1003
0000
0100
0000
,
2000
0001
3001
1000
,
0001
0000
0100
0000
0000
0002
0000
0000
,
2000
0000
0000
0000
0000
0000
0000
3003
;

//---------------dance-double - Spork!----------------
#NOTEDATA:;
#CHARTNAME:;
#STEPSTYPE:dance-double;
#DESCRIPTION:Spork!;
#CHARTSTYLE:;
#DIFFICULTY:Easy;
#METER:3;
#RADARVALUES:0.217,0.264,0.130,0.299,0.008,142.000,17.000,39.000,0.000,0.000,0.000,0.000,0.000,0.217,0.264,0.130,0.299,0.008,142.000,17.000,39.000,0.000,0.000,0.000,0.000,0.000;
#CREDIT:Spork!;
#NOTES:
00000000
00000000
00000000
00000000
,
00000000
00000000
00000000
00000000
,
00000000
00000000
00000000
00000000
,
00000000
00000000
00000000
00000000
,
01000000
00000000
00001000
00000000
,
00010000
00000000
00000100
00000000
,
00000200
00000000
00000000
00000000
,
00000320
00000000
00000000
00000000
,
00000130
00000000
00010000
00000000
,
00001000
00000000
01000000
00000000
,
02000000
00000000
00000000
00000000
,
03200000
00000000
00000000
00000000
,
10300000
00000000
00010000
00000000
,
00010000
01000000
00020000
00000000
,
00130000
00000000
00001000
00000000
,
00001000
00010000
00002000
00000000
,
00013000
00000000
00000010
00000000
,
00000010
00001000
00000020
00000000
,
00000230
00000000
00000000
00000000
,
00000320
00000000
00000000
00000000
,
00001030
00000000
00000100
00000000
,
00000010
00000000
00000001
00001000
,
00000001
00000000
00000100
00000000
,
00000010
00000000
00010000
00001000
,
00010000
00000000
00001000
00000000
,
01000000
00000000
00010000
10000000
,
00010000
00000000
00100000
00000000
,
00001000
00000000
00010000
00010000
,
00000010
00000000
00001000
00000000
,
00000100
00000000
00010000
00000000
,
00020000
00000000
00000000
00000000
,
00032000
00000000
00000000
00000000
,
01003000
00000000
00010000
00000000
,
00100000
00000000
00001000
00000000
,
00002000
00000000
00000000
00000000
,
00023000
00000000
00000000
00000000
,
00030100
00000000
00000010
00000000
,
00000001
00001000
00001001
00000000
,
00000100
00000000
00001000
00000000
,
00010000
00001000
00011000
00000000
,
00010000
00000000
01000000
00000000
,
10000000
00010000
10010000
00000000
,
00100000
00000000
00010000
00000000
,
00001000
00010000
00011000
00000000
,
00010200
00000000
00002300
00000000
,
00003020
00000000
00010030
00010000
,
02001000
00000000
03020000
00000000
,
00130000
00001000
01000000
00010000
,
00201000
00000000
00320000
00000000
,
02030000
00000000
03001000
00001000
,
00102000
00000000
01003000
00000000
,
00020010
00000000
00030100
00000000
,
00201000
00000000
02300000
00000000
,
03200000
00000000
00301000
00001000
,
00010020
00000000
00000230
00000000
,
00000310
00001000
00000100
00010000
,
00010200
00000000
00000320
00000000
,
00000230
00000000
00010300
00010000
,
01002000
00000000
00103000
00000000
,
00020100
00000000
00030010
00010000
,
00022000
00000000
00000000
00033000
,
00000100
00000000
00000010
00000000
,
00000001
00000010
00000100
00000000
,
00001000
00000010
00010000
00001000
,
00022000
00000000
00000000
00033000
,
01000000
00000000
00100000
00000000
,
10000000
01000000
00100000
00000000
,
00010000
00000000
00000000
00000000
01000000
00000000
00000000
00000000
00000000
00100000
00000000
00000000
00000000
00000000
00000000
20020000
,
00000000
00000000
00000000
00000000
00000000
00000000
00000000
30030000
;

//---------------dance-double - Spork!----------------
#NOTEDATA:;
#CHARTNAME:;
#STEPSTYPE:dance-double;
#DESCRIPTION:Spork!;
#CHARTSTYLE:;
#DIFFICULTY:Medium;
#METER:5;
#RADARVALUES:0.280,0.343,0.161,0.237,0.008,204.000,21.000,31.000,0.000,0.000,0.000,0.000,0.000,0.280,0.343,0.161,0.237,0.008,204.000,21.000,31.000,0.000,0.000,0.000,0.000,0.000;
#CREDIT:Spork!;
#NOTES:
00000000
00000000
00000000
00000000
,
00000000
00000000
00000000
00000000
,
00000000
00000000
00000000
00000000
,
00000000
00000000
00000000
00000000
,
00000010
00000001
00000001
00000100
,
00000010
00010000
00000100
00010000
,
00002000
00000000
00000000
00000000
,
02003000
00000000
00000000
00000000
,
03100000
10000000
10000000
01000000
,
00100000
00001000
01000000
00001000
,
00000000
00020000
00000000
00000000
,
00000020
00030000
00000000
00000000
,
00000130
00000001
00001000
00000010
,
00010010
00010000
00011000
00100000
,
01000000
10000000
00010000
01000000
,
01001000
00001000
00011000
00000100
,
00000010
00000001
00000010
00001000
,
00010000
00100000
10000000
01000000
,
00200000
00000000
00000000
00000000
,
02300000
00000000
00000000
00000000
00000000
00000000
00000000
10000000
,
23000000
00000000
00000000
00000000
,
30020000
00000000
00000000
00000000
00000000
00100000
00000000
00100000
,
00230000
00000000
00000000
00000000
,
00301000
00010000
00000000
00010000
00000000
00010000
00000000
00010000
,
00000010
00000100
00000010
00001000
,
00000100
00010000
00000010
00000100
,
00000001
00000010
00000100
00010000
,
00001000
01000000
00100000
01000000
,
00010000
10000000
10000000
01000000
,
00010000
00001000
00010000
00000010
,
00000200
00000000
00000000
00000000
,
00000320
00000000
00000000
00000000
,
00001030
00000001
00000001
00000010
,
00001000
00010000
00001000
01000000
,
00200000
00000000
00000000
00000000
,
00300000
01000000
00000000
01000000
01000000
00000000
00010000
00000000
,
10020000
00000000
10030000
01000000
,
00100000
00001000
00010100
00000000
,
00000100
00001000
00000001
00000010
,
00000100
00010000
00101000
00000000
,
10000000
00010000
01000000
00100000
,
10000000
00010000
00100000
00001000
,
00010000
00000010
00010000
00000100
,
00001000
00000001
00000010
00000000
,
00002001
00000000
00003001
00000100
,
00000020
00000000
00000000
00010000
00020030
00000000
00000000
00000000
,
00031000
00100000
01000000
10000000
,
01100000
00100000
00001000
01000000
,
10020000
00000000
10030000
00100000
,
02000000
00000000
00000000
00001000
03002000
00000000
00010000
00000000
,
00023000
00000000
00030200
00000000
,
00000310
00000010
00001001
00000000
,
00001200
00000000
00001300
00000010
,
00020000
00000000
00000000
00001000
00032000
00000000
00000000
00000000
,
01003000
00001000
00010000
00000100
,
00001001
00000100
00010000
00001000
,
02010000
00000000
03010000
00100000
,
00002000
00000000
00000000
00010000
00023000
00000000
00000000
00000000
,
00030010
00010000
00001000
01000000
,
00100000
00000000
01000000
00000000
00001000
00000000
00010000
00001000
,
00020000
00000000
00000000
00000000
,
00031000
00100000
01000000
00000000
,
11000000
01000000
01010000
00010000
,
00011000
00000000
00001000
00000000
01001000
00000000
00001000
00010000
,
00002000
00000000
00000000
00000000
,
00013000
00000010
00000100
00000000
,
00000101
00000100
00001100
00001000
,
00010000
00000000
00000000
00000000
00000100
00000000
00000000
00000000
00000000
00000010
00000000
00000000
00000000
00000000
00000000
00002002
,
00000000
00000000
00000000
00000000
00000000
00000000
00000000
00003003
;

//---------------dance-double - Spork!----------------
#NOTEDATA:;
#CHARTNAME:;
#STEPSTYPE:dance-double;
#DESCRIPTION:Spork!;
#CHARTSTYLE:;
#DIFFICULTY:Challenge;
#METER:10;
#RADARVALUES:0.553,0.643,0.237,0.031,0.084,470.000,31.000,4.000,20.000,0.000,0.000,0.000,0.000,0.553,0.643,0.237,0.031,0.084,470.000,31.000,4.000,20.000,0.000,0.000,0.000,0.000;
#CREDIT:Spork!;
#NOTES:
00000000
00000000
00000000
00000000
,
00000000
00000000
00000000
00000000
,
00000000
00000000
00000000
00000000
,
00000000
00000000
00000000
00000000
,
00001000
00100000
00010000
00100000
01000000
00100000
10000000
00100000
,
00010000
01000000
00100000
01000000
10000000
01000000
00010000
01000000
,
00100000
10000000
01000000
00100000
00001000
00010000
00000100
00000010
,
00000001
00000100
00000010
00010000
00001000
01000000
00001000
00001000
,
00010000
00000100
00001000
00000100
00000010
00000100
00000001
00000100
,
00001000
00000010
00000100
00000010
00000001
00000010
00001000
00000010
,
00000100
00000001
00000010
00000100
00010000
00001000
00100000
01000000
,
10000000
00100000
01000000
00001000
00010000
00000010
00010000
00010000
,
00001000
00100000
10000000
00100000
01000000
00010000
00001000
00000100
,
00000101
00000000
00001000
00000000
00010010
00000000
00001000
00001000
,
00010000
00000100
00000001
00000100
00000010
00001000
00010000
00100000
,
10100000
00000000
00010000
01000000
00001000
00100000
00010000
00010000
,
10000000
01000000
00010000
01000000
00100000
00001000
00000010
00000010
,
00000001
00000100
00001000
00000100
00000010
00010000
00100000
00100000
,
10000000
01000000
10000000
00100000
00010000
00001000
00100000
00001000
,
00010000
00000010
00010000
00001000
00000010
00000001
00000100
00000101
,
00001001
00000000
00000000
00000001
00001000
00000000
00000010
00000000
00010000
00000000
00001000
00000000
00000010
00000000
00010000
00000000
,
00100000
00001000
01000000
00010000
10000000
10100000
00010000
00110000
,
10010000
10000000
00010000
01000000
00001000
00010000
00100000
00001000
,
00000010
00011000
00000000
00010100
00000000
00101000
00000000
00010000
,
00001000
01000000
01001000
00000000
10010000
00000000
10000000
00100000
,
00010000
00001000
00010000
01000000
00000000
01000000
00000000
10000000
,
00010000
00100000
01000000
00010000
00001000
00000100
00000010
00001000
,
00000001
00000010
00000001
00000100
00000010
00000000
00000010
00000000
,
00001001
00000000
00001000
00000000
00000100
00000000
00000000
00000000
00001000
00000000
00000001
00000000
00000100
00000000
00000010
00001000
,
00000010
00000100
00000001
00000010
00001000
00010000
00100000
00000000
,
10100000
00000000
10000000
00000000
00010000
00000000
00100000
00000000
00001000
00000000
01000000
00000000
00000000
00000000
00010000
00100000
,
00010000
10000000
01000000
00010000
00000100
00010000
01001000
00000000
,
00010000
00010000
00100000
01000000
00010000
00001000
00010000
00000010
,
00000100
00001000
00010000
00001000
00000100
00000001
00000000
00000001
,
00001000
00000000
00000100
00000000
00000001
00000000
00000100
00000000
00010000
00000000
00001000
00000000
00000000
00000000
00001000
00100000
,
00010000
01000000
00000000
10000000
01000000
00000000
00001000
00000000
,
00012000
01000000
00000000
00000100
,
00000000
00000000
00000010
00000010
00000000
00100000
00003000
00010000
,
00021000
00000000
00000100
00000100
00000000
00000000
01000000
00000000
,
00000000
00100000
00000000
00000010
00000000
00001000
00030000
00000000
,
00010000
00000010
00000100
00000000
00000110
00000000
00000010
00010000
,
00001000
00100000
00001000
00010000
00000100
00010000
00001000
00000100
,
00000001
00000010
00001000
00100000
00010000
10000000
01000000
10000000
,
00100000
00010000
00000010
00001000
00000001
00000000
00000000
00000000
,
M0001100
00001000
00000100
00000001
0M000100
00010000
00000010
00001000
,
00M00001
00000000
00000100
00000000
00010000
00000000
01000000
00000000
00001000
00000000
00011000
00000000
00000000
00000000
00001000
00100000
,
M0001000
00010000
01000000
00010000
0000100M
00000100
00000010
00010000
,
M0001000
00000010
00001000
00010000
00100000
01000000
01000000
00010000
,
0101000M
00010000
00100000
10000000
001000M0
00001000
01000000
00010000
,
10000M00
00100000
00001000
00000010
00010000
00011000
00000000
00001000
,
0001000M
01000000
00010000
00001000
M0000100
00001000
00010000
00001000
,
0010000M
00001000
00100000
00001000
00010000
00001000
00010000
00001000
00010000
00000010
00010000
00000010
00001000
00000010
00001000
00000010
,
M001000M
00001000
01000000
10000000
01000000
00010000
00100000
00001000
,
10000000
00000000
01000000
00000000
00001000
00000000
00000100
00000000
00010000
00000000
00001000
00000000
01000000
00001000
00000000
00001000
,
M001000M
00000000
01000000
00000000
00010000
00000000
00000100
00000000
00001000
00000000
00000000
00000010
00000100
00000000
00001000
00000000
,
00010000
00000000
01000000
00000000
00100000
00000000
00001000
00000000
00000010
00000000
00000000
00001000
00000000
00000000
00010000
00000000
,
M000100M
00010000
00000010
00000001
00000010
00001000
00000100
00010000
,
00000001
00000000
00000010
00000000
00010000
00000000
00100000
00000000
00001000
00000000
00010000
00000000
00000010
00010000
00000000
00010000
,
M000100M
00010000
00100000
10000000
00100000
01000000
00001000
01000000
,
00010000
00000000
10000000
00000000
10010000
00000000
00100000
10000000
,
01000000
01000000
01000000
01000000
00100000
00100000
00100000
00100000
,
00001000
00010000
00000010
00000100
00000001
00001100
00000101
00000000
,
00000001
00000010
00001000
00100000
01000000
10000000
00100000
10000000
,
01000000
00010000
00000100
00000010
00000001
00001001
00000110
00000001
,
00000100
00000100
00000100
00000100
00000010
00000010
00000010
00000010
,
00010000
00001000
00100000
01000000
10000000
01010000
11000000
00000000
,
10000000
00100000
00010000
00000010
00000100
00000001
00000010
00000001
,
00000100
00000000
00000000
00000000
00001000
00000000
00000000
00000000
00000000
01000000
00000000
00000000
00000000
00000000
00000000
00100000
,
00000000
00000000
00000000
00000000
00000000
00000000
00000000
00000000
00000000
00000000
00000000
00000000
00000000
20020000
00000000
00000000
,
00000000
00000000
00000000
00000000
,
30030000
00000000
00000000
00000000
;

//---------------dance-double - Spork!----------------
#NOTEDATA:;
#CHARTNAME:;
#STEPSTYPE:dance-double;
#DESCRIPTION:Spork!;
#CHARTSTYLE:;
#DIFFICULTY:Hard;
#METER:9;
#RADARVALUES:0.478,0.456,0.115,0.176,0.031,399.000,15.000,23.000,0.000,0.000,0.000,0.000,0.000,0.478,0.456,0.115,0.176,0.031,399.000,15.000,23.000,0.000,0.000,0.000,0.000,0.000;
#CREDIT:Spork!;
#NOTES:
00000000
00000000
00000000
00000000
,
00000000
00000000
00000000
00000000
,
00000000
00000000
00000000
00000000
,
00000000
00000000
00000000
00000000
,
00000010
00000000
00001000
00001000
00000100
00000010
00000100
00010000
,
00001000
01000000
00010000
00100000
,
00001000
00010000
00000100
00010000
00000001
00001000
00000010
00000020
,
00010000
00000030
00001000
00000000
01000000
00000000
00001000
00000000
10000000
00000000
00010000
00000000
00100000
00000000
00100000
00000000
,
01000000
00100000
00010000
00010000
01000000
00100000
01000000
00001000
,
00010000
00000100
00001000
00000020
,
00000000
00000000
00010030
00001000
10000000
00010000
01000000
02000000
,
00001000
03000000
00010000
00000000
00000010
00000000
00010000
00000000
00000001
00000000
00001000
00000000
00000010
00000000
00010000
00000000
,
00000100
00001000
00000100
00000100
00000010
00000001
00000100
00000001
,
00001000
00000000
00000000
00000000
00000010
00000000
00000000
00000000
00010000
00000000
00002000
00000000
00100000
00003000
00000000
00000000
,
00100000
00010000
00100000
00100000
01000000
10000000
00100000
10000000
,
00010000
00000000
00000000
00000000
01000000
00000000
00000000
00000000
00001000
00000000
00020000
00000000
00000100
00030000
00000000
00000000
,
00000100
00001000
00000010
00000010
00000100
00000001
00000010
00000001
,
00001000
00000100
00010000
00000010
,
00010000
00001000
00100000
00001000
10000000
00010000
01000000
01000000
,
00001000
00010000
00000100
00010000
00000001
00001000
00000010
00000100
,
00000210
00000010
00000000
00000001
,
00000000
00000000
00001300
00000000
00000000
00010000
00001000
00100000
,
02100000
00100000
00000000
10000000
,
03010000
00001000
00000000
00001000
00000000
00001000
00000000
00001000
,
00010000
00000100
00001000
00000000
00001000
00000010
00010000
00000010
,
00000100
00000001
00001000
00000001
00000000
00000001
00000000
00000001
,
00001000
00000100
00000000
00000100
00000010
00000000
00000010
00000001
,
00002000
00000000
00003002
00000000
,
00000103
00000001
00001000
00000000
00000100
00001000
00000100
00000010
,
00000010
00000000
00000001
00000000
00001000
00000000
00000000
00000000
00000000
00000000
00020020
00000000
00000000
00030030
00000000
00000000
,
00010000
00000100
00001000
00000010
00010000
00001000
00010000
00010000
,
00001000
00100000
00010000
01000000
00001000
00100000
01100000
00000000
,
01000000
10000000
00010000
00000000
00100000
00010000
01000000
01000000
,
00100000
00000000
10000000
00000000
00010000
00000000
00000000
00000000
00010000
00000000
02002000
00000000
00000000
03003000
00000000
00000000
,
00001000
00100000
00010000
01000000
00001000
00010000
00001000
00001000
,
00010000
00000010
00000000
00001000
00000100
00000000
00000010
00000000
,
00001200
00000001
00000000
00001000
,
00000000
00000000
00000310
00000010
00000100
00010000
00001000
01000000
,
02010000
00000000
10000000
10000000
00000000
00000000
00010000
00000000
,
03000000
01000000
00000000
00001000
00000000
00010000
00000000
00000000
,
00101000
00001000
00010000
00000000
00000100
00000000
00000010
00000000
,
00000001
00000100
00000001
00000010
00000100
00010000
00000000
00010000
,
00000010
00001000
00000001
00000100
00000010
00010000
00001000
01000000
,
00100000
10000000
01000000
00100000
02200000
00000000
03300000
00000000
,
10000000
01000000
00010000
01000000
00100000
01000000
10000000
01000000
,
00100000
00010000
10000000
00100000
00010000
00001000
00000000
00001000
,
00010000
00000000
00000010
00001000
00000100
00010000
00000100
00001000
,
00000010
00000100
00000001
00001000
00000100
00000010
00000000
00000010
,
00000001
00000100
00001000
00000100
00000010
00000100
00000001
00000100
,
00000010
00001000
00000001
00000010
00001000
00010000
00000000
00010000
,
00001000
01000000
01000000
00001000
00010000
00000100
00000100
00010000
,
00001000
00100000
10010000
00000000
,
10000000
00100000
00010000
00100000
01000000
00010000
10000000
01000000
,
00010000
00000000
00001000
00000000
01000000
00000000
00001000
00000000
00010000
00000000
00000010
00000000
00000010
00010000
00000000
00010000
,
00001000
00000000
00001000
00100000
00010000
00100000
01000000
10000000
,
01000000
00000000
00100000
00000000
00001000
00000000
00010000
00000000
00000100
00000000
00000000
00000100
00000000
00000000
00001000
00000000
,
00000001
00000100
00001000
00000100
00000010
00001000
00000001
00000100
,
00001000
00000000
00010000
00000000
00000010
00000000
00010000
00000000
00001000
00000000
01000000
00000000
01000000
00001000
00000000
00001000
,
00010000
00000100
00001000
00000100
00000010
00000001
00000010
00000100
,
00010000
00000000
00000010
00000000
00000110
00000000
00000010
00001000
,
00000200
00000001
00000320
00001000
,
00000130
00000010
00000001
00000010
00000100
00001000
00001001
00000000
,
00000001
00000100
00001000
00010000
01000000
10000000
00010000
10000000
,
01000000
00000000
00100000
00000000
01100000
00000000
00100000
00010000
,
02000000
10000000
03200000
00010000
,
01300000
00100000
10000000
00100000
01000000
00010000
10010000
00000000
,
10000000
01000000
00010000
00001000
00000100
00000001
00001000
00000001
,
00000010
00000000
00000000
00000000
00000100
00000000
00000000
00000000
00000000
00010000
00000000
00000000
00000000
00000000
00000000
00001000
,
00000000
00000000
00000000
00000000
00000000
00000000
00000000
00000000
00000000
00000000
00000000
00000000
00000000
00022000
00000000
00000000
,
00000000
00000000
00000000
00000000
,
00033000
00000000
00000000
00000000
;

//---------------dance-single - Spork!----------------
#NOTEDATA:;
#CHARTNAME:;
#STEPSTYPE:dance-single;
#DESCRIPTION:Spork!;
#CHARTSTYLE:;
#DIFFICULTY:Medium;
#METER:6;
#RADARVALUES:0.351,0.375,0.146,0.268,0.015,267.000,19.000,35.000,0.000,0.000,0.000,0.000,0.000,0.351,0.375,0.146,0.268,0.015,267.000,19.000,35.000,0.000,0.000,0.000,0.000,0.000;
#CREDIT:Spork!;
#NOTES:
0000
0000
0000
0000
,
0000
0000
0000
0000
,
0000
0000
0000
0000
,
0000
0000
0000
0000
,
0100
0001
0010
0001
,
1000
0100
0010
0001
,
0100
0000
0000
0000
0001
0000
0000
0020
,
0000
0000
0001
0030
,
0100
1000
0010
1000
,
0001
0100
0010
1000
,
0000
0000
0001
0000
1000
0000
0000
0020
,
0000
0000
1000
0030
,
0010
0100
0001
0010
,
0100
0000
0100
0000
1000
0020
0100
0000
,
0130
0010
1000
0100
,
0010
0000
0010
0000
0001
0200
0010
0000
,
0310
1000
0100
1000
,
0001
0010
0100
1000
,
0001
0001
1000
1000
,
0100
0000
0100
0000
0010
0000
0000
0010
,
1002
0100
0000
0100
,
0000
0000
0103
0000
0000
0010
0000
0010
,
2001
0100
0000
0100
,
3000
0010
0000
0010
0000
0010
0000
0100
,
1001
0100
0010
1000
,
0001
0000
0001
1000
0000
1000
0000
1000
,
0001
0010
0000
0010
0100
0000
0100
1000
,
0002
0000
2003
0000
,
3001
0110
0001
1000
,
0100
0000
0010
0000
0000
0020
0000
0000
,
0031
0100
0001
0000
0000
0010
0000
0000
,
0001
1000
0001
0000
1000
0001
1001
0000
,
1000
0110
1000
0001
,
0010
0000
0100
0000
0000
0200
0000
0000
,
1300
0010
1000
0000
0000
0100
0000
0000
,
1000
0001
0000
0001
0001
0000
0001
0000
,
0201
0010
0000
1000
,
0000
0000
0301
0000
0000
0010
0000
0010
,
1200
0010
0000
0001
,
0300
1000
0000
0100
0000
0010
0000
0000
,
0010
0100
1001
0100
,
0001
0010
0001
0001
,
1000
0100
1000
0000
0010
0100
0010
0000
,
0100
0001
0100
0000
0010
0000
0000
0000
,
2001
3100
1002
0103
,
0002
0000
0013
0000
0100
1000
0000
1000
,
0002
0000
1003
0000
0010
1000
0100
0000
,
0010
0001
0100
0000
0001
0100
0000
0100
,
1002
0013
2001
3010
,
2000
0000
3010
0000
0100
0001
0000
0001
,
2000
3100
0200
0310
,
0200
0301
0110
0000
,
1000
0001
0200
0000
0301
1000
0200
0000
,
0310
0000
0001
0000
1000
0001
0000
0001
,
0200
0000
0310
0000
1000
0000
0100
1000
,
0001
0000
0000
0000
1000
0000
0000
0000
0010
0000
0000
0010
0000
0000
0010
0000
,
2001
3100
1002
0013
,
0002
0000
0103
0000
0010
1000
0000
1000
,
0002
0000
0013
0000
0010
0001
1000
0000
,
2000
3010
1001
0010
,
0100
0000
0100
0010
0100
0000
0100
0000
,
0100
0001
0100
0001
0100
0000
0001
0000
,
2000
0000
3010
0000
0010
1000
0001
0000
,
0002
0013
1001
0010
,
0100
0000
0100
0010
0100
0000
0100
0000
,
0100
1000
0100
1000
0100
0000
1000
0000
,
0002
0000
0103
0000
0100
0001
1000
0000
,
1000
0000
0000
0000
0100
0000
0000
0000
0000
0010
0000
0000
0000
0000
0000
0001
,
0000
0000
0000
0000
0000
0000
0000
0000
0000
0000
0000
0000
0000
2002
0000
0000
,
0000
0000
0000
0000
,
3003
0000
0000
0000
;

//---------------dance-single - Spork!----------------
#NOTEDATA:;
#CHARTNAME:;
#STEPSTYPE:dance-single;
#DESCRIPTION:Spork!;
#CHARTSTYLE:;
#DIFFICULTY:Hard;
#METER:8;
#RADARVALUES:0.451,0.456,0.230,0.191,0.023,357.000,30.000,25.000,0.000,0.000,0.000,0.000,0.000,0.451,0.456,0.230,0.191,0.023,357.000,30.000,25.000,0.000,0.000,0.000,0.000,0.000;
#CREDIT:Spork!;
#NOTES:
0000
0000
0000
0000
,
0000
0000
0000
0000
,
0000
0000
0000
0000
,
0000
0000
0000
0000
,
1000
0000
0100
1000
0010
0000
0100
0001
,
0010
0000
0001
0000
0010
0000
0100
1000
,
0010
0000
1000
0010
1000
0100
1000
0100
,
0010
0001
0010
0001
1000
0001
1000
1000
,
0001
0000
0010
0001
0100
0000
0010
1000
,
0100
1000
0010
0200
,
0300
0000
0001
0010
0100
0010
0100
0010
,
0100
1000
0100
1000
0001
1000
0001
0001
,
1000
0000
0001
0100
1000
0000
0100
0000
,
0010
0000
1000
0000
0010
0201
0000
0000
,
0301
0000
1000
0010
0001
0000
0010
0000
,
0100
0000
0001
0000
0100
1020
0000
0000
,
1030
0000
0010
1000
0100
0000
0010
0001
,
0100
0001
1000
0100
,
1000
0010
1000
0010
0100
0010
0100
0010
,
0100
0001
0100
0001
1000
0001
1000
1100
,
0102
0010
0000
1000
,
0000
0000
0103
0000
0000
0001
0000
0010
,
2100
0001
0000
0100
,
3000
1100
0000
1001
0000
0101
0000
0100
,
0001
0010
0001
0000
0010
0001
0100
0001
,
1000
0010
1000
0100
0000
0100
0000
0100
,
1000
0010
0000
0010
0100
0000
0100
0001
,
2000
0001
3002
0000
,
1003
0100
0010
0000
0000
1100
0000
1000
,
0001
0100
0010
0000
0000
2001
0000
3000
,
0001
0010
0001
0100
0010
1000
0001
0001
,
1000
0100
1000
0010
0100
0001
1001
0000
,
0001
0010
0100
0000
0000
0011
0000
0001
,
1000
0010
0100
0000
0000
0120
0000
0030
,
0100
0010
0100
0001
0010
0100
1000
1000
,
0010
0100
0000
0001
1000
0000
0100
0000
,
0021
0100
0000
1000
,
0000
0000
0031
0100
0000
0001
0000
1000
,
1020
0100
0000
0001
,
0030
1010
0000
0110
0000
0101
0000
0000
,
0001
0010
0100
0000
1001
0000
0100
0000
,
0100
0001
0010
0001
1000
0010
0000
0010
,
1000
0100
0010
0100
1000
0001
0010
0100
,
0010
0001
1000
0010
0100
0000
0000
0000
,
0210
0000
0301
0010
0100
1000
0100
0010
,
0002
0000
0013
0001
0200
0000
0310
0000
,
2001
0000
3010
1000
0100
1000
0010
0100
,
0001
0010
0001
1000
0100
0010
0000
0010
,
0210
0000
1300
0010
0100
0001
0100
0010
,
2000
0000
3100
1000
0020
0000
1030
0001
,
0100
0001
0010
0000
0100
1000
0010
0000
,
1010
0101
1001
0000
,
0001
0010
0001
0000
0010
1000
0010
0000
,
1000
0000
0100
0000
1000
0000
0000
0000
0001
0000
1000
0000
0000
1000
0000
0000
,
0002
0000
0013
0001
0100
0000
0010
0100
,
0010
0000
1000
0000
0100
0000
0010
0000
0001
0000
0000
0001
0000
0000
0001
0000
,
1000
0010
1000
0000
0010
0001
0010
0000
,
0001
0000
0100
0000
0001
0000
0000
0000
1000
0000
0001
0000
0000
0001
0000
0000
,
1000
0100
1000
0010
0100
0001
0010
0100
,
1000
0000
0001
0000
1001
0000
0010
0001
,
0200
0001
0302
1000
,
1003
0010
0001
0010
1000
0000
0110
0000
,
0100
0001
0010
0100
1000
0010
0100
0001
,
1000
0000
0001
0000
1001
0000
0100
1000
,
0020
1000
2030
0001
,
3001
0100
1000
0100
0001
0000
0110
0000
,
0010
1000
0100
0010
0001
0100
0010
1000
,
0001
0000
0000
0000
1000
0000
0000
0000
0000
0100
0000
0000
0000
0000
0000
0010
,
0000
0000
0000
0000
0000
0000
0000
0000
0000
0000
0000
0000
0000
2002
0000
0000
,
0000
0000
0000
0000
,
3003
0000
0000
0000
;

//---------------dance-single - Spork!----------------
#NOTEDATA:;
#CHARTNAME:;
#STEPSTYPE:dance-single;
#DESCRIPTION:Spork!;
#CHARTSTYLE:;
#DIFFICULTY:Challenge;
#METER:11;
#RADARVALUES:0.666,0.804,0.444,0.100,0.368,538.000,58.000,13.000,0.000,0.000,6.000,0.000,0.000,0.666,0.804,0.444,0.100,0.368,538.000,58.000,13.000,0.000,0.000,6.000,0.000,0.000;
#CREDIT:Spork!;
#NOTES:
// measure 0
0000
0000
0000
0000
,  // measure 1
0000
0000
0000
0000
,  // measure 2
0000
0000
0000
0000
,  // measure 3
0000
0000
0000
0000
,  // measure 4
0001
0010
0100
0010
0001
0010
1000
0010
,  // measure 5
0100
1000
0100
0010
0100
0001
0100
1000
,  // measure 6
0001
0100
0001
0100
0010
1000
0001
0002
,  // measure 7
1000
0003
0010
0000
1000
0000
0010
0000
0100
0000
0001
0000
1000
0000
0001
0000
,  // measure 8
1000
0100
0010
0100
1000
0100
0001
0100
,  // measure 9
0010
0001
0010
0100
0010
1000
0010
0001
,  // measure 10
1000
0100
1000
0100
0010
0001
1000
2000
,  // measure 11
0001
3000
0010
0000
0001
0000
0010
0000
0100
0000
1000
0000
0001
0000
1000
0000
,  // measure 12
0104
0010
1000
0100
,  // measure 13
0013
0010
0100
0000
1010
0020
0100
0030
,  // measure 14
4100
0010
0001
0100
,  // measure 15
3010
0000
0100
0001
0011
0020
0100
0030
,  // measure 16
1400
0001
0010
1000
,  // measure 17
0340
1000
0100
0001
,  // measure 18
0130
1000
0010
0100
0001
0010
0100
1000
,  // measure 19
0100
0010
0001
0100
0010
1000
0100
1100
,  // measure 20
0101
0000
0000
0001
1000
0000
0001
0000
0010
0000
0100
0000
1000
0000
0010
0000
,  // measure 21
0100
0010
1000
0100
0010
0011
0100
1010
,  // measure 22
1001
1000
0010
0100
0001
0010
0100
0010
,  // measure 23
0001
1100
0000
0101
0000
1001
0000
0100
,  // measure 24
0101
0001
0011
0000
0110
0010
0001
1000
,  // measure 25
0010
0000
0100
0000
0001
0000
0010
0000
0000
0000
0010
0000
0001
1000
0001
0000
,  // measure 26
1000
1000
0010
0100
0100
0001
0010
0010
,  // measure 27
0001
1000
0001
0010
0100
1000
0001
1000
0100
0000
0010
0000
0100
0010
0100
0000
,  // measure 28
1000
0000
0001
0000
1001
0000
0000
0000
1000
0000
1010
0000
0010
0000
0100
0001
,  // measure 29
1000
0100
0110
1000
0001
0011
0100
0000
,  // measure 30
1000
0000
0001
0000
1001
0000
0100
0000
0010
0000
0110
0000
0100
0000
0010
1000
,  // measure 31
0001
0010
0110
0001
1000
0010
1001
0000
,  // measure 32
0010
0000
0001
0000
0101
0000
0001
0000
0010
0000
0110
0000
0100
0000
0010
0001
,  // measure 33
1000
0000
0010
0000
1010
0000
0010
0000
0100
0000
0120
0000
0000
0000
1030
0001
,  // measure 34
1000
0000
0100
0000
1100
0000
0100
0000
0010
0000
0110
0000
0010
0000
0100
1000
,  // measure 35
0001
0000
0010
0000
0001
0000
0101
0000
0100
0000
0010
0000
1000
0000
0001
1000
,  // measure 36
1002
0100
0000
0010
,  // measure 37
0000
0000
1003
0001
0010
0110
1000
0010
,  // measure 38
0210
0000
0001
0001
0000
0000
1000
0000
,  // measure 39
0300
1010
0000
0101
0000
1001
0000
0100
,  // measure 40
0010
1000
0200
0000
0310
0000
0010
0001
,  // measure 41
1000
0000
0100
0000
0001
0000
0100
0000
1000
0000
0001
0000
0000
0000
0001
1000
,  // measure 42
0100
0000
0010
0000
0001
0000
1000
0001
0100
0000
0010
0000
1000
0000
0001
0010
,  // measure 43
0001
0100
0010
1000
0100
0010
0001
1000
0020
0000
0000
0000
0130
0000
0000
0000
,  // measure 44
0001
0010
0001
0010
0001
0010
0001
0010
0100
0010
0100
0010
0100
0010
0100
0010
,  // measure 45
0100
1000
0100
1000
0100
1000
0100
1000
0001
0000
0101
0000
0010
0000
0100
0001
,  // measure 46
1000
0000
0100
1000
0010
0000
0100
0000
0001
0000
0010
0001
0100
0000
0001
0000
,  // measure 47
0010
0001
0100
0010
1000
0000
0001
0000
1000
0000
1010
0000
0011
0000
0001
0000
,  // measure 48
1000
0100
1000
0100
1000
0100
1000
0100
0010
0100
0010
0100
0010
0100
0010
0100
,  // measure 49
0010
0001
0010
0001
0010
0001
0010
0001
1000
0000
1010
0000
0100
0000
0001
1000
,  // measure 50
0100
0000
0010
0000
0011
0000
0010
0001
1000
0000
0010
0000
1010
0000
0001
0000
,  // measure 51
1000
0100
1000
0010
0100
0001
0010
0100
1000
0001
0010
0001
0100
0010
1000
0100
,  // measure 52
0010
0001
1001
0010
1000
0100
0110
0010
,  // measure 53
0001
0000
0100
0000
1100
0000
0100
0000
0001
0000
0010
0000
0100
0010
0000
0010
,  // measure 54
0001
0000
1000
0010
0100
0000
0001
0000
1000
0000
0001
0010
0100
0000
1000
0000
,  // measure 55
0001
0100
0001
0010
0100
1000
0010
0100
0001
1000
0010
1000
0100
0010
0001
0100
,  // measure 56
0010
1000
1001
1000
0100
0010
0110
0100
,  // measure 57
1000
0000
0010
0000
0011
0000
0010
0000
1000
0000
0100
0000
0010
0100
0000
0100
,  // measure 58
1000
0001
0110
0100
0001
1000
0110
0010
,  // measure 59
1000
0100
1000
0001
0100
0001
1000
0010
1000
0001
0010
0001
0100
0010
1000
0001
,  // measure 60
0040
0000
0000
0100
0000
0000
1000
0000
0000
0001
0000
0001
0000
0000
0100
0030
,  // measure 61
0001
0100
1000
0100
0010
1001
0210
0000
,  // measure 62
0310
1000
0100
1000
0001
0000
0010
0000
0100
1000
0010
1000
0001
0000
0100
0000
,  // measure 63
0001
0010
1000
0010
0001
1001
0110
0100
,  // measure 64
0040
0000
0000
0100
0000
0000
0001
0000
0000
1000
0000
1000
0000
0000
0100
0030
,  // measure 65
1000
0100
0001
0100
0010
1001
0120
0000
,  // measure 66
0130
0001
0010
0001
1000
0000
0100
0000
0010
0000
0001
0000
1000
0000
0001
0000
,  // measure 67
0100
0000
0000
0000
0010
0000
0000
0000
0000
0100
0000
0000
0000
0000
0000
0001
,  // measure 68
0000
0000
0000
0000
0000
0000
0000
0000
0000
0000
0000
0000
0000
2002
0000
0000
,  // measure 69
0000
0000
0000
0000
,  // measure 70
3003
0000
0000
0000
;
