#VERSION:0.81;
#TITLE:リフレクティア;
#SUBTITLE:;
#ARTIST:Kiyono Yasuno;
#TITLETRANSLIT:Reflectia;
#SUBTITLETRANSLIT:;
#ARTISTTRANSLIT:;
#GENRE:;
#ORIGIN:;
#CREDIT:;
#BANNER:Reflectia.png;
#BACKGROUND:Reflectia-bg.png;
#PREVIEWVID:;
#JACKET:;
#CDIMAGE:;
#DISCIMAGE:;
#LYRICSPATH:;
#CDTITLE:;
#MUSIC:Reflectia.mp3;
#OFFSET:0.367;
#SAMPLESTART:72.470;
#SAMPLELENGTH:16.420;
#SELECTABLE:YES;
#BPMS:0.000=135.000;
#STOPS:;
#DELAYS:;
#WARPS:;
#TIMESIGNATURES:0.000=4=4;
#TICKCOUNTS:0.000=4;
#COMBOS:0.000=1;
#SPEEDS:0.000=1.000=0.000=0;
#SCROLLS:0.000=1.000;
#FAKES:;
#LABELS:0.000=Song Start;
#BGCHANGES:;
#KEYSOUNDS:;
#ATTACKS:
;

//---------------dance-single - ----------------
#NOTEDATA:;
#CHARTNAME:;
#STEPSTYPE:dance-single;
#DESCRIPTION:;
#CHARTSTYLE:;
#DIFFICULTY:Hard;
#METER:7;
#RADARVALUES:0.476,0.436,0.082,0.195,0.135,408.000,11.000,26.000,0.000,0.000,0.000,0.000,0.000,0.476,0.436,0.082,0.195,0.135,408.000,11.000,26.000,0.000,0.000,0.000,0.000,0.000;
#CREDIT:;
#OFFSET:0.369;
#BPMS:0.000=135.000
;
#STOPS:;
#DELAYS:;
#WARPS:;
#TIMESIGNATURES:0.000=4=4
;
#TICKCOUNTS:0.000=4
;
#COMBOS:0.000=1
;
#SPEEDS:0.000=1.000=0.000=0
;
#SCROLLS:0.000=1.000
;
#FAKES:;
#LABELS:0.000=Song Start
;
#NOTES:
0000
0000
0000
0000
,
0000
0000
0000
0000
,
0000
0000
0000
0000
,
0000
0000
0000
0000
,
0000
0000
0000
0000
,
0000
0000
0000
0000
,
0000
0000
0000
0000
,
0000
0000
0000
0000
,
0000
0000
0000
0000
,
1000
0000
0100
0000
0000
0010
0000
0000
0001
0000
0000
1000
0000
0000
0100
0000
,
0010
0000
0001
0000
0000
0100
0000
0000
0010
0000
0000
1000
0000
0000
0001
0000
,
1000
0000
0100
0000
0000
0010
0000
0000
0001
0000
0000
1000
0000
0000
0001
0000
,
0100
0000
0010
0000
0000
1000
0000
0000
0001
0000
0100
0000
1000
0000
0100
0000
,
0001
0000
0010
0000
0000
0100
0000
0000
1000
0000
0000
0010
0000
0000
1000
0000
,
0100
0000
0010
0000
0000
0001
0000
0000
1000
0000
0000
0001
0000
0000
0100
0000
,
0010
0000
0100
0000
0000
0001
0000
0000
0010
0000
0000
0100
0000
0000
1000
0000
,
0001
0000
0100
0000
0000
0010
0000
0000
1000
0000
0010
0000
0001
0000
0010
0000
,
1000
0100
0010
0001
0010
0100
1000
0002
,
0000
0100
0103
0000
0001
0100
1000
0000
,
0100
0010
1000
0010
0001
0010
0100
0020
,
0000
1000
1030
0000
0010
1000
0100
0000
,
1000
0100
0010
0001
1000
0010
0100
0001
,
0102
0000
1003
0000
0001
0010
1000
0010
,
0002
0000
1003
0000
0001
0100
1000
0100
,
0002
0000
1003
1000
0020
0000
0130
0000
,
0001
0010
0100
1000
0100
0010
0001
0200
,
0000
0310
0100
0100
0001
0001
1000
0000
,
0001
0100
0010
1000
0010
0100
0001
2000
,
0000
3001
0010
0010
0100
0100
1000
0000
,
0001
0100
0010
1000
0001
0010
0100
1000
,
2100
0000
3001
0000
1000
0010
0001
0010
,
0200
0000
0310
0000
1000
0100
0001
0100
,
0020
0000
0031
0001
0200
0000
0310
0000
,
2010
0000
0100
0000
3010
1000
0010
0200
,
0001
0000
0010
0000
1300
0000
0100
0002
,
0010
0000
0100
0000
1003
0000
0001
0100
,
1010
0000
0000
0110
0000
0101
0000
0001
,
0010
0000
1000
0010
0000
0001
0100
0020
,
0100
0000
1000
0000
0130
0010
1000
0100
,
2000
0000
0010
0000
3100
1000
0010
0100
,
0002
0000
0000
0000
0010
0000
0000
0000
0103
0000
0001
0000
1000
0010
0000
0000
,
1000
0000
0100
0000
0010
0000
0001
0000
0000
0000
1000
0000
0010
0000
0100
0001
,
0100
0000
0010
1000
0100
0001
0100
0000
,
1000
0000
0010
0000
0100
0000
0001
0000
0000
0000
1000
0000
0100
0000
0010
0001
,
0010
0000
0100
1000
0010
0001
0010
0000
,
1000
0000
0010
0000
0100
0000
0001
0000
0000
0000
1000
0000
0100
0000
0001
0100
,
0001
0000
0100
1000
0010
0100
0001
1000
,
0020
0000
0100
0100
1000
1000
0001
0031
,
0010
1000
0100
0002
0000
0100
0103
0000
,
0001
0000
0100
0000
1000
0000
0010
0000
0000
0000
0001
0000
0010
0000
1000
0001
,
1000
0000
0001
0100
1000
0010
0001
0000
,
1000
0000
0100
0000
0001
0000
0010
0000
0000
0000
0001
0000
0100
0000
1000
0001
,
1000
0000
0001
0010
1000
0100
0001
0000
,
1000
0100
0010
0002
0000
1000
1003
0020
,
0100
0000
1030
0010
1000
0100
0010
0001
,
1000
0010
0001
0000
1000
0100
0001
0000
,
1000
0010
0001
0100
0001
0010
1000
0100
,
0020
0001
1030
0011
,
1100
0000
0001
0001
0100
0100
0010
0010
,
1000
0000
0100
0000
0010
0000
0001
0000
0000
0000
1000
0000
0010
0000
0100
0001
,
0200
0000
0310
0000
1000
0100
0010
0000
,
0012
0100
0013
0101
,
0110
0000
0010
0010
1000
1000
0001
1000
,
0001
0000
0100
0000
1000
0000
0100
0000
0000
0000
0001
0000
0010
0000
1000
0010
,
2000
0000
3010
0000
0001
0100
0010
0000
,
1000
0000
0100
0000
0000
0010
0000
0000
0001
0000
0000
1000
0000
0000
0100
0000
,
0010
0000
0001
0000
0000
0100
0000
0000
0010
0000
0000
1000
0000
0000
0001
0000
,
1000
0000
0100
0000
0000
0010
0000
0000
0001
0000
0000
1000
0000
0000
0001
0000
,
0100
0000
0010
0000
0000
1000
0000
0000
0001
0000
0100
0000
1000
0000
0100
0000
,
0001
0000
0010
0000
0000
0100
0000
0000
1000
0000
0000
0010
0000
0000
1000
0000
,
0100
0000
0010
0000
0000
0001
0000
0000
1000
0000
0000
0001
0000
0000
0100
0000
,
0010
0000
0100
0000
0000
0001
0000
0000
0010
0000
0000
0100
0000
0000
1000
0000
,
0001
0000
0100
0000
0000
0010
0000
0000
1000
0000
0010
0000
0001
0000
0010
0000
;

//---------------dance-double - ----------------
#NOTEDATA:;
#CHARTNAME:;
#STEPSTYPE:dance-double;
#DESCRIPTION:;
#CHARTSTYLE:;
#DIFFICULTY:Hard;
#METER:7;
#RADARVALUES:0.465,0.436,0.067,0.217,0.108,397.000,9.000,29.000,0.000,0.000,0.000,0.000,0.000,0.465,0.436,0.067,0.217,0.108,397.000,9.000,29.000,0.000,0.000,0.000,0.000,0.000;
#CREDIT:;
#NOTES:
00000000
00000000
00000000
00000000
,
00000000
00000000
00000000
00000000
,
00000000
00000000
00000000
00000000
,
00000000
00000000
00000000
00000000
,
00000000
00000000
00000000
00000000
,
00000000
00000000
00000000
00000000
,
00000000
00000000
00000000
00000000
,
00000000
00000000
00000000
00000000
,
00000000
00000000
00000000
00000000
,
10000000
00000000
00010000
00000000
00000000
01000000
00000000
00000000
00010000
00000000
00000000
00100000
00000000
00000000
00001000
00000000
,
00010000
00000000
00000100
00000000
00000000
00001000
00000000
00000000
00000010
00000000
00000000
00000100
00000000
00000000
00000001
00000000
,
00000010
00000000
00000100
00000000
00000000
00001000
00000000
00000000
00000001
00000000
00000000
00000100
00000000
00000000
00001000
00000000
,
00010000
00000000
00100000
00000000
00000000
10000000
00000000
00000000
00010000
00000000
01000000
00000000
10000000
00000000
01000000
00000000
,
00010000
00000000
00100000
00000000
00000000
01000000
00000000
00000000
10000000
00000000
00000000
00010000
00000000
00000000
01000000
00000000
,
00001000
00000000
00010000
00000000
00000000
00000100
00000000
00000000
00001000
00000000
00000000
00000010
00000000
00000000
00000100
00000000
,
00000001
00000000
00000010
00000000
00000000
00001000
00000000
00000000
00000010
00000000
00000000
00000001
00000000
00000000
00000100
00000000
,
00001000
00000000
00010000
00000000
00000000
00100000
00000000
00000000
10000000
00000000
01000000
00000000
00010000
00000000
00001000
00000000
,
00000010
00000001
00000100
00000001
00000010
00000100
00001000
00000002
,
00000000
00000100
00000103
00000000
00000001
00000100
00001000
00000000
,
00010000
00100000
10000000
01000000
00010000
01000000
00100000
00020000
,
00000000
10030000
10000000
00000000
00100000
00010000
00001000
00000000
,
00000100
00000001
00000010
00001000
00000010
00000001
00000100
00000010
,
00002000
00000000
00003100
00000000
00010000
00001000
00100000
00010000
,
20000000
00000000
31000000
00000000
10000000
00100000
01000000
00010000
,
00200000
00000000
00301000
00001000
00020000
00000000
00030100
00000000
,
00001000
00000010
00000001
00000010
00000100
00000001
00001000
00000200
,
00000000
00000301
00000100
00000100
00001000
00001000
00000010
00000000
,
00010000
00001000
01000000
00100000
10000000
01000000
00010000
02000000
,
00000000
03100000
00010000
00010000
01000000
01000000
10000000
00000000
,
01000000
00100000
10000000
01000000
00010000
00001000
00000010
00000001
,
00002000
00000000
00003001
00000000
00001000
00000010
00000001
00000010
,
00000200
00000000
00000301
00000000
00001000
00000100
00000001
00000100
,
00002000
00000000
00003010
00000010
00020000
00000000
00030100
00000000
,
00012000
00000000
00103000
00000000
00001000
00010000
01000000
20000000
,
00100000
00000000
01000000
00000000
30010000
00000000
10000000
00020000
,
00100000
00000000
01000000
00000000
00031000
00000000
00010000
00100000
,
10100000
00000000
00000000
01010000
00000000
00101000
00000000
00001000
,
00010000
00000000
00000100
00001000
00000000
00000010
00000100
00000002
,
00000010
00000000
00000100
00000000
00001003
00000001
00000100
00001000
,
00020000
00000000
00100000
00000000
10030000
00010000
00100000
10000000
,
02000000
00000000
00000000
00000000
00100000
00000000
00000000
00000000
03010000
00000000
10000000
00000000
01000000
00010000
00000000
00000000
,
00001000
00000010
00000001
00001000
00000000
00000001
00000100
00001000
,
00010000
00000000
00100000
10000000
01000000
01000000
01000000
00000000
,
10000000
01000000
00010000
00001000
00000000
00000010
00000001
00001000
,
00000100
00000000
00001000
00010000
00100000
00100000
00100000
00000000
,
10000000
01000000
00010000
00001000
00000000
00000010
00000001
00000100
,
00002000
00000000
00013000
00100000
10000000
10000000
00010000
00010000
,
02000000
00000000
00100000
00000000
10000000
00000000
03010000
01000000
,
00100000
10000000
01000000
00020000
00000000
00001000
00031000
00000000
,
00000010
00000001
00000100
00001000
00000000
00010000
00100000
10000000
,
01000000
00000000
00100000
00010000
10000000
10000000
10000000
00000000
,
00010000
01000000
00100000
00010000
00000000
00001000
00000100
00000001
,
00000010
00000000
00000100
00001000
00000010
00000010
00000010
00000000
,
00000100
00000001
00000010
00002000
00000000
00013000
01000000
20000000
,
00100000
00000000
30010000
10000000
00010000
01000000
00100000
00010000
,
00001000
00000100
00000001
00000000
00000010
00001000
00010000
00000000
,
00100000
10000000
01000000
00010000
01000000
00100000
00010000
01000000
,
00020000
00100000
00031000
00011000
,
00001100
00000000
00000010
00000010
00000001
00000001
00000100
00000100
,
00000010
00001000
00000100
00000001
00000000
00000100
00001000
00000010
,
00000002
00000013
00002000
00013000
,
20100000
01000000
30010000
11000000
,
01010000
00000000
10000000
10000000
00100000
00100000
00010000
00010000
,
00001000
00000010
00000001
00000010
00000000
00001000
00010000
01000000
,
20000000
30100000
00020000
00130000
,
10000000
00000000
00010000
00000000
00000000
01000000
00000000
00000000
00010000
00000000
00000000
00100000
00000000
00000000
00001000
00000000
,
00010000
00000000
00000100
00000000
00000000
00001000
00000000
00000000
00000010
00000000
00000000
00000100
00000000
00000000
00000001
00000000
,
00000010
00000000
00000100
00000000
00000000
00001000
00000000
00000000
00000001
00000000
00000000
00000100
00000000
00000000
00001000
00000000
,
00010000
00000000
00100000
00000000
00000000
10000000
00000000
00000000
00010000
00000000
01000000
00000000
10000000
00000000
01000000
00000000
,
00010000
00000000
00100000
00000000
00000000
01000000
00000000
00000000
10000000
00000000
00000000
00010000
00000000
00000000
01000000
00000000
,
00001000
00000000
00010000
00000000
00000000
00000100
00000000
00000000
00001000
00000000
00000000
00000010
00000000
00000000
00000100
00000000
,
00000001
00000000
00000010
00000000
00000000
00001000
00000000
00000000
00000010
00000000
00000000
00000001
00000000
00000000
00000100
00000000
,
00001000
00000000
00010000
00000000
00000000
00100000
00000000
00000000
10000000
00000000
01000000
00000000
00010000
00000000
00001000
00000000
;

//---------------dance-double - Blank----------------
#NOTEDATA:;
#CHARTNAME:;
#STEPSTYPE:dance-double;
#DESCRIPTION:Blank;
#CHARTSTYLE:;
#DIFFICULTY:Easy;
#METER:3;
#RADARVALUES:0.277,0.272,0.015,0.135,0.000,239.000,2.000,18.000,0.000,0.000,0.000,0.000,0.000,0.277,0.272,0.015,0.135,0.000,239.000,2.000,18.000,0.000,0.000,0.000,0.000,0.000;
#CREDIT:;
#NOTES:
00000000
00000000
00000000
00000000
,
00000000
00000000
00000000
00000000
,
00000000
00000000
00000000
00000000
,
00000000
00000000
00000000
00000000
,
00000000
00000000
00000000
00000000
,
00000000
00000000
00000000
00000000
,
00000000
00000000
00000000
00000000
,
00000000
00000000
00000000
00000000
,
00000000
00000000
00000000
00000000
,
10000000
01000000
00100000
00010000
,
01000000
00010000
00100000
00001000
,
00010000
00000100
00001000
00000010
,
00000100
00000001
00000010
00000010
,
00000100
00001000
00000010
00010000
,
00001000
00100000
00010000
01000000
,
00100000
10000000
01000000
00100000
,
00010000
00001000
00010000
00010000
,
00001000
00010000
00000100
00010000
,
00001000
00100000
00010000
00000000
,
01000000
00100000
10000000
01000000
,
00010000
00001000
00000100
00000000
,
00000010
00000001
00000100
00000010
,
00001000
00000000
00000100
00010000
,
00001000
00000000
00100000
00010000
,
20000000
00000000
30010000
00000000
,
10000000
00100000
01000000
00010000
,
00100000
00100000
00001000
00000000
,
00010000
00000010
00001000
00000100
,
00001000
00001000
00000001
00000000
,
00000010
00000001
00000100
00001000
,
00010000
00000000
00100000
10000000
,
01000000
00000000
00100000
00010000
,
01000000
00100000
10000000
00000000
,
00020000
00100000
00130000
00010000
,
20000000
00100000
30100000
10000000
,
00020000
01000000
01030000
00010000
,
01000000
00000000
00000000
00001000
00000000
00100000
00000000
00000000
,
00001000
00010000
00000100
00001000
,
00000020
00000100
00000130
00000001
,
00002000
00000100
00003100
00010000
,
00002000
00100000
00103000
00011000
,
00001000
00100000
00010000
01000000
,
00100000
10000000
00010000
00010000
,
10000000
01000000
00100000
00010000
,
00100000
00001000
00010000
00010000
,
00000100
00001000
00000010
00000100
,
00000001
00000010
00000100
00000100
,
00002000
00000000
00000000
00003000
,
00000001
00000100
00001000
00011000
,
00010000
00100000
10000000
01000000
,
00020000
00030000
00001000
00001000
,
00000010
00000001
00000100
00000010
,
00002000
00003000
00000100
00000100
,
00001000
00000010
00000100
00000001
,
00001000
00000100
00000010
00000001
,
00000100
00001000
00010000
00100000
,
10000000
01000000
00010000
00001000
,
00000020
00000001
00000001
00000031
,
00002000
00000100
00000100
00003100
,
00020000
00001000
00001000
00031000
,
00200000
00010000
00010000
00310000
,
20000000
01000000
01000000
31000000
,
20000000
00100000
00100000
30100000
,
02000000
00010000
00010000
03010000
,
00200000
00001000
00001000
00301000
,
10000000
01000000
00100000
00010000
,
01000000
00010000
00100000
00001000
,
00010000
00000100
00001000
00000010
,
00000100
00000001
00000010
00000010
,
00000100
00001000
00000010
00010000
,
00001000
00100000
00010000
01000000
,
00100000
10000000
01000000
00100000
,
00010000
00001000
00010000
00010000
;

//---------------dance-double - Blank----------------
#NOTEDATA:;
#CHARTNAME:;
#STEPSTYPE:dance-double;
#DESCRIPTION:Blank;
#CHARTSTYLE:;
#DIFFICULTY:Medium;
#METER:5;
#RADARVALUES:0.388,0.382,0.112,0.284,0.000,310.000,15.000,38.000,0.000,0.000,0.000,0.000,0.000,0.388,0.382,0.112,0.284,0.000,310.000,15.000,38.000,0.000,0.000,0.000,0.000,0.000;
#CREDIT:;
#NOTES:
// measure 0
00000000
00000000
00000000
00000000
,  // measure 1
00000000
00000000
00000000
00000000
,  // measure 2
00000000
00000000
00000000
00000000
,  // measure 3
00000000
00000000
00000000
00000000
,  // measure 4
00000000
00000000
00000000
00000000
,  // measure 5
00000000
00000000
00000000
00000000
,  // measure 6
00000000
00000000
00000000
00000000
,  // measure 7
00000000
00000000
00000000
00000000
,  // measure 8
00000000
00000000
00000000
00000000
,  // measure 9
10000000
00000000
01000000
00000000
00100000
00000000
00010000
01000000
,  // measure 10
00010000
00000000
00100000
00000000
00001000
00000000
00010000
00000100
,  // measure 11
00010000
00000000
00000010
00000000
00000100
00000000
00000001
00001000
,  // measure 12
00000001
00000010
00000100
00001001
,  // measure 13
00000001
00000000
00000010
00000000
00000100
00000000
00001000
00000010
,  // measure 14
00000100
00000000
00001000
00000000
00010000
00000000
00100000
10000000
,  // measure 15
01000000
00000000
00100000
00000000
00010000
00000000
01000000
00001000
,  // measure 16
00010000
00000010
00000100
00001001
,  // measure 17
00000001
00000010
00000001
00000000
00001000
00000010
00001000
00000000
,  // measure 18
00000001
00001000
00000001
00000000
00000100
00000000
00001010
00000000
,  // measure 19
00000001
00000100
00000001
00000000
00001000
00000100
00001000
00000000
,  // measure 20
00001000
00010000
00001000
00000000
00010000
00000000
00110000
00000000
,  // measure 21
00100000
10000000
01000000
00000000
00100000
00010000
01000000
00000000
,  // measure 22
20100000
00000000
30010000
00000000
10000000
01000000
00010000
00000000
,  // measure 23
00002000
00000000
00003010
00000000
00000001
00000100
00001000
00000000
,  // measure 24
00020000
00130000
20000000
31000000
,  // measure 25
10000000
00100000
01000000
00000000
00010000
01000000
00100000
00000000
,  // measure 26
20000000
31000000
00020000
01030000
,  // measure 27
00100000
00001000
00010000
00000000
00000100
00001000
00000001
00000000
,  // measure 28
00000200
00000310
00002000
00003001
,  // measure 29
00000010
00000001
00000100
00000000
00000010
00001000
00000100
00000000
,  // measure 30
00021000
00000000
00031000
00000000
00100000
00010000
01000000
00000000
,  // measure 31
20100000
00000000
31000000
00000000
10000000
01000000
00100000
00000000
,  // measure 32
00020000
01030000
00002000
00103000
,  // measure 33
00001200
00010000
00010300
00000100
,  // measure 34
00002000
00000010
00003010
00000100
,  // measure 35
00000002
00000010
00000013
00000100
,  // measure 36
00001100
00000000
00000000
00011000
00000000
00110000
00000000
00000000
,  // measure 37
00100000
00000000
10000000
00000000
01000000
00010000
01000000
00000000
,  // measure 38
00020000
00001000
00031000
00010000
,  // measure 39
00000020
00000001
00000031
00000100
,  // measure 40
00002000
00010000
00013000
00011000
,  // measure 41
00100000
10000000
00100000
00000000
01000000
00010000
01000000
00000000
,  // measure 42
00020000
00130000
00002000
00013000
,  // measure 43
00000100
00001000
00000001
00000000
00000010
00000001
00001000
00000000
,  // measure 44
00000002
00000103
00002000
00003100
,  // measure 45
00000010
00001000
00000100
00000000
00010000
00000100
00001000
00000000
,  // measure 46
00000200
00010300
00002000
00103000
,  // measure 47
00020000
01000000
01000000
01030000
,  // measure 48
00100000
10000000
01000000
00010000
00001000
00000010
00000001
00000000
,  // measure 49
00000100
00000001
00000100
00000000
00000010
00001000
00000010
00000000
,  // measure 50
00002000
00003100
00020000
00031000
,  // measure 51
00100000
00010000
10000000
00000000
01000000
10000000
00010000
00000000
,  // measure 52
20000000
30100000
00020000
00130000
,  // measure 53
01000000
00010000
00100000
00000000
00001000
00100000
00010000
00000000
,  // measure 54
00200000
00301000
00020000
00030100
,  // measure 55
00002000
00000010
00000010
00003010
,  // measure 56
00000100
00000001
00000010
00001000
00010000
01000000
10000000
00010000
,  // measure 57
20000000
00100000
00100000
30100000
,  // measure 58
02000000
00010000
00010000
03010000
,  // measure 59
00100000
00001000
00010000
00000000
00000100
00001000
00000001
00000000
,  // measure 60
00000020
00000100
00000100
00000130
,  // measure 61
00000002
00000100
00000100
00000103
,  // measure 62
00000020
00001000
00001000
00001030
,  // measure 63
00000100
00010000
00001000
00000000
00100000
00010000
10000000
00000000
,  // measure 64
02000000
00100000
00100000
03100000
,  // measure 65
10000000
00000000
01000000
00000000
00100000
00000000
00010000
01000000
,  // measure 66
00010000
00000000
00100000
00000000
00001000
00000000
00010000
00000100
,  // measure 67
00010000
00000000
00000010
00000000
00000100
00000000
00000001
00001000
,  // measure 68
00000001
00000010
00000100
00001001
,  // measure 69
00000001
00000000
00000010
00000000
00000100
00000000
00001000
00000010
,  // measure 70
00000100
00000000
00001000
00000000
00010000
00000000
00100000
10000000
,  // measure 71
01000000
00000000
00100000
00000000
00010000
00000000
01000000
00001000
,  // measure 72
00010000
00000010
00000100
00000101
,  // measure 73
00001001
00000000
00000000
00000000
;
