#TITLE:イカサマライフゲイム;
#SUBTITLE:;
#ARTIST:kemu;
#TITLETRANSLIT:Ikasama Life Game;
#SUBTITLETRANSLIT:;
#ARTISTTRANSLIT:;
#GENRE:;
#CREDIT:;
#BANNER:[Round 2 Doubles] - Ikasama Life Game-bn.png;
#BACKGROUND:[Round 2 Doubles] - Ikasama Life Game-bg.png;
#LYRICSPATH:;
#CDTITLE:;
#MUSIC:[Round 2 Doubles] - Ikasama Life Game.ogg;
#OFFSET:-8.733;
#SAMPLESTART:48.342;
#SAMPLELENGTH:9.650;
#SELECTABLE:YES;
#DISPLAYBPM:200.000;
#BPMS:0.000=200.000
,196.000=202.360
,210.000=200.000
;
#STOPS:
;
#BGCHANGES:;
#KEYSOUNDS:;
#ATTACKS:;

//---------------dance-single - ----------------
#NOTES:
     dance-single:
     :
     Beginner:
     2:
     0.132,0.185,0.076,0.008,0.000,99.000,9.000,1.000,0.000,0.000,0.000,0.132,0.185,0.076,0.008,0.000,99.000,9.000,1.000,0.000,0.000,0.000: // measure 0
0000
0000
0000
0000
,  // measure 1
1000
0000
0000
0001
,  // measure 2
0000
0000
1000
0000
,  // measure 3
1000
0000
0000
0000
,  // measure 4
0001
0000
0000
0000
,  // measure 5
0001
0000
0000
1000
,  // measure 6
0000
0000
0001
0000
,  // measure 7
0001
0000
0000
0000
,  // measure 8
1000
0000
0000
0000
,  // measure 9
0001
0000
0000
0000
,  // measure 10
0001
0000
0000
0000
,  // measure 11
1000
0000
0000
0000
,  // measure 12
0000
0000
0000
1000
,  // measure 13
1000
0000
0000
0000
,  // measure 14
1000
0000
0000
0000
,  // measure 15
0001
0000
0000
0000
,  // measure 16
1001
0000
0000
0000
,  // measure 17
0010
0000
0000
0000
,  // measure 18
0010
0000
0000
0000
,  // measure 19
0100
0000
0000
0000
,  // measure 20
0100
0000
0000
0000
,  // measure 21
0010
0000
0000
0000
,  // measure 22
0100
0000
0000
0000
,  // measure 23
0010
0000
0000
0000
,  // measure 24
0100
0000
0000
0000
,  // measure 25
0110
0000
0000
0000
,  // measure 26
0000
0000
0000
0000
,  // measure 27
1001
0000
0000
0000
,  // measure 28
0000
0000
0000
0000
,  // measure 29
0110
0000
0000
0000
,  // measure 30
0000
0000
0000
0000
,  // measure 31
1000
0000
0000
0000
,  // measure 32
1001
0000
0000
0000
,  // measure 33
0001
0000
0001
0000
,  // measure 34
1000
0000
1000
0000
,  // measure 35
0001
0000
0001
0000
,  // measure 36
1000
0000
1000
0000
,  // measure 37
0001
0000
0000
0000
,  // measure 38
1000
0000
0000
0000
,  // measure 39
0010
0000
0010
0000
,  // measure 40
0110
0000
0000
0000
,  // measure 41
0010
0000
0100
0000
,  // measure 42
0010
0000
0100
0000
,  // measure 43
0010
0000
0010
0000
,  // measure 44
0100
0000
0100
0000
,  // measure 45
0010
0000
0000
0000
,  // measure 46
0100
0000
0000
0000
,  // measure 47
0001
0000
0001
0000
,  // measure 48
1000
0000
1001
0000
,  // measure 49
0000
0000
0000
0000
,  // measure 50
0000
0000
0000
0000
,  // measure 51
0000
0000
0000
0000
,  // measure 52
0000
0000
0000
0000
,  // measure 53
1000
0000
0000
0000
,  // measure 54
0000
0000
0000
0000
,  // measure 55
0001
0000
0000
0000
,  // measure 56
0000
0000
0000
0000
,  // measure 57
1000
0000
0000
0000
,  // measure 58
0000
0000
0000
0000
,  // measure 59
0001
0000
0000
0000
,  // measure 60
0000
0000
0000
0000
,  // measure 61
0010
0000
0000
0000
,  // measure 62
0010
0000
0000
0000
,  // measure 63
0010
0000
0000
0000
,  // measure 64
0010
0000
0000
0000
,  // measure 65
0100
0000
0000
0000
,  // measure 66
0100
0000
0000
0000
,  // measure 67
0010
0000
0000
0000
,  // measure 68
0100
0000
0000
0000
,  // measure 69
1000
0000
1000
0000
,  // measure 70
0001
0000
0001
0000
,  // measure 71
1000
0000
0001
0000
,  // measure 72
0001
0000
1000
0000
,  // measure 73
0001
0000
0000
0000
,  // measure 74
1000
0000
0000
0000
,  // measure 75
0010
0000
0010
0000
,  // measure 76
0100
0000
0110
0000
,  // measure 77
0001
0000
1000
0000
,  // measure 78
0001
0000
1001
0000
,  // measure 79
1000
0000
0000
1000
,  // measure 80
0000
0000
0001
0000
,  // measure 81
1000
0000
0000
0000
,  // measure 82
0001
0000
0000
0000
,  // measure 83
0001
0000
0000
0001
,  // measure 84
0000
0000
1000
0000
,  // measure 85
0001
0000
0000
0000
,  // measure 86
1000
0000
0000
0000
,  // measure 87
0020
0000
0000
0030
0000
0000
0000
0000
;

//---------------dance-double - ----------------
#NOTES:
     dance-double:
     :
     Hard:
     9:
     0.622,0.666,0.356,0.017,0.085,470.000,42.000,2.000,0.000,0.000,0.000,0.622,0.666,0.356,0.017,0.085,470.000,42.000,2.000,0.000,0.000,0.000:
00000000
00000000
00000000
00000000
,
01000000
00000000
00000000
00000000
10000000
00000000
00000000
00000000
10000000
00010000
00000000
00000000
00100000
00000000
00000000
00000000
,
01000000
00000000
00000000
00000000
01000000
10000000
00000000
00000000
01000000
00000000
00100000
00000000
00001000
00000000
00010000
00000000
,
00100000
00010000
00001000
00000010
00001000
00010000
00100000
00010000
,
00001000
00000000
00000010
00000000
00000001
00000010
00000001
00000000
00001000
00000001
00001000
00000000
00000010
00001000
00000010
00000000
,
00000100
00000000
00000000
00000000
00000001
00000000
00000000
00000000
00000001
00001000
00000000
00000000
00000010
00000000
00000000
00000000
,
00000100
00000000
00000000
00000000
00000100
00000001
00000000
00000000
00000100
00000000
00000010
00000000
00010000
00000000
00001000
00000000
,
00000010
00001000
00010000
00100000
00010000
00001000
00000010
00001000
,
00010000
00000000
00100000
00000000
10000000
00100000
10000000
00000000
00010000
10000000
00010000
00000000
00100000
00010000
00100000
00000000
,
01100000
00000000
01000000
00100000
00010000
00000000
10000000
01000000
,
00100000
00000000
10000000
00000000
00100000
00010000
00001000
00000100
,
00000001
00000100
00001000
00000010
,
00000100
00000000
00000001
00000000
00000100
00000001
00000100
00000000
,
00000110
00000000
00000100
00000010
00001000
00000000
00000001
00000100
,
00000010
00000000
00000001
00000000
00000010
00001000
00010000
01000000
,
10000000
00000000
01000000
00000000
00010000
00000000
00100000
00010000
,
00000000
00010000
00100000
01000000
00000000
01100000
00000000
00000000
,
10000000
00100000
01000000
00010000
00001000
00000000
00001000
00010000
,
01000000
00000000
01000000
00100000
00010000
00001000
00000100
00000010
,
00000100
00000000
00001000
00000000
00000010
00000000
00000001
00000010
,
00000000
00000010
00000100
00000001
00000000
00000001
00001000
00000010
,
00000110
00000000
00000100
00001000
00010000
00000000
00010000
00001000
,
00000100
00000000
00000010
00001000
00010000
01000000
00100000
01000000
,
00010000
00000000
00100000
00000000
01000000
00000000
10000000
01000000
,
00000000
01000000
10000000
00010000
00000000
01010000
00000000
00000000
,
10010000
00000000
00000000
11000000
00000000
00000000
00000000
10000000
,
01000000
00100000
00001000
00010000
00000010
00000100
00000001
00000000
,
00000101
00000000
00000000
00001001
00000000
00001000
00000000
00000010
,
00000100
00000001
00001000
00000010
00000100
00000000
00000010
00000000
,
00000110
00000000
00000000
00000101
00000000
00000000
00000000
00000001
,
00000100
00000010
00010000
00001000
00100000
01000000
10000000
00000000
,
00200000
00000000
10300000
00000000
,
11000000
11000000
01010000
01010000
,
00010000
10000000
01000000
00010000
00000000
01000000
00010000
00001000
,
00000000
00010000
00001000
00000010
00000000
00000010
00000001
00001000
,
00000010
00000100
00000001
00000100
00000000
00000110
00000000
00000010
,
00000100
00001000
00010000
00100000
01000000
00000000
00100000
00010000
,
00001000
00000000
00010000
00001000
00000010
00000000
00000100
00010000
,
00001000
00000000
00010000
00001000
01000000
00000000
00100000
00000000
,
01100000
00000000
00100000
10000000
00000000
01000000
00000000
10000000
,
01000000
00010000
00001000
00000010
00000001
00000000
00001001
00000000
,
00001000
00000001
00000100
00001000
00000000
00000100
00001000
00010000
,
00000000
00001000
00010000
00100000
00000000
10000000
00100000
01000000
,
00010000
00000000
00010000
10000000
01000000
00000000
00010000
01000000
,
00100000
01000000
10000000
01000000
00010000
00000000
01000000
00010000
,
00001000
00000000
00010000
00001000
00000100
00000000
00000010
00010000
,
00001000
00000000
00010000
00001000
00100000
00000000
01000000
00000000
,
01100000
10000000
10010000
00010000
,
01010000
00011000
00001100
00000000
,
00001001
00000000
00000000
00000000
,
00000000
00000000
00000000
00000000
,
00000000
00000000
00000000
00000000
,
00000000
00000000
00000000
00000000
,
00000001
00000000
00000100
00000001
00000001
00000000
00000100
00000000
,
00000010
00001000
00010000
01000000
,
00100000
00000000
10000000
01000000
01000000
00000000
10000000
00000000
,
01000000
00100000
00010000
00100000
,
01000000
00000000
00010000
00001000
00001000
00000000
00000010
00000000
,
00000100
00001000
00000001
00000100
,
00000001
00000000
00000100
00000010
00000010
00000000
00000100
00000000
,
00000001
00000101
00001010
00000101
,
00000100
00000000
00000100
00001000
00000100
00001000
00010000
00000000
,
00001000
00000000
00010000
00001000
00010000
00001000
01000000
00000000
,
00100000
00000000
10000000
00100000
10000000
00100000
01000000
00000000
,
00010000
00110000
11000000
00110000
,
11000000
00000000
00000000
10000000
01000000
00000000
00000000
01000000
,
00100000
01000000
00010000
00000000
00001000
00000000
00000100
00000000
,
00000110
00000000
00000000
00000100
00000001
00000000
00000000
00001000
,
00000100
00000000
00000000
00000010
00000001
00000000
00000000
00000000
,
00001000
00000001
00000100
00001000
00000000
00000100
00001000
00010000
,
00000000
00001000
00010000
00100000
00000000
00100000
10000000
00010000
,
00100000
01000000
10000000
01000000
00000000
01100000
00000000
00100000
,
01000000
00010000
00001000
00000010
00000100
00000000
00000010
00001000
,
00010000
00000000
00001000
00010000
00100000
00000000
01000000
00001000
,
00010000
00000000
00001000
00010000
00000100
00000000
00000010
00000000
,
00000011
00000100
00000110
00001000
,
00001100
00011000
01010000
00000000
,
10100000
00110000
01010000
11000000
,
01000000
00010000
00001000
00000010
00000001
00000000
00000000
00000000
,
00000100
00000000
00000000
00000000
00000001
00000000
00000000
00000000
00000001
00001000
00000000
00000000
00000010
00000000
00000000
00000000
,
00000100
00000000
00000000
00000000
00000100
00000001
00000000
00000000
00000100
00000000
00000010
00000000
00010000
00000000
00001000
00000000
,
00000010
00001000
00010000
00100000
00010000
00001000
00000010
00001000
,
00010000
00000000
00100000
00000000
10000000
00100000
10000000
00000000
00010000
10000000
00010000
00000000
00100000
00010000
00100000
00000000
,
01000000
00000000
00000000
00000000
10000000
00000000
00000000
00000000
10000000
00010000
00000000
00000000
00100000
00000000
00000000
00000000
,
01000000
00000000
00000000
00000000
01000000
10000000
00000000
00000000
01000000
00000000
00100000
00000000
00001000
00000000
00010000
00000000
,
00100000
00010000
00001000
00000010
00001000
00010000
00100000
00010000
,
00001000
00000000
00000010
00000000
00000001
00000010
00000001
00000000
00001000
00000001
00001000
00000000
00000010
00001000
00000010
00000000
,
00000200
00000000
00000000
00000300
00000000
00000000
00000000
00000000
;

//---------------dance-double - ----------------
#NOTES:
     dance-double:
     :
     Medium:
     6:
     0.443,0.518,0.432,0.110,0.000,302.000,51.000,13.000,0.000,0.000,0.000,0.443,0.518,0.432,0.110,0.000,302.000,51.000,13.000,0.000,0.000,0.000:
00000000
00000000
00000000
00000000
,
10000000
01000000
11000000
01000000
,
00100000
01100000
01000000
10000000
,
00100000
10000000
00000000
00010000
00100000
00000000
00001000
00010000
,
00000000
00000100
00001000
00000000
00000100
00000000
00000010
00000000
,
00000001
00000100
00000101
00000100
,
00000010
00000110
00000100
00000001
,
00000010
00000001
00000000
00001000
00000010
00000000
00010000
00001000
,
00000000
01000000
00010000
00000000
01000000
00000000
00100000
00000000
,
10000000
00000000
01000000
10000000
01000000
00000000
00100000
00000000
,
00010000
00001000
00000100
00001000
,
00000000
00001000
00000000
00001000
,
00000000
00001000
00000000
00001001
,
00000001
00000000
00000100
00000001
00000100
00000000
00000010
00000000
,
00001000
00010000
01000000
00100000
,
00000000
00000000
00100000
00000000
00000000
00000000
00100000
01000000
,
00000000
01000000
00000000
00010000
00000000
10010000
00000000
00000000
,
00010000
00000000
10000000
01000000
00100000
00000000
00100000
01000000
,
00010000
00000000
01000000
00010000
00001000
00000000
00000100
00000000
,
00000000
00000000
00000100
00000000
00000000
00000000
00000100
00000001
,
00000000
00000010
00000000
00000100
00000000
00001000
00000000
00001001
,
00000000
00000000
00000001
00000100
00000010
00000000
00000010
00000100
,
00001000
00000000
00000100
00001000
00010000
00000000
01000000
00000000
,
00000000
00000000
01000000
00000000
00000000
00000000
01000000
10000000
,
00000000
10000000
00000000
00010000
00000000
10010000
00000000
00000000
,
01010000
00000000
00000000
01010000
00000000
00000000
00000000
00000000
,
01000000
00001000
00010000
00000000
00001000
00010000
00000100
00000000
,
00001100
00000000
00000000
00001100
00000000
00000000
00000000
00000000
,
00000100
00010000
00001000
00100000
,
00110000
00000000
00000000
00110000
00000000
00000000
00000000
00000000
,
00100000
00001000
00010000
00000000
00001000
00010000
00000010
00000000
,
00000200
00000000
00000310
00000000
,
00000110
00000110
00000101
00000101
,
00000001
00000000
00000001
00000100
00000000
00001000
00000000
00010000
,
00000000
00100000
00000000
10000000
00000000
10000000
00010000
00000000
,
10000000
00000000
10000000
01000000
00000000
00010000
00000000
00001000
,
00000000
00000010
00000001
00001000
,
00010020
00000000
00000030
00010000
,
00201000
00000000
00300000
00001000
,
00100000
00000000
00100000
00010000
00000000
00100000
00000000
01000000
,
00000000
01100000
10010000
00000000
,
10000000
00000000
10000000
01000000
00000000
00010000
00000000
00001000
,
00000000
00000010
00000000
00000001
00000000
00000001
00001000
00000000
,
00000001
00000000
00000100
00000000
,
00001000
00010000
00100000
00000000
10000000
00000000
00010000
00000000
,
00201000
00000000
00300000
00001000
,
00010020
00000000
00000030
00001000
,
00001010
00000001
00000011
00000100
,
00001001
00011000
10010000
00000000
,
01100000
00000000
00000000
00000000
,
00000000
00000000
00000000
00000000
,
00000000
00000000
00000000
00000000
,
00000000
00000000
20000000
00000000
,
31000000
00000000
00000000
10000000
10000000
00000000
00000000
00000000
,
01000000
00000000
00020000
00000000
,
00031000
00000000
00000000
00010000
00010000
00000000
00000000
00000000
,
00001000
00000000
00000200
00000000
,
00000301
00000000
00000000
00000100
00000100
00000000
00000000
00000000
,
00000001
00000000
00002000
00000000
,
00003010
00000000
00000000
00001000
00001000
00000000
00000000
00000000
,
00000010
00001000
00000010
00000100
,
00001000
00000000
00001000
00000000
,
00001000
00000000
00001000
00000100
,
00001000
00010000
00100000
00100000
,
01000000
01000000
11000000
11000000
,
10020000
00000000
00100000
00000000
,
01030000
00000000
00001000
00001000
,
00010000
00000000
00000000
00010000
00000100
00000000
00000000
00000100
,
00000010
00000000
00000000
00000010
00000001
00000000
00000000
00000000
,
00000001
00000000
00000001
00000100
00000000
00001000
00000000
00010000
,
00000000
00100000
00000000
10000000
00000000
10000000
00010000
00000000
,
10000000
00000000
10000000
01000000
00000000
00010000
00000000
00001000
,
00000000
00000010
00000001
00001000
,
00010020
00000000
00000030
00010000
,
00201000
00000000
00300000
00010000
,
00110000
10000000
10100000
01000000
,
10010000
00011000
00001001
00000000
,
00001010
00000011
00000101
00001100
,
00001001
00011000
10010000
00000000
,
10000000
01000000
11000000
01000000
,
00100000
01100000
01000000
10000000
,
00100000
10000000
00000000
00010000
00100000
00000000
00001000
00010000
,
00000000
00000100
00001000
00000000
00000100
00000000
00000010
00000000
,
00000001
00000100
00000101
00000100
,
00000010
00000110
00000100
00000001
,
00000010
00000001
00000000
00001000
00000010
00000000
00010000
00001000
,
00000000
01000000
00010000
00000000
01000000
00000000
00100000
00000000
,
20000000
00000000
00000000
30000000
00000000
00000000
00000000
00000000
;

//---------------dance-double - ----------------
#NOTES:
     dance-double:
     :
     Easy:
     3:
     0.251,0.370,0.093,0.085,0.000,186.000,11.000,10.000,0.000,0.000,0.000,0.251,0.370,0.093,0.085,0.000,186.000,11.000,10.000,0.000,0.000,0.000:
00000000
00000000
00000000
00000000
,
10000000
10000000
10000000
00100000
,
00100000
00100000
10000000
10000000
,
01000000
00000000
00010000
00000000
,
00001000
00000000
00000100
00000000
,
00000001
00000001
00000001
00000010
,
00000010
00000010
00000001
00000001
,
00000100
00000000
00001000
00000000
,
00010000
00000000
01000000
00000000
,
10000000
00000000
01000000
00000000
,
00010000
00000000
00001000
00001000
,
00000010
00000000
00000000
00000000
,
00000010
00000000
00000000
00000001
,
00000001
00000000
00000100
00000000
,
00001000
00000000
00010000
00010000
,
00100000
00000000
00000000
00000000
,
10000000
00000000
10000000
00000000
,
00010000
00000000
00100000
00000000
,
01000000
00000000
00010000
00010000
,
00001000
00000000
00000000
00000000
,
00000010
00000000
00000001
00000000
,
00001000
00000000
00000010
00000000
,
00000100
00000000
00001000
00001000
,
00010000
00000000
00000000
00000000
,
00100000
00000000
00100000
00000000
,
01100000
00000000
00000000
00000000
,
01000000
00001000
00010000
00000000
,
00011000
00000000
00000000
00000000
,
00010000
00000100
00001000
00000000
,
00001100
00000000
00000000
00000000
,
00000100
00001000
00000001
00000000
,
00000200
00000000
00000300
00000000
,
00000010
00000010
00000110
00000000
,
00000100
00000000
00000010
00000000
,
00001000
00001000
00001000
00000000
,
00010000
00000000
01000000
00000000
,
00100000
00100000
00100000
00000000
,
20000000
00000000
30000000
00000000
,
00020000
00000000
00030000
00000000
,
10000000
00000000
01000000
00000000
,
00100000
00100000
01100000
00000000
,
00100000
00000000
01000000
00000000
,
00010000
00010000
00010000
00000000
,
00001000
00000000
00000010
00000000
,
00000100
00000100
00000100
00000000
,
00002000
00000000
00003000
00000000
,
00000002
00000000
00000003
00000000
,
00000100
00000000
00000010
00000000
,
00001001
00001001
00002002
00000000
,
00003003
00000000
00000000
00000000
,
00000000
00000000
00000000
00000000
,
00000000
00000000
00000000
00000000
,
00000000
00000000
00000001
00000000
,
00000001
00000000
00000100
00000000
,
00000000
00000000
00000100
00000000
,
00001000
00000000
00001000
00000000
,
00000000
00000000
00001000
00000000
,
00010000
00000000
00010000
00000000
,
00000000
00000000
00010000
00000000
,
00100000
00000000
00100000
00000000
,
00000000
10000000
10000000
10000000
,
10000000
00000000
00000000
00000000
,
01000000
00000000
00000000
00000000
,
00010000
00000000
00010000
00000000
,
00010000
00001000
00001000
00001000
,
00010000
00000000
00010000
00000000
,
00001000
00000000
00001000
00000000
,
00000010
00000000
00000001
00000000
,
00000100
00000000
00000010
00000000
,
00000010
00000000
00000100
00000000
,
00001000
00001000
00001000
00000000
,
00010000
00000000
00100000
00000000
,
01000000
01000000
01000000
00000000
,
00020000
00000000
00030000
00000000
,
20000000
00000000
30000000
00000000
,
01000000
00000000
00100000
00000000
,
10010000
10010000
10010000
00000000
,
10000000
01000000
00010000
00001000
,
00000010
00000001
00001000
00000000
,
00000001
00000001
00000001
00000010
,
00000010
00000010
00000001
00000001
,
00000100
00000000
00001000
00000000
,
00010000
00000000
01000000
00000000
,
10000000
10000000
10000000
00100000
,
00100000
00100000
10000000
10000000
,
01000000
00000000
00010000
00000000
,
00001000
00000000
00000100
00000000
,
00000002
00000000
00000000
00000003
00000000
00000000
00000000
00000000
;

//---------------dance-single - ----------------
#NOTES:
     dance-single:
     :
     Hard:
     9:
     0.649,0.629,0.407,0.017,0.085,486.000,48.000,2.000,0.000,0.000,0.000,0.649,0.629,0.407,0.017,0.085,486.000,48.000,2.000,0.000,0.000,0.000:
0000
0000
0000
0000
,
0001
0000
0000
0000
0100
0000
0000
0000
0100
0001
0000
0000
1000
0000
0000
0000
,
0100
0000
0000
0000
0100
1000
0000
0000
0100
0000
1000
0000
0001
0000
0100
0000
,
0010
1000
0001
0010
0001
1000
0010
1000
,
0001
0000
0010
0000
0100
1000
0100
0000
1000
0001
1000
0000
0001
0100
0001
0000
,
0100
0000
0000
0000
0001
0000
0000
0000
0001
1000
0000
0000
0100
0000
0000
0000
,
1000
0000
0000
0000
1000
0001
0000
0000
0010
0000
0001
0000
1000
0000
0010
0000
,
0100
0001
1000
0100
1000
0001
0100
0001
,
1000
0000
0100
0000
0010
0001
0010
0000
0001
1000
0001
0000
1000
0010
1000
0000
,
0010
0000
0100
0001
1000
0000
0100
1000
,
0001
0000
0100
0000
0010
1000
0010
0100
,
0001
0010
1000
0100
,
0001
0000
0010
0000
0100
1000
0001
1000
,
0100
0000
0010
0001
1000
0000
0010
1000
,
0001
0000
0010
0001
0010
0100
1000
0001
,
0100
0000
0010
0000
1000
0000
0001
1000
,
0000
1000
0001
0100
0000
0101
0000
0000
,
0100
0001
1000
0100
0010
0000
0010
0001
,
1000
0000
1000
0010
0100
0010
1000
0010
,
0100
0000
0001
0000
1000
0000
0001
0100
,
0000
0100
0001
1000
0000
1000
0001
0010
,
0001
0000
0001
0010
0100
0000
0100
1000
,
0001
0000
0001
0100
0010
1000
0010
0100
,
0001
0000
0010
0000
0100
0000
1000
0100
,
0000
0100
1000
0001
0000
0100
0000
0000
,
0101
0000
0000
1001
0000
0000
0000
0001
,
0100
0010
1000
0001
0010
0100
1000
0001
,
1001
0000
0000
1100
0000
1000
0000
0100
,
0000
0010
0100
0010
0100
0000
1000
0000
,
1001
0000
0000
1100
0000
0000
0000
1000
,
0100
0010
0001
1000
0010
0100
0001
1000
,
0002
0000
0103
0000
,
0110
0110
1001
1001
,
1000
0100
1000
0001
1000
0010
0100
0001
,
0010
0001
1000
0001
0000
0001
0010
0001
,
1000
0100
1000
0001
0100
0010
0100
0001
,
0000
1000
0010
0100
0001
0000
0001
0100
,
1000
0000
0100
0100
0001
0000
0001
0010
,
1000
0000
0010
0010
0001
0000
0011
0000
,
1100
0000
0100
0010
0000
0010
0000
0001
,
1000
0010
0100
0001
0100
0000
0101
0000
,
0001
1000
0100
1000
0001
1000
0010
1000
,
0001
0100
0001
0010
0000
0010
0001
1000
,
0010
0000
0010
0100
0001
0000
0001
1000
,
0100
1000
0001
0100
0010
0000
1000
0010
,
0001
0000
0010
0010
1000
0000
1000
0100
,
0001
0000
0100
0100
1000
0000
1000
0000
,
0011
0001
1010
0100
,
0110
1001
0110
0000
,
1001
0000
0000
0000
,
0000
0000
0000
0000
,
0000
0000
0000
0000
,
0000
0000
1010
0010
,
0110
0000
0100
0001
0100
0000
0001
0000
,
0010
0100
1100
0100
,
0110
0000
0010
0001
0010
0000
0001
0000
,
0100
0010
0110
0100
,
0101
0000
0001
1000
0001
0000
1000
0000
,
0100
0010
0011
0010
,
0110
0000
0100
1000
0100
0000
0010
0000
,
0001
0011
1010
0011
,
1010
0000
1000
0010
1000
0001
1000
0010
,
0100
0000
0100
0001
0100
0010
0100
0001
,
1000
0000
0001
1000
0001
0010
0001
0100
,
0010
0110
0101
0110
,
0101
0000
0000
0001
0100
0000
0000
0100
,
0001
1000
0100
0000
1100
0000
0100
0000
,
1100
0000
0000
0100
1000
0000
0000
1000
,
0001
0000
0000
0001
0100
0000
0000
0000
,
0001
0100
0001
1000
0001
1000
0010
1000
,
0001
0010
0001
1000
0000
1000
0100
1000
,
0001
0010
0001
0100
0001
1000
0010
0100
,
0000
0001
0100
0010
1000
0000
0100
0100
,
0001
0000
0001
0100
1000
0000
0010
0010
,
0001
0000
0001
0010
1000
0000
0001
0000
,
0011
1000
1010
0100
,
0101
1001
1100
0000
,
0011
1100
1010
0101
,
0100
0010
0100
0010
1001
0000
0000
0000
,
1000
0000
0000
0000
0100
0000
0000
0000
0100
1000
0000
0000
0001
0000
0000
0000
,
0100
0000
0000
0000
0100
0001
0000
0000
0001
0000
0100
0000
0010
0000
1000
0000
,
0001
0100
1000
0001
0010
1000
0001
0100
,
1000
0000
0100
0000
0001
0100
0001
0000
0100
0010
0100
0000
0010
1000
0010
0000
,
1000
0000
0000
0000
0100
0000
0000
0000
0100
0010
0000
0000
0001
0000
0000
0000
,
0100
0000
0000
0000
0100
0010
0000
0000
1000
0000
0010
0000
0100
0000
0001
0000
,
1000
0100
0001
1000
0010
0001
1000
0100
,
0001
0000
0100
0000
1000
0100
1000
0000
0100
0010
0100
0000
0010
0001
0010
0000
,
0002
0000
0000
0003
0000
0000
0000
0000
;

//---------------dance-single - ----------------
#NOTES:
     dance-single:
     :
     Medium:
     6:
     0.424,0.444,0.254,0.076,0.000,311.000,30.000,9.000,0.000,0.000,0.000,0.424,0.444,0.254,0.076,0.000,311.000,30.000,9.000,0.000,0.000,0.000:
0000
0000
0000
0000
,
0001
0100
0010
1000
,
0100
0000
0010
0000
0100
0100
0100
0000
,
1000
0100
0000
0100
1000
0000
0001
0100
,
0000
0100
0001
0000
1000
0010
1000
0000
,
0001
0010
0100
1000
,
0010
0000
0100
0000
0010
0010
0010
0000
,
1000
0010
0000
0010
1000
0000
0001
0010
,
0000
0010
0001
0000
1000
0100
1000
0000
,
0001
0100
1000
0100
,
0001
0100
1000
0100
,
0000
0100
0000
0100
,
0000
0100
0000
0110
,
0010
0001
0010
1000
,
0010
0001
0010
1000
,
0000
1000
0000
1000
,
0001
0001
0010
0100
,
1000
0100
1000
0001
,
1000
0100
0010
0010
,
0000
0010
0000
0010
,
0100
0100
0010
0011
,
0001
0100
1000
0100
,
0010
0100
0001
1000
,
0000
1000
0000
1000
,
0001
0001
0010
0000
,
0110
0000
0000
1001
0000
0000
0000
0000
,
0100
1000
0001
0100
,
0110
0000
0000
1001
0000
0000
0000
0000
,
0010
1000
0001
0010
,
0110
0000
0000
1001
0000
0000
0000
0000
,
0100
1000
0001
0010
,
0200
0000
0310
0000
,
0010
0010
0100
1001
,
1000
0000
1000
0010
0000
0100
0000
0001
,
0000
1000
0000
0001
0000
0001
1000
0000
,
0001
0000
0001
0010
0000
0100
0000
2000
,
0000
0000
0001
0000
3001
0000
0001
0001
,
0100
0000
0010
0000
0100
0000
1000
1000
,
0100
0010
0100
0001
,
1000
0000
0100
1000
0000
0001
0000
1000
,
0000
0100
0010
0000
0110
0000
0000
0000
,
0001
0000
0001
0010
0000
0100
0000
1000
,
0000
0001
0000
1000
0000
1000
0010
0000
,
0100
0000
0001
0000
,
1000
0001
1000
0001
1000
0000
0001
0001
,
0100
0000
0010
0000
0100
0000
1000
1000
,
0100
0010
0100
0001
,
0101
0001
1100
1000
,
1001
1001
0110
0000
,
1001
0000
0000
0000
,
0000
0000
0000
0000
,
0000
0000
0000
0000
,
0000
0000
2000
0000
,
3100
0000
0000
1000
1000
0000
0000
0000
,
0000
0000
0002
0000
,
0103
0000
0000
0001
0001
0000
0000
0000
,
0000
0000
2000
0000
,
3010
0000
0000
1000
1000
0000
0000
0000
,
0000
0000
0002
0000
,
0013
0000
0000
0001
0001
0000
0000
0000
,
0000
0100
0100
0010
,
0110
0000
0010
0000
,
0010
0000
0010
1000
,
1000
0001
0001
1000
,
1000
0100
0100
0010
,
0210
0000
0000
0000
0000
0000
0000
0310
,
0000
0000
0001
0001
,
0101
0000
0000
0001
1000
0000
0000
0000
,
1100
0000
0000
1000
0001
0000
0000
0000
,
0001
0000
0001
0100
0000
0010
0000
1000
,
0000
0001
0000
1000
0000
1000
0001
0000
,
1000
0000
1000
0100
0000
0010
0000
0002
,
0000
0000
1000
0000
1003
0000
0001
0001
,
0100
0000
1000
0000
0100
0000
0001
0001
,
0010
1000
0010
0001
,
0101
1000
1100
0001
,
0101
1001
1100
0000
,
1100
1000
1001
0001
,
0101
0101
0110
0000
,
1000
0010
0100
0001
,
0010
0000
0100
0000
0010
0010
0010
0000
,
0001
0010
0000
0010
0001
0000
1000
0010
,
0000
0010
1000
0000
0001
0100
0001
0000
,
1000
0100
0010
0001
,
0100
0000
0010
0000
0100
0100
0100
0000
,
0001
0100
0000
0100
0001
0000
1000
0100
,
0000
0100
1000
0000
0001
0010
0001
0000
,
0200
0000
0000
0300
0000
0000
0000
0000
;

//---------------dance-single - ----------------
#NOTES:
     dance-single:
     :
     Easy:
     4:
     0.309,0.333,0.220,0.034,0.000,225.000,26.000,4.000,0.000,0.000,0.000,0.309,0.333,0.220,0.034,0.000,225.000,26.000,4.000,0.000,0.000,0.000:
0000
0000
0000
0000
,
0001
0001
0001
1000
,
1000
1000
0100
0100
,
0001
0000
0100
0000
,
1000
0000
0010
0000
,
1000
1000
1000
0001
,
0001
0001
0100
0100
,
1000
0000
0100
0000
,
0001
0000
0010
0000
,
0100
1000
0001
1000
,
0100
1000
0001
0001
,
0100
0000
0000
0000
,
0010
0000
0000
0110
,
0100
0001
1000
0001
,
0100
0001
0010
0010
,
0100
0000
0000
0000
,
0010
0010
0110
0000
,
0100
1000
0001
0100
,
0010
1000
0001
0010
,
0001
0000
0000
0000
,
1000
1000
0001
1001
,
0000
1000
0010
0100
,
0001
0010
0100
1000
,
0000
0000
0000
0000
,
0001
0001
1000
0010
,
1010
0000
0000
1010
0000
0000
0000
0000
,
1000
0100
0010
0001
,
0011
0000
0000
0011
0000
0000
0000
0000
,
0010
0001
1000
0100
,
1100
0000
0000
1100
0000
0000
0000
0000
,
0100
1000
0001
0100
,
0020
0000
0130
0000
,
0100
0100
0001
1001
,
1000
0100
0010
0001
,
1000
0010
0100
0001
,
1000
0100
0001
0100
,
1000
1000
0001
0100
,
0101
0000
0000
0100
,
1100
0000
0000
0100
,
0010
0010
0100
0100
,
0001
1000
1001
0000
,
0001
0010
0100
1000
,
0001
0100
0010
1000
,
0001
0000
1000
0000
,
0010
0010
0100
0010
,
0011
0000
0000
0010
,
1010
0000
0000
0000
,
1100
0000
0101
0000
,
0010
0010
0220
0000
,
0330
0000
0000
0000
,
0000
0000
0000
0000
,
0000
0000
0000
0000
,
0000
0000
1000
0000
,
0010
0000
1000
0000
,
0000
0000
0001
0000
,
0010
0000
0001
0000
,
0000
0000
0100
0000
,
0001
0000
0100
0000
,
0000
0000
0100
0000
,
1000
0000
0100
0000
,
0000
0000
0001
0000
,
0001
0000
0000
0000
,
1000
0000
0000
0000
,
0100
0000
0100
0000
,
0100
0000
1000
0000
,
1001
0000
0000
0000
,
0001
0000
0001
0000
,
0100
0000
0100
0000
,
0010
0000
0010
0000
,
1000
0010
0100
0001
,
1000
0100
0010
0001
,
1000
0010
0001
0010
,
1000
1000
0001
0010
,
0011
0000
0000
0010
,
1010
0000
0000
0000
,
1100
0000
0101
0000
,
0010
0010
0110
0000
,
0001
0001
0011
0000
,
1000
1000
1010
0000
,
1000
1000
1000
0001
,
0001
0001
0100
0100
,
0001
0000
0010
0000
,
0100
0000
1000
0000
,
0001
0001
0001
1000
,
1000
1000
0100
0100
,
1000
0000
0010
0000
,
0100
0000
0001
0000
,
0020
0000
0000
0030
0000
0000
0000
0000
;
