#TITLE:Caramelldansen (Ryu* Remix);
#SUBTITLE:;
#ARTIST:Caramell (remixed by Ryu*);
#TITLETRANSLIT:;
#SUBTITLETRANSLIT:;
#ARTISTTRANSLIT:;
#GENRE:;
#CREDIT:;
#BANNER:Caramelldansen (Ryu* Remix)-bn.png;
#BACKGROUND:Caramelldansen (Ryu* Remix)-bg.png;
#LYRICSPATH:;
#CDTITLE:;
#MUSIC:Caramelldansen (Ryu* Remix).ogg;
#OFFSET:0.000;
#SAMPLESTART:49.055;
#SAMPLELENGTH:12.000;
#SELECTABLE:YES;
#BPMS:0.000=90.500,4.000=362.000,10.000=181.000,304.500=362.000,308.000=90.500;
#STOPS:4.000=0.155
,5.000=0.155
,6.000=0.085
,6.500=0.085
,7.000=0.085
,7.500=0.085
,8.000=0.085
,8.500=0.085
,9.000=0.085
,9.500=0.085
,304.500=0.086
,305.000=0.086
,305.500=0.086
,306.000=0.159
,307.000=0.159
;
#TIMESIGNATURES:0.000=4=4
;
#BGCHANGES:0.000=Caramelldansen (Ryu* Remix)-bg.png=1.000=0=0=1=====,
99999=-nosongbg-=1.000=0=0=0 // don't automatically add -songbackground-
;
#KEYSOUNDS:;

//---------------dance-double - ----------------
#NOTES:
     dance-double:
     :
     Medium:
     7:
     0.502,0.574,0.294,0.212,0.037,327.000,32.000,23.000,0.000,0.000,0.000,0.502,0.574,0.294,0.212,0.037,327.000,32.000,23.000,0.000,0.000,0.000:
00000000
00000000
00000000
00000000
,
10000000
10000000
00010000
00010000
,
10000000
00010000
10000000
00010000
02000000
00000000
00000000
00000000
,
03100000
10100000
00000000
10000000
,
01000000
11000000
00000000
01000000
,
00100000
01100000
00000000
00100000
,
00001000
00100000
00001000
00000000
00010000
00001000
00010000
00000000
,
00000100
00010100
00000000
00000100
,
00001000
00001100
00000000
00000010
,
00000001
00000101
00000000
00000100
,
00000010
00001000
00000010
00001000
00000000
00000100
00000000
00010000
,
00001000
00011000
00010000
00011000
,
00001000
01000000
00001000
01000000
00010000
00000000
01010000
00000000
,
01000000
01100000
00100000
10100000
,
10000000
01000000
00100000
00000000
00010000
00100000
01000000
00000000
,
10000000
01010000
00100000
11000000
,
01000000
00100000
01000000
00100000
00010000
00000000
00110000
00000000
,
00100000
00011000
00000100
00011000
,
00010000
00000010
00001000
00000010
00000000
00000100
00000000
00000100
,
00000000
00000001
00000100
00000010
00001000
00000000
00001100
00000000
,
00000100
00000000
00001000
00000100
00001000
00000000
00000001
00000000
,
00000010
00000100
00000000
00000100
00000000
00000000
00000000
00001000
,
00000100
00000100
00010000
00010000
,
00001000
00100000
00000000
00010000
00000000
00000000
00000000
00000000
,
01000000
00000000
00200000
20000000
00000000
00000000
00000000
00000000
,
30300000
00000000
00000000
10000000
00000000
00100000
01000000
00010000
,
01000000
00000000
00002000
00020000
00000000
00000000
00000000
00000000
,
00033000
00001000
00010000
00001000
00010000
00000000
00011000
00000000
,
00010100
00000110
00000011
00001001
,
00001000
00000100
00000000
00010100
00000000
00000000
00000000
00010000
,
00001000
01001000
01010000
01100000
,
00100000
10000000
00000000
11000000
00000000
01000000
00100000
00001000
,
00020000
00001000
00001000
00031000
,
00020000
00001000
00001000
00031000
,
00020000
00031000
00020000
00031000
,
00000000
00001000
00010000
00001000
,
00010000
00000000
00000100
00010000
00000100
00000000
00000000
00000010
,
00000000
00000001
00000010
00000001
00000010
00000000
00000001
00000000
,
00000100
00000000
00000010
00001000
00000010
00000000
00000000
00001000
,
00000000
00000100
00010000
00001000
00010000
00000000
00011000
00000000
,
00101000
00000000
00100000
00010000
00100000
00000000
00000000
00010000
,
00000000
10000000
01000000
00100000
01000000
00000000
00100000
00000000
,
00010000
00000000
01000000
00010000
01000000
00000000
00000000
00100000
,
00000000
10000000
01000000
00000000
00100000
00000000
00100000
00000000
,
01000000
10000000
00010000
00100000
,
00001000
00010000
00000010
00000100
,
00000001
00000100
00000001
00000100
00000001
00000100
00000001
00000100
,
00000010
00000010
00000100
00000100
,
00000010
00001000
00000010
00000000
00000100
00000001
00000100
00000000
,
00000010
00001000
00000010
00000000
00002000
00000000
00000000
00000000
,
00003100
00010000
00000100
00000000
00010000
00001000
00010000
00000000
,
00001000
00100000
00001000
00100000
00020000
00000000
00000000
00000000
,
01030000
01000000
00100000
00100000
,
10000000
10000000
00010000
00010000
,
01000000
00100000
10000000
00010000
,
01000000
00010000
00100000
00001000
,
00010000
00001000
00010000
00001000
00010000
00001000
00010000
00001000
,
00010000
00001000
00010000
00001000
00010000
00001000
00010000
00001000
,
00020000
00030200
00002300
00003200
,
00000320
00000001
00000100
00000031
,
00000011
00000000
00000010
00000000
00000100
00000000
00000000
00001000
,
00000000
00000100
00010000
00000100
,
00010000
00000000
00001000
00000000
00010000
00000000
00000000
00001000
,
00000000
01000000
00010000
01000000
,
00100000
00000000
10000000
00000000
00100000
00000000
00000000
01000000
,
00000000
00010000
00100000
00010000
,
01000000
00000000
00001000
00000000
01000000
00000000
00000000
00001000
,
00000000
00010000
00002000
00000000
00010000
00000000
00010000
00000000
,
00020000
00000000
00000000
00003000
,
00000200
00000000
00000000
00030000
,
00000020
00000000
00000000
00000300
,
00000002
00000000
00000000
00000033
,
00000000
00000000
00000001
00000000
00000000
00000010
00000000
00000000
00000001
00000000
00000000
00000100
00000000
00000000
00000001
00000000
,
00000000
00000000
00000100
00000000
00000000
00000010
00000000
00000000
00001000
00000000
00000000
00000010
00000000
00000000
00000100
00000000
,
00000000
00000000
00000010
00000000
00000000
00001000
00000000
00000000
00000100
00000000
00000000
00010000
00000000
00000000
00001000
00000000
,
00000000
00000000
00100000
00000000
00000000
00001000
00000000
00000000
00100000
00000000
00000000
00010000
00000000
00000000
00100000
00000000
,
00000000
00010000
01000000
00100000
01000000
00000000
10100000
00000000
,
22000000
00000000
00000000
00000000
,
33000000
00000000
00000000
00000000
;

//---------------dance-double - ----------------
#NOTES:
     dance-double:
     :
     Easy:
     4:
     0.302,0.359,0.046,0.184,0.000,205.000,5.000,20.000,0.000,0.000,0.000,0.302,0.359,0.046,0.184,0.000,205.000,5.000,20.000,0.000,0.000,0.000:
00000000
00000000
00000000
00000000
,
00020000
00000000
20000000
00000000
,
00000000
00000000
00000000
30030000
,
10010000
00000000
00000000
00010000
00000000
00000000
00000000
00000000
,
10000000
00000000
00000000
10000000
00000000
00000000
00000000
00000000
,
01000000
00000000
00000000
01000000
00000000
00000000
00000000
00000000
,
00100000
00000000
00100000
00000000
,
00010000
00000000
00000000
00010000
00000000
00000000
00000000
00000000
,
00100000
00000000
00000000
00100000
00000000
00000000
00000000
00000000
,
00001000
00000000
00000000
00001000
00000000
00000000
00000000
00000000
,
00010000
00000000
00010000
00000000
,
00000100
00000100
00001000
00001000
,
00000100
00001000
00000100
00000000
,
00000010
00000010
00000001
00000001
,
00000010
00000001
00000100
00000000
,
00000010
00001000
00001000
00000100
,
00010000
00001000
00010000
00000000
,
00001000
00001000
00010000
00010000
,
00001000
01000000
00010000
01000000
,
00000000
00100000
10000000
00100000
,
01000000
00000000
00100000
00000000
,
01000000
00000000
00000000
01000000
00000000
00000000
00000000
00000000
,
00100000
00000000
10000000
00000000
,
01000000
00000000
00000000
01000000
00000000
00000000
00000000
00000000
,
00100000
00000000
00000000
00200000
00000000
00000000
00000000
00000000
,
00000000
00000000
00000000
00000000
,
00301000
00000000
00000000
00002000
00000000
00000000
00000000
00000000
,
00000000
00013000
00001000
00010000
,
00000100
00000100
00001000
00001000
,
00000010
00000000
00000000
00000110
00000000
00000000
00000000
00000000
,
00000100
00000100
00000001
00000001
,
00001000
00000000
00000000
00001100
00000000
00000000
00000100
00000000
,
00020000
00031000
00010000
00001000
,
00020000
00031000
00010000
00001000
,
00020000
00031000
00020000
00031000
,
00000000
00100000
00100000
00100000
,
00010000
00000000
01000000
00000000
00010000
00000000
00000000
10000000
,
00000000
00100000
10000000
00100000
,
01000000
00000000
00010000
00000000
01000000
00000000
00000000
00010000
,
00000000
00100000
00010000
00100000
,
00001000
00000000
00010000
00000000
00001000
00000000
00000000
00000010
,
00000000
00000100
00000010
00000100
,
00000001
00000000
00001000
00000000
00000100
00000000
00000000
00000010
,
00000000
00000100
00000100
00000100
,
00001000
00000100
00001000
00000100
,
00000010
00000001
00000010
00000001
,
00001000
00000100
00010000
00001000
,
01000000
01000000
01000000
01000000
,
00100000
00000000
00100000
00000000
,
00100000
01000000
00100000
00000000
,
01000000
00000000
01000000
00000000
,
01000000
00100000
01000000
00000000
,
00010000
00010000
10000000
10000000
,
00010000
00010000
10000000
10000000
,
00010000
10000000
00010000
10000000
,
00010000
10000000
00010000
10000000
,
01000000
00100000
00010000
10000000
,
01000000
00100000
00010000
00100000
,
00001000
00010000
00001000
00020000
,
00001000
00001000
00001000
00031000
,
00022000
00000000
00000000
00033000
,
00000000
00000000
00000000
00000000
,
00002000
00000000
00000000
00000000
,
00003000
00000000
00000000
00000000
,
00020000
00000000
00000000
00000000
,
00030000
00000000
00000000
00000000
,
00000020
00000000
00000000
00000000
,
00000030
00000000
00000000
00000000
,
00000200
00000000
00000000
00000000
,
00000302
00000000
00000000
00000000
,
00000023
00000000
00000000
00000000
,
00000032
00000000
00000000
00000000
,
00000103
00000000
00000100
00000000
,
00000010
00000000
00000010
00000000
,
00001000
00001000
00000100
00000100
,
00010000
00010000
00001000
00001000
,
00000000
00100000
01000000
00100000
01000000
00000000
00100000
00000000
,
02200000
00000000
00000000
00000000
,
03300000
00000000
00000000
00000000
;

//---------------dance-double - ----------------
#NOTES:
     dance-double:
     :
     Hard:
     9:
     0.703,0.861,0.543,0.175,0.120,457.000,59.000,19.000,0.000,0.000,2.000,0.703,0.861,0.543,0.175,0.120,457.000,59.000,19.000,0.000,0.000,2.000: // measure 1
00000000
00000000
00000000
00000000
,  // measure 2
00011000
00000000
00011000
00000000
00001000
00010000
00001000
00100000
,  // measure 3
00001000
00010000
00000010
00020000
00002000
00000000
00033000
00000000
,  // measure 4
00001000
01000000
00000000
00010000
00000000
01000000
00010000
01000000
,  // measure 5
00100000
10000000
00000000
00100000
00000000
01000000
00010000
10000000
,  // measure 6
00010000
00100000
00000000
01000000
00000000
00100000
00001000
00010000
,  // measure 7
00000010
00000100
00000010
00000000
00001000
00000100
00001000
00000000
,  // measure 8
00000100
00000010
00000000
00000001
00000000
00000010
00000100
00001000
,  // measure 9
00000100
00000010
00000000
00000001
00000000
00001000
00000001
00000100
,  // measure 10
00000010
00001000
00000000
00000100
00000000
00010000
00000100
00010000
,  // measure 11
00001000
01000000
00010000
01000000
00000000
01100000
00000000
00100000
,  // measure 12
10100000
11000000
01100000
00110000
,  // measure 13
00100000
00001000
00010000
00000010
00001000
00000000
00001100
00000000
,  // measure 14
00001001
00000011
00000110
00001100
,  // measure 15
00001000
00000100
00010000
00000000
00001000
01000000
00010000
00000000
,  // measure 16
01010000
01100000
10100000
10010000
,  // measure 17
10000000
00001000
00010000
00000100
00001000
00000000
00001010
00000000
,  // measure 18
00001100
00010100
00011000
00101000
,  // measure 19
00001000
00100000
00010000
00100000
00000000
01100000
00000000
11000000
,  // measure 20
00000000
01000000
00100000
00010000
00110000
00000000
11000000
00000000
,  // measure 21
10010000
00000000
00010000
00100000
01000000
00000000
10000000
01000000
,  // measure 22
00100000
00010000
00000000
10000000
00000000
00010000
01000000
00000000
,  // measure 23
00100000
10000000
00100000
01000000
00100000
00000000
01000000
00000000
,  // measure 24
00010000
01000000
00000000
00010000
00000000
00100000
00001000
00000000
,  // measure 25
00010000
00000000
00000200
00002000
00000000
00000000
00000000
00000000
,  // measure 26
00003300
00000100
00000000
00001000
00000000
00000100
00000010
00000100
,  // measure 27
00001000
00000000
00000002
00000200
00000000
00000000
00000000
00000000
,  // measure 28
00000303
00000001
00000001
00000100
00000100
00000000
00000110
00000000
,  // measure 29
00000010
00001000
00000100
00010000
00001000
00100000
00010000
00100000
,  // measure 30
01000000
01100000
00000000
11000000
00000000
10010000
10010000
00000000
,  // measure 31
00010000
00100000
01000000
00100000
00001000
00010000
00000100
00001000
,  // measure 32
00000010
00000110
00000000
00001010
00000000
00001100
00001100
00000000
,  // measure 33
00000110
00000010
00000001
00000010
00000100
00001000
00000100
00010000
,  // measure 34
00011000
00001000
00100000
00010000
00100000
01000000
10000000
01000000
,  // measure 35
11000000
10000000
00010000
01000000
01010000
00010000
01000000
00100000
,  // measure 36
20100000
00010000
01000000
30010000
,  // measure 37
10000000
00010000
00100000
01000000
10000000
00000000
10000000
01000000
,  // measure 38
00000000
01000000
00100000
00010000
00100000
01000000
00100000
00000000
,  // measure 39
00100000
00001000
00010000
00000100
00001000
00000000
00001000
00001010
,  // measure 40
00000000
00000110
00000000
00000101
00000000
00001001
00001000
00000100
,  // measure 41
00000010
00000001
00001000
00000100
00000010
00000000
00000010
00000100
,  // measure 42
00000000
00000100
00001000
00000010
00000100
00000001
00000010
00000000
,  // measure 43
00000010
00000000
00000001
00000000
00001000
00000000
00000100
00000000
00010000
00000000
00000000
00000000
00010000
00000000
00001000
00010000
,  // measure 44
00001000
00001000
00100000
00100000
00110000
00000000
01010000
00000000
,  // measure 45
01010000
01000000
00100000
01000000
00100000
10000000
00100000
01000000
,  // measure 46
00010000
10000000
00010000
01000000
00010000
10000000
01000000
00100000
,  // measure 47
00010000
00100000
00010000
00000000
00100000
00010000
00100000
00000000
00010000
00100000
00010000
00000000
00100000
00010000
00100000
00000000
,  // measure 48
00010000
00010000
00100000
00100000
00010000
00100000
02000000
00000000
,  // measure 49
13000000
01000000
11000000
00000000
00010000
00100000
00110000
00000000
,  // measure 50
00100000
00001000
00010000
00001000
00000100
00000010
00000110
00000000
,  // measure 51
00000010
00000000
00001000
00000000
00001010
00000000
00000000
00000000
00001000
00000000
00000100
00000000
00001000
00000000
00000100
00010000
,  // measure 52
00000100
00000000
00010000
00000000
00001000
00000000
00010000
00000000
01000000
00000000
00100000
00000000
00010000
00000000
10000000
01000000
,  // measure 53
10000000
01000000
00100000
00010000
10000000
01000000
00100000
00010000
,  // measure 54
00100000
00001000
00010000
00000100
00100000
00001000
00010000
00000100
,  // measure 55
00001000
00000001
00001000
00000010
00001000
00100000
00010000
00000010
,  // measure 56
00010000
00001000
00010000
01000000
00010000
00000100
00010100
00000000
,  // measure 57
00010000
00000100
00010000
00000000
00000100
00010000
00000100
00000000
00010000
00001000
00010000
00000000
00001000
00100000
00001000
00000000
,  // measure 58
00100000
00010000
00100000
00000000
01000000
00100000
01000000
00000000
10000000
01000000
10000000
00000000
00010000
10000000
00010000
00000000
,  // measure 59
40000000
04000000
00000000
00000000
00000000
00000000
00000000
00000000
00000000
00000000
00000000
00000000
33000000
00000000
00000000
00000000
,  // measure 60
00100000
00100000
00010000
00010000
01010000
00000000
01100000
00000000
,  // measure 61
20100000
00000000
00010000
00010000
30010000
00000000
00000000
10000000
,  // measure 62
00000000
00010000
01000000
00010000
01000000
00000000
00010000
00000000
,  // measure 63
00200000
00000000
00001000
00001000
00301000
00000000
00000000
00100000
,  // measure 64
00000000
00001000
00010000
00001000
00010000
00000000
00000100
00000000
,  // measure 65
00000200
00000000
00001000
00001000
00001300
00000000
00000000
00000100
,  // measure 66
00000000
00001000
00000100
00001000
00000100
00000000
00000010
00000000
,  // measure 67
00000002
00000000
00000100
00000100
00000103
00000000
00000001
00000100
,  // measure 68
00000000
00000100
00000020
00000000
00001000
00000000
00002000
00000000
,  // measure 69
00000000
00000000
00000000
00000030
,  // measure 70
00000200
00000000
00000000
00003000
,  // measure 71
02000000
00000000
00000000
00000300
,  // measure 72
00020000
00000000
00000000
03030000
,  // measure 73
00000000
00010000
01000000
00000000
00000000
01000000
00000000
00000000
00100000
00000000
00000000
00100000
00000000
00000000
10000000
00000000
,  // measure 74
00000000
00100000
10000000
00000000
00000000
10000000
00000000
00000000
00010000
00000000
00000000
00010000
00000000
00000000
00100000
00000000
,  // measure 75
00010000
10000000
00010000
01000000
00010000
00100000
00001000
00010000
,  // measure 76
00001000
00010000
00001000
00000000
00010000
00000100
00010000
00000000
00000100
00001000
00000100
00000000
00000010
00000100
00000010
00000000
,  // measure 77
00000000
00000001
00000011
00000010
00000110
00000000
00010100
00000000
,  // measure 78
02000200
00000000
00000000
00000000
,  // measure 79
03000300
00000000
00000000
00000000
;

//---------------dance-double - ----------------
#NOTES:
     dance-double:
     :
     Challenge:
     10:
     0.844,1.000,0.755,0.313,0.285,526.000,82.000,34.000,0.000,0.000,0.000,0.844,1.000,0.755,0.313,0.285,526.000,82.000,34.000,0.000,0.000,0.000: // measure 1
00000000
00000000
00000000
00000000
,  // measure 2
00011000
00000000
00101000
00000000
00110000
00100000
00110000
00010000
,  // measure 3
01010000
01000000
01100000
10100000
20020000
00000000
00000000
30030000
,  // measure 4
10000000
00100000
01000000
00010000
00100000
00001000
00011000
00000000
,  // measure 5
00001000
00010000
00000100
00000010
00000001
00000010
00000110
00000000
,  // measure 6
00000010
00000000
00000100
00000000
00010000
00000000
00001000
00000000
01000000
00000000
00010000
00000000
00100000
00000000
00010000
00100000
,  // measure 7
00010000
01000000
01010000
00000000
01000000
00100000
01100000
00000000
,  // measure 8
00100000
01000000
00010000
10000000
00010000
00100000
01100000
00000000
,  // measure 9
00100000
00001000
00010000
00000010
00001000
00000010
00000110
00000000
,  // measure 10
00000010
00000000
00000100
00000000
00000001
00000000
00001000
00000000
00000100
00000000
00000010
00000000
00000001
00000000
00000100
00000010
,  // measure 11
00000100
00000010
00001000
00001100
00000000
00010100
00000000
00011000
,  // measure 12
00101000
00000000
01100000
00000000
11000000
00000000
01100000
00100000
,  // measure 13
00110000
00010000
00100000
00001000
00010000
00000010
00010010
00000000
,  // measure 14
00001010
00000000
00000000
00000000
00000110
00000000
00000000
00000000
00000101
00000000
00000001
00000000
00000100
00000000
00000010
00001000
,  // measure 15
00000010
00001000
00001100
00000000
00001000
00000100
00010100
00000000
,  // measure 16
00011000
00000000
00110000
00000000
11000000
01000000
00100000
00001000
,  // measure 17
00010000
00010000
00001000
00001000
01000000
00010000
01010000
00000000
,  // measure 18
01100000
01001000
00011000
00010010
,  // measure 19
00000110
00000100
00000001
00000101
00000000
00001001
00000000
00001100
,  // measure 20
00000000
00000110
00000010
00000001
00001100
00000000
00010100
00000000
,  // measure 21
00011000
00000000
00001000
01000000
00010000
00000000
01000000
00100000
,  // measure 22
10000000
00010000
00000000
02020000
00000000
00000000
03030000
01000000
,  // measure 23
00001000
00010000
00000100
00000010
00000100
00000000
00000010
00000001
,  // measure 24
00001000
00000100
00000000
00020200
00000000
00000000
00000000
00030300
,  // measure 25
00010000
00000000
02000000
00200000
00000000
00000000
00000000
00000000
,  // measure 26
03300000
00100000
00000000
00001000
00000000
00010000
00000010
00000100
,  // measure 27
00000001
00000000
00020000
00002000
00000000
00000000
00000000
00000000
,  // measure 28
00033000
00010000
00001000
00100000
00110000
00000000
11000000
00000000
,  // measure 29
10000000
01000000
00010000
00000100
00001000
00000001
00000100
00000010
,  // measure 30
00000110
00000110
00000000
00000101
00000000
00001001
00001001
00000000
,  // measure 31
00000001
00000100
00001000
01000000
00010000
01000000
00100000
01000000
,  // measure 32
01010000
01010000
00000000
10010000
00000000
00110000
00101000
00000000
,  // measure 33
00011000
00010000
00000010
00000100
00000001
00001000
00000100
00010000
,  // measure 34
00011000
00001000
00100000
01000000
10000000
01000000
00100000
00001000
,  // measure 35
00011000
00001000
01000000
00001000
00011000
00010000
00000100
00010000
,  // measure 36
00011000
01001000
00011000
00010100
,  // measure 37
00010001
00000000
00000001
00001000
00000100
00000010
00000100
00010000
,  // measure 38
00100000
00010000
00000010
00010000
00001000
00000000
01000000
01000000
,  // measure 39
00100000
00000000
10000000
00000000
01000000
00000000
00100000
00000000
00010000
00000000
10000000
00000000
01000000
00000000
10000000
01000000
,  // measure 40
10000000
00000000
00100000
00000000
00100000
00000000
01000000
00100000
01000000
00000000
00010000
00000000
10000000
00000000
11000000
00000000
,  // measure 41
11000000
00000000
01100000
00100000
00001000
00010000
00001000
00000100
,  // measure 42
00001000
00010000
00000010
00000100
00000010
00001000
00000100
00000010
,  // measure 43
00000110
00000000
00000000
00000000
00000011
00000000
00000001
00000000
00001000
00000000
00000100
00000000
00010000
00000000
00001000
00010000
,  // measure 44
00001000
01000000
01000000
00100000
10100000
00000000
11000000
00000000
,  // measure 45
01100000
00100000
00001000
00010000
00000100
00001000
00000100
00000010
,  // measure 46
00000001
00000010
00000100
00010000
00001000
00100000
00010000
00100000
,  // measure 47
01000000
10000000
01000000
10000000
00010000
10000000
00010000
10000000
01000000
10000000
01000000
10000000
00010000
10000000
00010000
10000000
,  // measure 48
00100000
00100000
01000000
01000000
00100000
00100000
01000000
01000000
,  // measure 49
00001000
00000100
00000010
00000000
00010000
00001000
00100000
00000000
,  // measure 50
01000000
00010000
00001000
00000010
00001000
00010000
01000000
00000000
,  // measure 51
00100000
00000000
00001000
00000000
00000100
00000000
00000000
00000000
00000010
00000000
00010000
00000000
00001000
00000000
00100000
00001000
,  // measure 52
00100000
01000000
10000000
01000000
00100000
00001000
00010000
00000010
,  // measure 53
00000100
00010000
00000100
00000010
00010000
00001000
01000000
00001000
,  // measure 54
00010000
01000000
00010000
00000100
00010000
00000010
00010000
00100000
,  // measure 55
00010000
00001000
00100000
10000000
00100000
00001000
00010000
00000010
,  // measure 56
00000001
00000010
00001000
00000001
00010000
00001000
00200000
00000000
,  // measure 57
01300000
00100000
01000000
00100000
01000000
00100000
01000000
00100000
00010000
00100000
00010000
00100000
00010000
00100000
00010000
00100000
,  // measure 58
00001000
00100000
00001000
00100000
00001000
00100000
00001000
00100000
00001000
00010000
00001000
00010000
00001000
00010000
00001000
00010000
,  // measure 59
00000010
00010000
00000010
00010000
00000010
00001000
00000010
00001000
00000010
00000100
00000010
00000100
00000001
00000100
00000001
00000100
,  // measure 60
00000001
00000001
00001000
00001000
00000100
00000000
00010000
00000000
,  // measure 61
00012000
00000000
01000000
01000000
02003000
00000000
00100000
03200000
,  // measure 62
00000000
10300000
01000000
10000000
00200000
00000000
01000000
00000000
,  // measure 63
20300000
00000000
01000000
01000000
32000000
00000000
00100000
03200000
,  // measure 64
00000000
00301000
00010000
00000100
00002000
00000000
00000100
00000000
,  // measure 65
00003002
00000000
00000010
00000010
00000023
00000000
00000100
00000230
,  // measure 66
00000000
00001300
00000100
00010000
00000200
00000000
00010000
00000000
,  // measure 67
00002300
00000000
00000010
00000010
00003020
00000000
00010000
00020030
,  // measure 68
00000000
00001000
00032000
00000000
00203000
00000000
02000000
00000000
,  // measure 69
00000000
00000000
00000000
03000000
,  // measure 70
00000020
00000000
00000000
00300000
,  // measure 71
00000200
00000000
00000000
00000030
,  // measure 72
00000002
00000000
00000000
00000303
,  // measure 73
00000000
00000001
00000100
00000000
00000001
00000100
00000000
00000001
00000100
00000000
00000010
00000100
00000000
00000010
00001000
00000000
,  // measure 74
00000000
00000010
00001000
00000000
00000010
00001000
00000000
00000010
00010000
00000000
00000010
00010000
00000000
00001000
00010000
00000000
,  // measure 75
00000000
00001000
00100000
00000000
00001000
00100000
00000000
00010000
00100000
00000000
00010000
00100000
00000000
01000000
00100000
00000000
,  // measure 76
01000000
00100000
01000000
10000000
01000000
00100000
01000000
00100000
00010000
00100000
01000000
00100000
00010000
10000000
00010000
00100000
,  // measure 77
01000000
11000000
11000000
10001000
10001000
00000000
01001000
00000000
,  // measure 78
00022000
00000000
00000000
00000000
,  // measure 79
00033000
00000000
00000000
00000000
;
