#TITLE:Arcanos;
#SUBTITLE:;
#ARTIST:DJ Totoriott;
#TITLETRANSLIT:;
#SUBTITLETRANSLIT:;
#ARTISTTRANSLIT:;
#GENRE:;
#CREDIT:Silverhawke;
#MENUCOLOR:;
#METERTYPE:DDR;
#BANNER:[Round 2 Doubles] - Arcanos.png;
#BACKGROUND:[Round 2 Doubles] - Arcanos-bg.png;
#LYRICSPATH:;
#CDTITLE:cdtitle.png;
#MUSIC:[Round 2 Doubles] - Arcanos.mp3;
#OFFSET:-0.653;
#SAMPLESTART:17.198;
#SAMPLELENGTH:15.000;
#SELECTABLE:YES;
#LISTSORT:;
#DISPLAYBPM:64.000;
#BPMS:0.000=64.000,84.000=192.000,156.000=64.000;
#STOPS:;
#BGCHANGES:;
#ATTACKS:;

//---------------dance-single - ----------------
#NOTES:
     dance-single:
     :
     Hard:
     10:
     0.706,0.811,0.252,0.323,1.000:
0000
0000
0000
0000
,
0000
0000
0000
0000
,
0000
0000
0000
0000
0000
0000
0000
0000
0000
0000
0010
0100
1000
0000
0001
0000
0001
0000
0100
0000
0010
0000
0010
0000
,
1000
0000
0100
0000
0100
0000
1000
0000
0001
0000
0100
0000
0020
0000
0000
0000
0000
1030
0200
0000
0000
0000
0000
0310
,
0002
0000
0000
0000
0000
0000
0000
0000
0000
0000
0000
0000
0000
0000
0000
0000
0000
0000
0000
0000
0000
0000
0000
0000
0000
0000
0000
0000
0000
0000
0000
0000
0100
0000
0000
0000
0000
0000
0000
0000
0000
0000
0000
0000
0000
0000
0000
0000
0103
0000
0000
0000
0000
0000
0000
0000
0000
0000
0000
0000
0000
0000
0000
0000
0010
0000
0000
0000
0000
0000
0000
0000
0000
0000
0000
0000
0000
0000
0000
0000
1000
0000
0000
0000
0000
0000
0000
0000
0100
0000
0000
0000
0000
0000
0000
0000
1000
0000
0000
0000
0000
0000
0000
0000
0000
0000
0000
0000
0000
0000
0000
0000
0100
0000
0000
0000
0000
0000
0000
0000
0000
0000
0000
0000
0000
0000
0000
0000
0100
0000
0000
0000
0000
0000
0000
0000
0000
0000
0000
0000
0000
0000
0000
0000
0010
0000
0000
0000
0000
0001
0000
0000
0000
0000
0000
0010
0000
0000
0000
0000
0001
0000
0000
0000
0000
0000
0000
0000
0000
0000
0000
0000
0000
0000
0000
0000
0100
0000
0000
0000
0000
0000
0000
0000
0000
0000
0000
0000
0000
0000
0000
0000
,
0010
0000
0000
0000
0000
0000
0000
0000
0000
0000
0000
0000
0000
0000
0000
0000
1000
0000
0000
0000
0000
0000
0000
0000
0000
0000
0000
0000
0000
0000
0000
0000
1000
0000
0000
0000
0000
0000
0000
0000
0000
0000
0000
0000
0000
0000
0000
0000
0100
0000
0000
0000
0000
0000
0000
0000
0000
0000
0000
0000
0000
0000
0000
0000
0010
0000
0000
0000
0000
0000
0000
0000
0000
0000
0000
0000
0000
0000
0000
0000
0001
0000
0000
0000
0000
0000
0000
0000
0100
0000
0000
0000
0000
0000
0000
0000
0001
0000
0000
0000
0000
0000
0000
0000
0000
0000
0000
0000
0000
0000
0000
0000
0010
0000
0000
0000
0000
0000
0000
0000
0000
0000
0000
0000
0000
0000
0000
0000
0010
0000
0000
0000
0000
0000
0000
0000
0000
0000
0000
0000
0000
0000
0000
0000
0100
0000
0000
0000
0000
1000
0000
0000
0000
0000
0000
0100
0000
0000
0000
0000
1000
0000
0000
0000
0000
0000
0000
0000
0000
0000
0000
0000
0000
0000
0000
0000
0010
0000
0000
0000
0000
0000
0000
0000
0100
0000
0000
0000
0000
0000
0000
0000
,
0010
0000
0000
0000
0000
0000
0000
0000
0000
0000
0000
0000
0000
0000
0000
0000
1000
0000
0000
0000
0000
0000
0000
0000
0000
0000
0000
0000
0000
0000
0000
0000
1000
0000
0000
0000
0000
0000
0000
0000
0000
0000
0000
0000
0000
0000
0000
0000
0200
0000
0000
0000
0000
0000
0000
0000
0000
0000
0000
0000
0000
0000
0000
0000
0000
0000
0000
0000
0000
0000
0000
0000
0000
0000
0000
0000
0000
0000
0000
0000
0310
0000
0000
0000
0000
0000
0000
0000
0001
0000
0000
0000
0000
0000
0000
0000
1000
0000
0000
0000
0000
0000
0000
0000
0000
0000
0000
0000
0000
0000
0000
0000
0010
0000
0000
0000
0000
0000
0000
0000
0000
0000
0000
0000
0000
0000
0000
0000
0100
0000
0000
0000
0000
0000
0000
0000
0000
0000
0000
0000
0000
0000
0000
0000
0001
0000
0000
0000
0000
1000
0000
0000
0000
0000
0000
0001
0000
0000
0000
0000
1000
0000
0000
0000
0000
0000
0000
0000
0000
0000
0000
0000
0000
0000
0000
0000
0100
0000
0000
0000
0000
0000
0000
0000
0010
0000
0000
0000
0000
0000
0000
0000
,
0001
0000
0010
0000
0100
0000
0010
0000
0001
1000
0001
0000
0200
0000
0000
0000
0310
0000
2000
0000
0000
3100
0010
0001
,
1000
0000
0000
0000
0000
0000
0000
0000
0010
0000
0000
0000
0000
0000
0000
0000
0010
0000
0000
0000
0000
0000
0000
0000
0100
0000
0000
0000
0000
0000
0000
0000
0100
0000
0000
0000
0000
0000
0000
0000
0001
0000
0000
0000
0000
0000
0000
0000
2000
0000
0000
0000
0000
0000
0000
0000
0000
0000
0000
0000
0000
0000
0000
0000
0000
0000
0000
0000
0000
0000
0000
0000
0000
0000
0000
0000
0000
0000
0000
0000
3100
0000
0000
0000
0000
0000
0000
0000
0010
0000
0000
0000
0000
0000
0000
0000
0001
0000
0000
0000
0000
0000
0000
0000
0000
0000
0000
0000
0000
0000
0000
0000
1000
0000
0000
0000
0000
0000
0000
0000
0010
0000
0000
0000
0000
0000
0000
0000
0100
0000
0000
0000
0000
0000
0000
0000
0000
0000
0000
0000
0000
0000
0000
0000
0001
0000
0000
0000
0000
0100
0000
0000
0000
0000
0000
0001
0000
0000
0000
0000
0100
0000
0000
0000
0000
0000
0000
0000
0000
0000
0000
0000
0000
0000
0000
0000
1000
0000
0000
0000
0000
0000
0000
0000
0100
0000
0000
0000
0000
0000
0000
0000
,
0010
0000
0000
0000
0000
0000
0000
0000
0000
0000
0000
0000
0000
0000
0000
0000
1000
0000
0000
0000
0000
0000
0000
0000
0100
0000
0000
0000
0000
0000
0000
0000
0001
0000
0000
0000
0000
0000
0000
0000
0100
0000
0000
0000
0000
0000
0000
0000
1000
0000
0000
0000
0000
0000
0000
0000
0000
0000
0000
0000
0000
0000
0000
0000
1000
0000
0000
0000
0000
0000
0000
0000
0000
0000
0000
0000
0000
0000
0000
0000
0010
0000
0000
0000
0000
0000
0000
0000
0100
0000
0000
0000
0000
0000
0000
0000
0001
0000
0000
0000
0000
0000
0000
0000
0000
0000
0000
0000
0000
0000
0000
0000
0010
0000
0000
0000
0000
0000
0000
0000
0100
0000
0000
0000
0000
0000
0000
0000
1000
0000
0000
0000
0000
0000
0000
0000
0000
0000
0000
0000
0000
0000
0000
0000
0100
0000
0000
0000
0000
0010
0000
0000
0000
0000
0000
0100
0000
0000
0000
0000
0010
0000
0000
0000
0000
0000
0000
0000
0000
0000
0000
0000
0000
0000
0000
0000
0001
0000
0000
0000
0000
0000
0000
0000
1000
0000
0000
0000
0000
0000
0000
0000
,
0010
0000
0000
0000
0000
0000
0000
0000
0000
0000
0000
0000
0000
0000
0000
0000
0100
0000
0000
0000
0000
0000
0000
0000
0001
0000
0000
0000
0000
0000
0000
0000
1000
0000
0000
0000
0000
0000
0000
0000
0000
0000
0000
0000
0000
0000
0000
0000
0200
0000
0000
0000
0000
0000
0000
0000
0000
0000
0000
0000
0000
0000
0000
0000
0000
0000
0000
0000
0000
0000
0000
0000
0000
0000
0000
0000
0000
0000
0000
0000
0310
0000
0000
0000
0000
0000
0000
0000
0001
0000
0000
0000
0000
0000
0000
0000
1000
0000
0000
0000
0000
0000
0000
0000
0000
0000
0000
0000
0000
0000
0000
0000
0010
0000
0000
0000
0000
0000
0000
0000
0100
0000
0000
0000
0000
0000
0000
0000
0001
0000
0000
0000
0000
0000
0000
0000
0000
0000
0000
0000
0000
0000
0000
0000
0010
0000
0000
0000
0000
0100
0000
0000
0000
0000
0000
0010
0000
0000
0000
0000
0100
0000
0000
0000
0000
0000
0000
0000
0000
0000
0000
0000
0000
0000
0000
0000
1000
0000
0000
0000
0000
0000
0000
0000
0001
0000
0000
0000
0000
0000
0000
0000
,
1000
0000
0100
0010
0001
1000
0010
0000
0100
0010
0100
0001
2000
0000
0000
3100
0010
0001
1000
0010
0100
0010
1000
0001
,
0020
0000
0100
0000
0100
0000
0230
0000
0000
0000
0300
0000
1000
1001
0000
0001
1001
0000
0100
0000
0010
0000
0110
0000
,
0001
0000
0101
0000
0000
0000
1000
0000
1100
0000
0000
0000
0100
0000
0010
0000
1000
0000
0010
0000
0001
1000
0001
0000
0100
0000
0101
0000
0000
0000
0010
0000
1010
0000
0000
0000
1000
0000
0100
0000
0010
0000
0001
0000
0010
0000
0100
0000
,
1000
1100
0000
0001
0011
0000
0100
0000
0010
0000
0110
0000
1000
0001
1000
0001
1000
0000
0010
0100
0001
1000
0100
0010
,
0001
0100
0001
0100
0001
0000
1000
0100
0010
0100
1000
0010
0100
0001
0100
0001
0100
0000
0010
1000
0100
0001
0100
1000
,
0100
0000
0010
0000
0001
0000
1000
0000
0010
0100
0010
0100
0001
0000
0000
0000
1100
0000
0000
0000
1001
0000
0000
0000
0000
0000
0000
0000
0000
0000
0000
0000
0000
0000
0000
0000
0000
0000
0000
0000
0000
0000
0000
0000
1000
0000
0000
0000
,
0200
0000
0000
0000
0000
0000
0310
0000
0001
0100
0001
0000
0020
0000
0000
0000
0000
0000
0000
0000
0130
0000
0000
0000
2000
0000
0000
0000
0000
0000
3001
0100
0001
0000
1000
0000
0200
0000
0000
0000
0000
0000
0310
0000
0001
0000
1000
0000
,
0020
0000
0000
0000
0000
0000
0130
0000
0001
1000
0001
1000
0010
0000
0100
0000
0001
0000
0010
0100
0010
0000
0001
0000
2000
0000
0000
0000
0000
0000
0000
0000
0000
0000
3010
0100
0002
0000
0000
0000
0000
0000
0000
0000
1003
0000
0100
0000
,
0020
0000
0000
0000
0000
0000
0031
0000
1000
0010
1000
0010
0200
0000
0000
0000
0000
0000
0000
0000
0301
0000
0000
0000
2000
0000
0000
0000
0000
0000
3100
0010
0100
0000
1000
0000
0002
0000
0000
0000
0000
0000
0103
0000
0010
0000
1000
0000
,
0200
0000
0000
0000
0000
0000
0310
0000
1000
0000
0001
0000
0100
0000
0000
0000
1000
0000
0000
0000
0001
0000
0000
0000
0100
0000
0010
0000
0100
0000
0010
0000
0100
0000
0010
0000
0100
0010
0100
0010
0100
0010
0100
0010
1000
0000
0000
0000
,
0001
0000
1000
0000
0001
0000
1000
0000
0100
0010
0100
0010
0001
0000
1000
0000
,
0010
0000
1000
0000
0200
0000
0000
0000
0310
0000
0001
0000
1000
0000
0010
0100
,
0010
1000
0200
0000
0310
0001
1000
0010
,
0200
0000
0301
1000
0100
0001
0100
1000
,
0001
0000
0100
0010
0100
0000
0001
0000
2000
0000
0000
0000
0100
0000
0000
0000
,
3001
0000
0010
0100
1000
0000
0000
0000
1100
0000
0000
0000
0001
0010
0001
0010
,
0100
0000
1000
0000
0100
0000
1000
0000
0001
0100
0001
0100
0010
0000
1000
0000
,
0100
0000
0001
0000
0200
0000
0000
0000
0310
0000
0001
0000
0100
0000
0010
1000
,
0100
0000
0010
0000
2000
0000
0000
0000
0000
0000
3010
0001
1000
0000
0010
0000
,
0200
0000
0000
0000
0000
0000
1300
0100
0010
0000
1000
0000
0200
0000
0000
0000
,
0000
0000
0301
0100
0010
0000
0001
0000
0200
0000
0000
0000
0000
0000
1300
0100
,
0001
1000
1100
0000
0101
0000
1001
0000
,
0110
0110
0000
1001
1001
0000
1000
0100
,
0001
0100
0010
0001
0101
0101
0000
1010
,
1010
0000
0000
0000
0001
0000
0100
0010
0100
0000
1000
0000
0100
0010
0100
0000
,
1100
1100
0000
0011
0011
0000
0010
1000
,
0001
0000
0010
0100
0010
0000
0001
0000
1000
0001
1000
0001
1000
0000
0010
0100
,
0010
0100
0010
0000
1000
0100
0010
0001
0100
0010
0100
0001
0010
0100
1000
0001
,
0100
0000
0010
1000
0100
0000
0010
0000
0100
1000
0010
0000
0100
0000
0001
0010
0100
0000
0010
0000
0001
0100
0010
0000
,
0100
0000
0001
1000
0100
0000
0010
0000
0100
1000
0001
0000
0100
0000
1000
0100
0002
0000
0023
0000
0230
0000
2300
0000
,
3000
0000
0000
0000
;

//---------------dance-double - ----------------
#NOTES:
     dance-double:
     :
     Hard:
     10:
     0.727,0.847,0.216,0.467,1.000:
00000000
00000000
00000000
00000000
,
00000000
00000000
00000000
00000000
,
00000000
00000000
00000000
00000000
00000000
00000000
00000000
00000000
00000000
00000000
00000010
00010000
00001000
00000000
01000000
00000000
01000000
00000000
00100000
00000000
10000000
00000000
01000000
00000000
,
00100000
00000000
00001000
00000000
00001000
00010000
00000100
00000000
00000010
00000000
00000100
00000000
00002000
00000000
00000000
00000000
00000000
00003100
00020000
00000000
00000000
00000000
00000000
00031000
,
01000000
00000000
00100000
00000000
10000000
00000000
01000000
00000000
01100000
00000000
00010000
01000000
00100000
00000000
10000000
01000000
00100000
00000000
00002000
00000000
00013000
00000000
00000100
00001000
,
00000200
00000000
00000000
00001300
00000001
00000100
00000010
00000000
00010000
00000000
00001000
01000000
00100000
00000000
10000000
01000000
00100000
00000000
00002000
00000000
00013000
00000000
00001000
00000100
,
00002000
00000000
00000000
00000000
00103000
00000000
02000000
00000000
00000000
00000000
13000000
00100000
01000000
00000000
00001000
00010000
00000100
00000000
00002000
00000000
00003001
00000000
00000100
00000010
,
00000200
00000000
00000000
00001300
00010000
01000000
10000000
00000000
01000000
00010000
00001000
00010000
00000200
00000000
00000000
00000000
00002300
00000000
00003010
00000000
00000000
00000100
00000001
00001000
,
00000100
00000000
00000000
00000000
00000000
00000000
00000000
00000000
00010000
00000000
00000000
00000000
00000000
00000000
00000000
00000000
00010000
00000000
00000000
00000000
00000000
00000000
00000000
00000000
00001000
00000000
00000000
00000000
00000000
00000000
00000000
00000000
00001000
00000000
00000000
00000000
00000000
00000000
00000000
00000000
00100000
00000000
00000000
00000000
00000000
00000000
00000000
00000000
02000000
00000000
00000000
00000000
00000000
00000000
00000000
00000000
00000000
00000000
00000000
00000000
00000000
00000000
00000000
00000000
03000000
00000000
00000000
00000000
00000000
00000000
00000000
00000000
00000000
00000000
00000000
00000000
00000000
00000000
00000000
00000000
10000000
00000000
00000000
00000000
00000000
00000000
00000000
00000000
01000000
00000000
00000000
00000000
00000000
00000000
00000000
00000000
00010000
00000000
00000000
00000000
00000000
00000000
00000000
00000000
00000000
00000000
00000000
00000000
00000000
00000000
00000000
00000000
00001000
00000000
00000000
00000000
00000000
00000000
00000000
00000000
00000010
00000000
00000000
00000000
00000000
00000000
00000000
00000000
00000001
00000000
00000000
00000000
00000000
00000000
00000000
00000000
00000010
00000000
00000000
00000000
00000000
00000000
00000000
00000000
00000100
00000000
00000000
00000000
00000000
00001000
00000000
00000000
00000000
00000000
00000000
00000100
00000000
00000000
00000000
00000000
00001000
00000000
00000000
00000000
00000000
00000000
00000000
00000000
00000000
00000000
00000000
00000000
00000000
00000000
00000000
00000000
00000001
00000000
00000000
00000000
00000000
00000000
00000000
00000000
00000100
00000000
00000000
00000000
00000000
00000000
00000000
00000000
,
00000002
00000000
00000000
00000000
00000000
00000000
00000000
00000000
00000000
00000000
00000000
00000000
00000000
00000000
00000000
00000000
00000000
00000000
00000000
00000000
00000000
00000000
00000000
00000000
00000100
00000000
00000000
00000003
00000000
00000000
00000000
00000000
00001000
00000000
00000000
00000000
00000000
00000000
00000000
00000000
00010000
00000000
00000000
00000000
00000000
00000000
00000000
00000000
01000000
00000000
00000000
00000000
00000000
00000000
00000000
00000000
00000000
00000000
00000000
00000000
00000000
00000000
00000000
00000000
00100000
00000000
00000000
00000000
00000000
00000000
00000000
00000000
00000000
00000000
00000000
00000000
00000000
00000000
00000000
00000000
00001000
00000000
00000000
00000000
00000000
00000000
00000000
00000000
00010000
00000000
00000000
00000000
00000000
00000000
00000000
00000000
00100000
00000000
00000000
00000000
00000000
00000000
00000000
00000000
00000000
00000000
00000000
00000000
00000000
00000000
00000000
00000000
10000000
00000000
00000000
00000000
00000000
00000000
00000000
00000000
01000000
00000000
00000000
00000000
00000000
00000000
00000000
00000000
00010000
00000000
00000000
00000000
00000000
00000000
00000000
00000000
00001000
00000000
00000000
00000000
00000000
00000000
00000000
00000000
00010000
00000000
00000000
00000000
00000000
00000010
00000000
00000000
00000000
00000000
00000000
00010000
00000000
00000000
00000000
00000000
00000010
00000000
00000000
00000000
00000000
00000000
00000000
00000000
00000000
00000000
00000000
00000000
00000000
00000000
00000000
00000000
00000100
00000000
00000000
00000000
00000000
00000000
00000000
00000000
00000001
00000000
00000000
00000000
00000000
00000000
00000000
00000000
,
00000200
00000000
00000000
00000000
00000000
00000000
00000000
00000000
00000000
00000000
00000000
00000000
00000000
00000000
00000000
00000000
00000000
00000000
00000000
00000000
00000000
00000000
00000000
00000000
00000000
00000000
00000000
00000000
00000000
00000000
00000000
00000000
00001300
00000000
00000000
00000000
00000000
00000000
00000000
00000000
00000000
00000000
00000000
00000000
00000000
00000000
00000000
00000000
00020000
00000000
00000000
00000000
00000000
00000000
00000000
00000000
00000000
00000000
00000000
00000000
00000000
00000000
00000000
00000000
00000000
00000000
00000000
00000000
00000000
00000000
00000000
00000000
00000000
00000000
00000000
00000000
00000000
00000000
00000000
00000000
00130000
00000000
00000000
00000000
00000000
00000000
00000000
00000000
10000000
00000000
00000000
00000000
00000000
00000000
00000000
00000000
00010000
00000000
00000000
00000000
00000000
00000000
00000000
00000000
00000000
00000000
00000000
00000000
00000000
00000000
00000000
00000000
01000000
00000000
00000000
00000000
00000000
00000000
00000000
00000000
00001000
00000000
00000000
00000000
00000000
00000000
00000000
00000000
00010000
00000000
00000000
00000000
00000000
00000000
00000000
00000000
00001000
00000000
00000000
00000000
00000000
00000000
00000000
00000000
00000100
00000000
00000000
00000000
00000000
00000010
00000000
00000000
00000000
00000000
00000000
00000100
00000000
00000000
00000000
00000000
00000010
00000000
00000000
00000000
00000000
00000000
00000000
00000000
00000000
00000000
00000000
00000000
00000000
00000000
00000000
00000000
00001000
00000000
00000000
00000000
00000000
00000000
00000000
00000000
00000100
00000000
00000000
00000000
00000000
00000000
00000000
00000000
,
00002000
00000000
00000000
00013000
00100000
01000000
10000000
00000000
01000000
00010000
00001000
00000010
00000200
00000000
00000000
00001300
00000001
00000100
00000010
00000100
00001000
00010000
01000000
00100000
,
02000000
00000000
00000000
13000000
00000000
00010000
01000000
00000000
01100000
00000000
10010000
00000000
10000000
11000000
00000000
00010000
01010000
00000000
01000000
00001000
00010000
00000100
00001000
00000010
,
00000100
00000101
00000000
00000010
00001010
00000000
00010000
00000100
00000010
00000001
00001000
00000010
00000100
00000110
00000000
00001000
00011000
00000000
01000000
00100000
00010000
00100000
10000000
01000000
,
00100000
01100000
00000000
10000000
10010000
00000000
00020000
00000000
00032000
00000000
00003002
00000000
00000103
00000010
00000000
00000010
00010000
00000000
00001000
01000000
00010000
00100000
01000000
10000000
,
01000000
00010000
00000000
00010000
00001000
00000000
00000100
00000010
00001000
00000001
00000010
00000100
00010000
00001000
00000000
00001000
01000000
00000000
00100000
10000000
01000000
00010000
00001000
00000100
,
00000010
00001000
00000000
00001000
00000001
00000000
00000011
00000000
00001010
00000000
00001001
00000000
00000000
00000000
00000000
00000000
00000000
00000000
00000000
00000000
00000000
00000000
00010000
00000000
,
00002000
00000000
00000000
00000000
00000000
00000000
01003000
00000000
00010000
10000000
00010000
00000000
00200000
00000000
00000000
00000000
00000000
00000000
00000000
00000000
01300000
00000000
00000000
00000000
20000000
00000000
00000000
00000000
00000000
00000000
30010000
01000000
00010000
00000000
00100000
00000000
00002000
00000000
00000000
00000000
00000000
00000000
00003100
00000000
00000001
00000000
00001000
00000000
,
00000200
00000000
00000000
00000000
00000000
00000000
00010300
00000000
00001000
01000000
00001000
01000000
00100000
00000000
10000000
00000000
01000000
00000000
00100000
00001000
00100000
00000000
00010000
00000000
00200000
00000000
00000000
00000000
00000000
00000000
00000000
00000000
00000000
00000000
00301000
00010000
00000200
00000000
00000000
00000000
00000000
00000000
00000000
00000000
00001300
00000000
00000001
00000000
,
00000200
00000000
00000000
00000000
00000000
00000000
00001300
00000000
01000000
00010000
01000000
00010000
20000000
00000000
00000000
00000000
00000000
00000000
00000000
00000000
31000000
00000000
00000000
00000000
00020000
00000000
00000000
00000000
00000000
00000000
00030010
00001000
00000010
00000000
00000100
00000000
00000002
00000000
00000000
00000000
00000000
00000000
00000013
00000000
00000100
00000000
00010000
00000000
,
00002000
00000000
00000000
00000000
00000000
00000000
00103000
00000000
01000000
00000000
10000000
00000000
00020000
00000000
00000000
00000000
00032000
00000000
00000000
00000000
00003002
00000000
00000000
00000000
00000103
00000000
00000010
00000000
00000100
00000000
00000010
00000000
00000100
00000010
00000100
00000010
00000100
00000010
00000100
00000010
00000100
00000010
00000100
00000010
00000100
00000000
00000000
00000000
,
00000001
00000000
00000010
00000000
00000100
00000000
00000010
00000000
00000001
00001000
00000001
00001000
00000200
00000000
00000000
00000000
,
00020300
00000000
00000000
00000000
00032000
00000000
00000000
00000000
01003000
00000000
00100000
00000000
10000000
00000000
01000000
00100000
,
01000000
00010000
00002000
00000000
00003100
00000010
00010000
00001000
,
02000000
00000000
00000000
00000000
03100000
00000000
10000000
00000000
01000000
00100000
01000000
00100000
00001000
00000000
00010000
00000000
,
00000100
00000000
00001000
00000010
00000100
00000000
00000001
00000000
00002000
00000000
00000000
00000000
00000010
00000000
00000000
00000000
,
00013000
00000000
01000000
00100000
10000000
00000000
00000000
00000000
10010000
00000000
00000000
00000000
10000000
00000000
01000000
00010000
,
02000000
00000000
00000000
00000000
03100000
00000000
00001000
00000000
00010000
00000010
00010000
00000010
00000100
00000000
00001000
00000000
,
00000100
00000000
00000001
00000000
00000020
00000000
00000000
00000000
00000130
00000000
00010000
00000000
00001000
00000000
01000000
00100000
,
01000000
00000000
00001000
00000000
00020000
00000000
00000000
00000000
01030000
00000000
10000000
00010000
10000000
00000000
00100000
00000000
,
00020000
00000000
00000000
00000000
00030010
00000000
00001000
00000001
00001000
00000000
00000100
00000000
00020000
00000000
00000000
00000000
,
00130000
00000000
10000000
00010000
10000000
00000000
01000000
00000000
00020000
00000000
00000000
00000000
00030100
00000000
00001000
00000001
,
00001000
00000010
00000110
00000000
00000101
00000000
00001001
00000000
,
00001000
00001100
00000000
00000100
00010100
00000000
00010000
01000000
,
10000000
01000000
00010000
00001000
00010000
00011000
00000000
00001000
,
01001000
00000000
00000000
00000000
01000000
00000000
00100000
10000000
00100000
00000000
01000000
00000000
00001000
00010000
00001000
00000000
,
00000100
00000110
00000000
00000010
00010010
00000000
00010000
00001000
,
00010000
00000000
01000000
10000000
01000000
00000000
00100000
00000000
00001000
00010000
00001000
00010000
00001000
00000000
00010000
00000100
,
00010000
00000100
00010000
00000000
00000010
00001000
00000010
00001000
00000001
00000100
00000001
00000100
00001000
00010000
00001000
00010000
,
00100000
00000000
00000000
00000000
10000000
00000000
01000000
00000000
00010000
00000000
00000000
00000000
00001000
00000000
00000000
00000000
00010000
00000000
01000000
00000000
10000000
00000000
00000000
00000000
00100000
00000000
00000000
00000000
10000000
00000000
01000000
00000000
00010000
00000000
00000000
00000000
00001000
00000000
00000000
00000000
00010000
00000000
01000000
00000000
10000000
00000000
00010000
01000000
,
00010000
00000000
00000100
00000001
00000010
00000000
00001000
00000000
00000010
00000001
00000100
00000000
00010000
00000000
00000100
00000001
00000020
00000000
00002030
00000000
00023000
00000000
02030000
00000000
,
03000000
00000000
00000000
00000000
;

//---------------dance-double - ----------------
#NOTES:
     dance-double:
     :
     Medium:
     8:
     0.546,0.663,0.063,0.485,0.696:
00000000
00000000
00000000
00000000
,
00000000
00000000
00000000
00000000
,
00000000
00000000
00000000
00000000
00000000
00000000
00000000
00000000
00000000
00000000
00001000
00010000
00001000
00000000
00000000
00000000
00000100
00000000
00000010
00000000
00001000
00000000
00000001
00000000
,
00002000
00000000
00000000
00000000
00000000
00003100
00010000
00000000
00001000
00000000
00010000
00000000
02000000
00000000
00000000
00000000
00000000
13000000
00200000
00000000
00000000
00000000
00000000
01300000
,
00010000
00000000
00000000
00000000
00100000
00000000
00101000
00000000
00001000
00000000
00010000
00000000
00000010
00000000
00001000
00000000
00001000
00000000
00000002
00000000
00000013
00000000
00000100
00001000
,
00000200
00000000
00000000
00010300
00001000
00000000
01000000
00000000
00100000
00000000
10000000
01000000
00100000
00000000
01000000
00000000
10000000
00000000
00020000
00000000
01030000
00000000
00001000
00010000
,
00002000
00000000
00003000
00000000
00010000
00000000
00000200
00000000
00000300
00000000
00000010
00000001
00001000
00000000
00000010
00000000
00000100
00000000
00002000
00000000
00013000
00000000
00001000
01000000
,
00002000
00000000
00000000
00103000
01000000
00000000
10000000
00000000
00010000
01000000
00010000
00000000
20000000
00000000
30000000
00000000
01000000
00000000
00200000
00000000
00300000
00001000
00010000
00000000
,
00000100
00000000
00001000
00000010
00000100
00000001
00002000
00000000
00000000
00000000
00003100
00010000
00001000
00000000
00100000
01000000
10000000
00000000
00010000
00000000
01010000
00000000
01000000
00001000
,
02000000
00000000
00000000
03001000
00010000
00000000
00000100
00000000
00001000
00000000
00000010
00000100
00000001
00000000
00001000
00000100
00000010
00000000
00000100
00000000
00010100
00000000
00010000
00001000
,
00020000
00000000
00030000
00000000
00001000
00000000
02000000
00000000
03000000
00000000
00100000
10000000
00010000
00000000
00100000
01000000
10000000
00000000
00010000
00000000
01010000
00000000
01000000
00001000
,
00020000
00000000
00000000
00030100
00001000
00000010
00000100
00000000
00001000
00010000
00001000
00100000
02000000
00000000
00000000
13000000
01000000
00000000
00100000
00000000
00001000
00010000
00000100
00001000
,
00000002
00000000
00000000
00001003
00000100
00000000
00000010
00000000
00000001
00000000
00001000
00000000
00000001
00000100
00000000
00000100
00000001
00000000
00000100
00000000
00001000
00000000
00010000
00000000
,
01000000
10000000
00000000
10000000
01000000
00000000
00010000
00000000
00001000
00000000
00000010
00000000
00000001
00001000
00000000
00001000
00000001
00000000
00000100
00000000
00001000
00000000
00010000
00000000
,
00100000
10000000
00000000
10000000
01000000
00000000
00020000
00000000
00032000
00000000
00003020
00000000
00000031
00000100
00000000
00000100
00000001
00000000
00000100
00000000
00001000
00010000
00100000
00000000
,
10000000
01000000
00000000
01000000
10000000
00000000
01000000
00000000
00010000
00001000
00000010
00000000
00000001
00000100
00000000
00000100
00000001
00000000
00000100
00000000
00001000
00010000
01000000
00000000
,
10000000
00100000
00000000
00100000
10000000
00000000
00100000
00000000
00010000
00000000
00011000
00000000
00000000
00000000
00000000
00000000
00000000
00000000
00000000
00000000
00000000
00000000
00000200
00000000
,
00000320
00000000
00000000
00000031
00001000
00000001
00000200
00000000
00000000
00000000
00000320
00000000
00020030
00000000
00000000
00031000
00010000
00001000
02000000
00000000
00000000
03100000
10000000
00100000
,
02000000
00000000
00000000
03010000
00100000
00000000
00001000
00000000
00010000
00000000
00000010
00000100
00000002
00000000
00000000
00000000
00000000
00001003
00000200
00000000
00000000
00000000
00010300
00001000
,
02000000
00000000
00000000
03100000
10000000
00010000
00200000
00000000
00000000
00000000
00302000
00000000
00023000
00000000
00000000
00030100
00001000
00000100
00000020
00000000
00000000
00000031
00000100
00000001
,
00002000
00000000
00000000
00003100
00001000
00000100
00010000
00000000
00001000
00000000
01000000
00000000
00200000
00000000
00000000
00000000
00000000
00000000
00000000
00000000
00000000
00000000
10300000
00000000
,
00020000
00000000
00000000
01030000
00001000
00010000
00002000
00000000
,
00000000
00000000
00003020
00000000
00000230
00000000
00000000
00001300
,
00000001
00000100
00000002
00000000
00000000
00000013
00000100
00001000
,
00000200
00000000
00000000
00010300
00001000
00010000
00100000
00000000
,
01000000
00000000
00010000
10000000
00020000
00000000
00000000
00000000
,
00000000
00130000
01000000
00000000
01000000
00000000
01000000
10000000
,
00020000
00000000
00000000
01030000
00001000
00010000
00002000
00000000
,
00000000
00000000
00003020
00000000
00000230
00000000
00000000
00001300
,
00000001
00000100
00000002
00000000
00000000
00000013
00000100
00010000
,
00000200
00000000
00000000
00001300
00000010
00000100
00002000
00000000
,
00000000
00013000
01000000
00100000
02000000
00000000
00000000
13000000
,
00010000
00100000
01000000
00000000
11000000
00000000
10010000
00000000
,
00010000
01000000
00000000
01000000
00010000
00000000
01000000
00001000
,
00010000
00001000
00010000
00000100
00001000
00000001
00000000
00000001
,
00001000
00000000
00000010
00001000
00000100
00010000
00001000
01000000
,
00010000
10000000
00000000
10000000
00010000
00000000
01000000
00001000
,
00010000
00001000
00010000
00000100
00001000
00000001
00000000
00000001
,
00001000
00000000
00000010
00000100
00000001
00000100
00001000
00010000
,
00001000
00000000
00100000
00000000
00100000
00000000
00001000
00000000
01000000
00000000
01000000
00000000
00001000
00000000
00100000
00000000
00100000
00000000
00001000
00000000
01000000
00000000
01000000
00001000
,
00010000
00000100
00000100
00010000
00000010
00000010
00010000
00000100
00000100
00001000
00000010
00000002
,
00000003
00000000
00000000
00000000
;

//---------------dance-double - ----------------
#NOTES:
     dance-double:
     :
     Easy:
     6:
     0.318,0.386,0.000,0.009,0.413: // measure 1
00000000
00000000
00000000
00000000
,  // measure 2
00000000
00000000
00000000
00000000
,  // measure 3
00000000
00000000
00000000
00000000
00000000
00010000
00001000
00000000
01000000
00010000
01000000
00010000
,  // measure 4
10000000
00000000
01000000
00100000
01000000
10000000
00010000
00000000
00000000
01000000
00000000
00000000
,  // measure 5
00001000
00000000
00000000
00010000
00000100
00001000
00000100
00000000
00000010
00000100
00000000
00000100
,  // measure 6
00001000
00000000
00000100
00010000
00001000
01000000
00010000
00000000
10000000
01000000
00000000
00100000
,  // measure 7
01000000
00000000
10000000
00010000
00000000
01000000
00001000
00000000
00010000
00001000
00000000
00010000
,  // measure 8
00000100
00000000
00000010
00000100
00001000
00000001
00001000
00000000
00000100
00010000
00000000
00001000
,  // measure 9
00100000
01000000
00100000
00010000
00000000
10000000
00100000
00000000
01000000
00010000
01000000
00001000
,  // measure 10
00010000
00000000
00000010
00001000
00000010
00000100
00000001
00000000
00000100
00000010
00001000
00000100
,  // measure 11
00010000
00000000
00001000
01000000
00000000
00010000
00100000
00000000
00010000
01000000
00100000
10000000
,  // measure 12
01000000
00000000
00100000
00010000
00100000
01000000
10000000
00000000
01000000
00010000
00000000
00001000
,  // measure 13
00000100
00000000
00000000
00000000
00000001
00000000
00001000
00000000
00000000
00000000
00000001
00000000
00000100
00000000
00000000
00000100
00000000
00000000
00000100
00000000
00000010
00000000
00010000
00000000
,  // measure 14
00001000
00000000
00000000
00001000
00000000
00000000
00001000
00000000
01000000
00000000
00010000
00000000
01000000
00000000
00000000
01000000
00000000
00000000
01000000
00000000
00100000
00000000
10000000
00000000
,  // measure 15
01000000
00000000
00000000
01000000
00000000
00000000
01000000
00000000
00100000
00000000
00001000
00000000
00010000
00000000
00000000
00001000
00000000
00000000
00010000
00000000
00000100
00000000
00001000
00000000
,  // measure 16
00000100
00000000
00000000
00001000
00000000
00000000
00000100
00000000
00000010
00000000
00000001
00000000
00001000
00000000
00000000
00000100
00000000
00000000
00001000
00000000
00000010
00000000
00000100
00000000
,  // measure 17
00000001
00000000
00000000
00000100
00000000
00000000
00000001
00000000
00001000
00000000
00000100
00000000
00000000
00000000
00000000
00000000
00000000
00000000
00000000
00000000
00000000
00000000
00010000
00000000
,  // measure 18
00001000
00000000
00001000
01000000
00000000
01000000
00100000
00000000
00100000
10000000
00000000
10000000
,  // measure 19
00010000
00000000
00010000
00100000
00001000
00010000
00000010
00000000
00000010
00000100
00000000
00000001
,  // measure 20
00001000
00000000
00001000
00000100
00000000
00000100
00010000
00000000
00010000
00001000
00000000
00001000
,  // measure 21
01000000
00000000
01000000
00010000
10000000
01000000
00200000
00000000
00000000
00000000
00000000
00301000
,  // measure 22
00010000
00000000
00000000
00001000
00010000
00000000
00000100
00000000
,  // measure 23
00000000
00000000
00001000
00000000
00000010
00000000
00000000
00000100
,  // measure 24
00000001
00000000
00000100
00000000
00000000
00000010
00001000
00000000
,  // measure 25
00000010
00000000
00000000
00001000
00000100
00000000
00010000
00000000
,  // measure 26
00001000
00000000
01000000
00010000
01000000
00000000
00000000
00000000
,  // measure 27
00000000
00010000
10000000
00000000
10000000
00000000
10000000
00000000
,  // measure 28
01000000
00000000
00000000
00100000
00010000
00000000
00100000
00000000
,  // measure 29
00000000
00000000
00001000
00000000
00010000
00000000
00000000
00000100
,  // measure 30
00001000
00000000
00000100
00000000
00000000
00000010
00000001
00000000
,  // measure 31
00000010
00000000
00000000
00000001
00000100
00000000
00000001
00000000
,  // measure 32
00000000
00001000
00000100
00000000
00001000
00000000
00000000
00000100
,  // measure 33
00010000
00001000
01000000
00010000
,  // measure 34
10000000
00000000
00000000
01000000
00000000
00000000
10000000
00000000
,  // measure 35
01000000
00000000
00100000
00000000
00001000
00000000
00000000
00010000
,  // measure 36
00000000
00001000
00010000
00000100
,  // measure 37
00000010
00000000
00000000
00000100
00000000
00000000
00000010
00000000
,  // measure 38
00000001
00000000
00000100
00000000
00001000
00010000
00000000
00010000
,  // measure 39
00001000
01000000
00100000
10000000
,  // measure 40
01000000
00000000
00010000
01000000
00000000
10000000
01000000
00000000
00010000
01000000
00000000
10000000
,  // measure 41
01000000
00000000
00010000
00001000
00000000
00010000
01000000
00000000
00010000
00001000
00000010
00000100
;
