#TITLE:66 Marching Songs feat. Matsu, Shibafu;
#SUBTITLE:;
#ARTIST:Tamaonsen;
#TITLETRANSLIT:;
#SUBTITLETRANSLIT:;
#ARTISTTRANSLIT:;
#GENRE:;
#CREDIT:;
#BANNER:66 Marching Songs.png;
#BACKGROUND:66 Marching Songs - bg.png;
#LYRICSPATH:;
#CDTITLE:cd-rikame.png;
#MUSIC:66 Marching Songs.ogg;
#OFFSET:0.017;
#SAMPLESTART:44.462;
#SAMPLELENGTH:17.333;
#SELECTABLE:YES;
#BPMS:0.000=122.000;
#STOPS:;
#BGCHANGES:;
#KEYSOUNDS:;

//---------------dance-single - Rikame----------------
#NOTES:
     dance-single:
     Rikame:
     Challenge:
     11:
     0.774,0.712,0.380,0.239,0.615:
0000
0000
0000
0000
,
0000
0000
0000
0000
,
0000
0000
0000
0000
,
0000
0000
0000
0000
,
1001
0001
0100
0010
1000
0001
1000
0100
,
0010
0000
0100
1000
0001
0000
1000
0010
0100
0000
0001
0000
1000
0000
1100
0000
,
0110
0000
0010
0000
0001
0000
1000
0000
0010
0000
0100
0010
1000
0000
0001
0010
,
0100
0000
0010
0001
0100
0000
0010
1000
0000
0000
1100
0000
0011
0000
0001
0000
,
0101
0100
0010
1010
1000
0001
0010
0001
,
0101
0000
0100
0000
0010
0000
1000
0010
0100
0000
0001
0000
0010
0000
0100
0000
,
1100
1000
1000
1001
0000
0001
0001
0001
,
1000
0010
1000
0000
0100
0000
0010
0001
0000
0001
1000
0000
0010
0000
0100
0000
,
0101
0000
0001
0100
0010
0000
1000
0000
0100
0000
1000
0001
0010
0000
0100
0000
,
0010
0000
0001
1000
0100
0000
0010
0000
0100
0000
1000
0000
0020
0000
0030
0000
,
0100
0000
0001
1000
0010
0000
0100
0000
0010
0000
1000
0000
0100
0000
0010
0000
,
0001
0000
1000
0000
0002
0000
0003
0000
1010
0000
1000
0100
1000
0010
0100
0001
,
0010
0000
0100
0010
0001
0000
1000
0000
0010
0000
0100
0001
1000
0000
0100
0000
,
0010
0000
0100
1000
0001
0000
0100
0010
1000
0000
0100
0000
0020
0000
0030
0000
,
0100
0000
1000
0001
0010
0000
0001
0000
0100
0000
0010
0000
1000
0000
0001
0000
,
0101
0000
0100
0001
0010
0000
0100
0000
1000
0000
0100
0000
0010
0001
1000
0000
,
1002
0000
0000
0000
0000
0000
0103
0000
0000
0010
0000
0000
0000
0000
0000
0010
0000
0000
1000
0000
0000
0000
0000
0000
0001
0000
0000
0000
0000
0000
0010
0000
0000
0100
0000
0000
0000
0000
0000
0100
0000
0000
1000
0000
0000
0000
0010
0000
,
1000
0000
0000
0100
0000
0000
1000
0000
0000
0001
0000
0000
0010
0000
0000
0000
0100
0000
0010
0000
0000
0001
0000
0000
0100
0000
0000
0001
0000
0000
1000
0000
0000
0000
0010
0000
0100
0000
0000
0000
0001
0000
0010
0000
0000
0000
0000
0000
,
0000
0000
0000
0100
0000
0000
0000
0000
0000
1000
0000
0000
0100
0000
0000
0010
0000
0000
0001
0000
0000
0000
1000
0000
0001
0000
0000
0100
0000
0000
0010
0000
0000
0000
0000
0000
0100
0000
0000
0001
0000
0000
1000
0000
0000
0000
0000
0000
,
0100
0000
0000
1000
0000
0000
0001
0000
0000
0010
0000
0000
0001
0000
0000
0000
0100
0000
0010
0000
0000
1000
0000
0000
0001
0000
0000
0000
0000
0000
0010
0000
0000
0000
0000
0000
0010
0000
0000
0000
0000
0000
0010
0000
0000
0000
0000
0000
,
0000
0001
0010
0001
1000
0010
0100
0010
1000
0100
1000
0001
0010
0000
0100
0000
,
0010
0000
0000
0001
0000
0000
1000
0000
0000
0000
0001
0000
0100
0000
0000
0010
0000
0000
1000
0000
0000
0001
0000
0000
0010
0000
0000
0100
0000
0000
0010
0000
0000
0001
0000
0000
0100
0000
0000
0000
0000
0000
0010
0000
0000
0000
0000
0000
,
0000
1000
0001
1000
0100
0010
0100
1000
0001
0100
0010
0100
0001
0000
1000
0000
,
1010
0000
0010
0000
0101
0000
0001
0010
0100
1000
0001
1000
0020
0000
0000
0030
,
1001
0000
0002
0000
0203
0000
0302
0000
0103
0010
1000
0001
1000
0000
0100
0000
,
0010
0000
0000
0100
0000
0000
1000
0000
0000
0100
0000
0000
0010
0000
0000
0001
0000
0000
1000
0000
0000
0000
0100
0000
1000
0000
0000
0010
0000
0000
0100
0000
0000
0010
0000
0000
0100
0000
0000
0000
0000
0000
0001
0000
0000
0000
0000
0000
,
0000
0000
0000
2000
0000
0000
3200
0000
0000
2300
0000
0000
3010
0000
0000
0100
0000
0001
1000
0000
0000
0001
0000
0000
,
0010
0100
1000
0001
1000
0100
0010
0001
0100
0010
1000
0010
1000
0000
1100
0000
,
0011
0000
0001
1000
0000
0010
0000
0100
0001
1000
0001
0010
0100
1000
0001
0000
,
0000
0000
0000
0000
0000
0000
0100
0000
0000
0010
0000
0000
1000
0000
0000
0001
0000
0000
1000
0000
0000
0100
0000
0000
0000
0000
0000
0010
0000
0000
0001
0000
0000
0000
1000
0000
0010
0000
0000
0100
0000
0000
0000
0000
0000
0010
0000
0000
,
0000
0000
0000
1000
0000
0000
0001
0000
0000
0010
0000
0000
0100
0000
0000
0000
0010
0000
0001
0000
0000
1000
0000
0000
0010
0000
0000
0000
0100
0000
0001
0000
0000
0000
0000
0000
1001
0000
0000
0000
0000
0000
0010
0000
0000
0000
0000
0000
,
1100
0000
0000
0000
0000
0000
0100
0000
0000
0010
0000
0000
0001
0000
0000
0000
1000
0000
0010
0000
0000
0000
0000
0000
0100
0000
0000
0000
0001
0000
0010
0000
0000
0000
0100
0000
1000
0000
0000
0000
0000
0000
0010
0000
0000
0000
0000
0000
,
0110
0000
0100
0001
1000
0000
0100
0010
0001
0000
0010
0100
1000
0000
0010
0000
,
1000
0000
0001
0000
0100
0000
0010
1000
0001
0000
0010
0000
0001
0000
1000
0000
,
0010
0000
0100
0010
1000
0000
0001
0000
0011
0000
0010
0100
1000
0000
0001
0000
,
0100
0000
0010
0000
1000
0000
0100
1000
0010
0000
0100
0001
0010
0000
0110
0000
,
1001
0000
0001
0000
0100
0000
0010
0000
1010
0000
1000
0100
0010
0000
0001
0000
,
0010
0000
0100
0000
0010
0000
0001
0100
0010
0000
1000
0001
0100
0000
0001
0000
,
0010
0000
0100
1000
0001
0000
0100
0000
0010
1000
0001
0000
0101
0000
0100
0000
,
0110
0020
2030
3200
0320
0032
0023
0031
,
1001
0000
1000
0001
0010
0000
0110
0000
0010
0000
0001
1000
0010
0000
0100
0000
,
0101
0000
0001
0010
0100
0000
1100
0000
1000
0000
0001
0000
0200
0000
0300
0000
,
1010
0000
0010
0100
0001
0000
0011
0000
0010
0000
0100
0000
1100
0000
1000
0000
,
1010
0000
0010
0100
0001
0000
1001
0000
1000
0000
0200
0000
0320
0000
0130
0000
,
1001
0000
1000
0010
0100
0000
0101
0000
0100
0000
0010
1000
0001
0000
0010
0000
,
0110
0000
0100
1000
0001
0000
0100
0001
0010
0000
0100
0000
2000
0000
3000
0000
,
1010
0000
0010
0100
0001
0000
1001
0000
1000
0000
0100
0000
0110
0000
0010
0000
,
0011
0001
1000
0010
0100
0101
1100
0110
,
0012
0000
1003
0000
0010
M00M
0010
0000
0001
0000
0100
M00M
0100
0000
1000
0000
,
0010
0000
0100
0001
0010
0000
0100
0010
0001
0000
1000
0000
0010
0000
0100
0000
,
0000
0000
0010
0000
0100
M00M
0100
0000
1000
0000
0010
0100
0001
0000
0010
0001
,
0100
0000
0010
0000
1000
0000
0010
1000
0001
0000
0010
0100
0010
0001
0100
0010
,
1000
0000
0100
0000
0010
M00M
0010
0000
1000
0000
0100
M00M
0100
0000
0001
0000
,
0010
0000
0001
0000
1000
0000
0010
1000
0100
0000
0010
0000
0100
0000
1000
0000
,
0000
0002
0023
0032
0003
2000
3020
2030
,
3100
0010
0001
1000
0001
0100
0010
0100
0001
1000
0000
1000
0200
0000
0000
0000
,
0310
0001
0010
0001
1000
0000
0100
0000
1000
0000
0001
0000
0100
0000
0010
1000
,
0001
0000
1000
0010
1000
0000
0001
0000
1000
0000
0100
0000
0020
0000
0030
0000
,
0001
0000
1000
0100
1000
0000
0001
0000
0010
0000
0100
0000
1000
0000
0010
0000
,
0100
0000
0001
0100
0001
0000
1000
0000
1100
0000
0100
0010
0001
1000
0010
0100
,
0010
0000
1000
0010
0100
0000
0001
0000
0010
0000
0100
0000
1000
0000
0010
0100
,
0001
0000
1000
0001
1000
0000
0010
0000
0100
0000
0001
0000
0020
0000
0030
0000
,
0100
1000
0100
1000
0001
0000
0010
0000
0100
0000
0010
0000
0001
0000
0100
0000
,
0010
1000
0010
1000
0100
0000
0010
0001
0010
0000
0110
0000
0100
1000
0010
0000
,
0210
0000
0000
0300
0000
0000
0000
0000
0000
0000
0000
0000
0000
0000
0000
0000
;

//---------------dance-single - Rikame----------------
#NOTES:
     dance-single:
     Rikame:
     Hard:
     9:
     0.601,0.534,0.119,0.149,0.283:
0000
0000
0000
0000
,
0000
0000
0000
0000
,
0000
0000
0000
0000
,
0000
0000
0000
0000
,
1001
0001
0100
0001
0010
0100
1000
0100
,
0010
0000
0001
0000
0100
0000
0010
1000
0010
0000
0100
0000
0001
0000
0110
0000
,
1001
0000
1000
0000
0100
0000
0010
0000
0001
0000
0100
0010
0100
0000
0001
1000
,
0001
0000
0010
0000
0100
0000
1000
0001
0000
0000
0011
0000
0101
0000
0100
0000
,
0010
1000
0001
0010
0100
0010
0001
1000
,
0100
0000
1000
0000
0010
0000
0100
0001
0100
0000
0010
0000
1000
0000
0010
0000
,
0100
0001
0001
0001
0000
1000
1000
1000
,
0100
0000
0010
0000
0100
0000
1000
0001
0000
0001
1000
0000
0010
0000
0100
0000
,
1001
0000
0001
0010
0001
0000
1000
0000
0100
0000
0010
0001
1000
0000
0010
0000
,
0100
0000
0001
1000
0001
0000
0010
0000
0100
0000
0010
0000
2000
0000
0000
0000
,
3010
0000
0001
1000
0001
0000
0010
0100
1000
0000
0100
0000
0010
0000
0001
0000
,
1000
0000
0001
0000
0100
0000
0000
0000
0110
0000
0001
1000
0001
1000
0001
1000
,
0001
0000
0010
0001
0010
0000
0100
0000
0010
0000
0001
1000
0010
0000
0100
0000
,
0001
0000
0100
0010
0100
0000
0001
1000
0010
0000
0100
0000
2000
0000
0000
0000
,
3100
0000
0001
1000
0001
0000
0010
0000
0100
0000
1000
0000
0010
0000
0100
0000
,
0001
0000
1000
0010
1000
0000
0100
0000
0010
0000
0001
0000
1000
0000
0010
0000
,
0100
0000
0001
1000
0000
1000
0001
0000
0010
0000
0100
1000
0000
1000
0100
0000
,
0010
0001
1000
0010
0100
0001
0010
0100
,
0000
0010
0000
0001
1000
0000
0010
0000
0100
0000
0010
0000
1000
0000
0001
0000
,
0100
0001
0010
0100
1000
0001
0001
0001
,
0100
0010
0100
0001
1000
0001
0010
0100
,
1000
0100
0010
0001
0100
0010
1000
0100
,
0000
1000
0001
0100
0010
0100
0001
1000
,
0100
0010
0001
1000
0001
0100
0020
0000
,
1030
0100
0100
0100
1000
0001
0100
0001
,
0010
0100
1000
0001
1000
0100
0010
0001
,
0000
0100
0100
0100
0010
1000
0001
0010
,
0100
0010
0001
0100
0010
1000
0001
0011
,
1100
0000
0100
1000
0000
0001
0000
0100
0001
0000
1000
0000
0100
0000
0010
0000
,
0000
0000
0001
0000
1000
0000
0000
0010
0000
0000
0100
0000
0000
0001
0000
1000
,
0000
0001
0010
0000
0100
0000
1000
0000
0001
0000
0100
0000
0010
0000
1000
0000
,
0100
1000
0010
0100
0001
1000
0100
0010
,
0011
0000
0001
1000
0001
0000
0010
0000
0200
0000
0000
0000
2300
0000
0000
0000
,
3020
0000
0030
0000
,
0100
0000
0001
0100
0001
0000
0010
0000
0002
0000
0000
0000
0203
0000
0000
0000
,
2300
0000
0000
0000
0000
3100
0010
0110
,
1001
1000
0001
0010
0210
0000
2300
0000
,
3020
0000
0000
0000
2030
0000
0000
3001
,
0020
0000
0000
0000
,
0031
1000
0100
0100
0010
0100
0010
0010
,
0001
0000
1000
0010
1000
0000
0001
0000
0100
0000
0010
0000
0100
0000
0001
0000
,
1000
0000
0100
1000
0001
0000
0010
0000
0001
0000
1000
0000
0200
0000
0300
0000
,
1000
0000
0010
0100
0010
0000
1000
0010
0100
0000
0001
0000
0010
0000
0100
0000
,
1000
0001
1000
0000
0000
1001
0110
1001
,
1000
0000
0100
0010
0100
0000
1000
0000
0001
0000
0100
0010
1000
0000
0001
0000
,
0010
0000
0100
1000
0100
0000
0010
0100
1000
0000
0001
0000
0200
0000
0300
0000
,
0010
0000
1000
0001
1000
0000
0100
0000
0010
0000
0001
0000
0100
0000
0010
0000
,
1000
0100
0010
0100
1000
1000
0001
0100
,
0010
1000
0010
0010
1000
0001
0001
0010
,
0100
0000
1000
0001
0010
0000
0100
0010
0001
0000
1000
0000
0010
0000
0100
0000
,
0000
0000
0010
0000
1000
0000
1000
0000
0001
0000
1000
0100
0010
0000
0100
1000
,
0001
0000
0100
0000
0010
0000
0010
1000
0001
0000
1000
0010
1000
0010
1000
0010
,
1000
0001
0010
0010
0100
0010
0010
0001
,
0010
0000
0100
0000
1000
0000
0100
0010
0100
0000
1000
0000
0001
0000
0100
0000
,
0000
0001
0001
0001
0000
1000
1000
1000
,
0100
0010
0100
0010
0001
1000
0001
1000
0010
1000
0000
1000
0002
0000
0000
0000
,
0013
0100
0010
0100
0010
0000
0001
0000
1000
0000
0010
0000
0100
0000
0001
0100
,
0001
0000
1000
0001
1000
0000
0100
0000
0010
0000
0100
0000
2000
0000
3000
0000
,
0010
0000
0100
0001
0100
0000
0010
0000
1000
0000
0100
0000
0010
0000
0001
0000
,
0010
0000
0100
1000
0100
0000
0010
0000
0001
0000
0100
0010
0100
0010
0100
0010
,
0100
0000
0001
0100
0001
0000
0010
0000
0100
0000
1000
0000
0100
0000
0010
0001
,
0010
0000
0001
0100
0001
0000
1000
0000
0010
0000
1000
0000
0200
0000
0300
0000
,
0010
0001
0010
0001
0010
0000
0100
0000
1000
0000
0001
0000
0100
0000
0010
0000
,
1000
0001
1000
0001
1000
0000
0010
0000
0100
0000
0010
0000
1000
0000
0001
0000
,
0020
0000
0030
0000
0000
0000
0000
0000
0000
0000
0000
0000
;

//---------------dance-single - Rikame----------------
#NOTES:
     dance-single:
     Rikame:
     Medium:
     6:
     0.330,0.406,0.000,0.022,0.000:
0000
0000
0000
0000
,
0000
0000
0000
0000
,
0000
0000
0000
0000
,
0000
0000
0000
0000
,
0001
0100
0001
1000
0100
1000
0001
0100
,
0010
1000
0010
0100
0001
0010
0100
0010
,
0000
0001
0010
0100
1000
0001
1000
0010
,
0100
0001
0100
0010
1000
0001
1000
0001
,
0010
0000
0000
0100
0000
0000
0000
0000
,
0010
0000
0000
0001
0000
0000
0000
0000
,
1000
0000
0000
0010
0000
0000
0000
0000
,
0100
0000
0001
0000
1000
0100
1000
0001
,
0010
0000
0100
0000
1000
0010
1000
0000
,
0001
0000
0010
0000
0001
1000
0100
0000
,
0010
0000
0001
0000
1000
0010
1000
0000
,
0001
0000
0100
0000
0010
1000
0001
1000
,
0100
0000
0010
0000
0001
1000
0001
0000
,
0010
0000
0100
0000
1000
0010
0100
0000
,
0001
0000
0010
0000
0100
1000
0100
0000
,
0010
0001
1000
0010
,
0100
0000
0000
0001
0000
0000
0010
0000
,
0100
0000
0000
1000
0000
0000
0010
0000
,
0100
0000
0000
0001
0000
0000
1000
0000
,
0100
0000
0000
0010
0000
0000
0001
0000
,
0100
0000
0000
0010
0000
0000
1000
0000
,
0001
0000
0000
0010
0000
0000
0100
0000
,
0010
0000
0000
0001
0000
0000
0100
0000
,
0010
0000
0000
1000
0000
0000
0001
0000
,
0010
0100
1000
0100
0010
0000
0001
0000
,
0100
0010
1000
0100
,
0010
0001
1000
0001
0100
0000
0010
0000
,
1000
0000
0001
0000
0010
0000
0100
1000
,
0001
0100
0010
1000
,
0001
0010
0100
0010
,
0001
0100
0010
1000
,
0001
1000
0100
0010
,
0001
0100
0001
0000
0010
0000
0100
0000
,
2000
0000
0000
3000
,
0010
0100
0010
1000
0001
0000
0100
0000
,
0020
0000
0000
0030
0000
0100
0001
0100
,
0010
1000
0100
0010
,
0001
0000
0000
0000
0010
0000
0000
0100
,
2000
0000
0000
0000
,
3010
0100
0001
0100
0100
0001
0100
0001
,
0010
0100
0010
0000
0001
1000
0001
0100
,
0010
0000
1000
0000
0100
0010
0001
0000
,
1000
0010
0100
0000
0001
0100
0010
1000
,
0001
1000
0100
0000
0000
0010
0001
1000
,
0010
0100
0001
0000
0100
0001
1000
0100
,
0010
0000
0001
0000
0010
0100
1000
0000
,
0001
0000
1000
0000
0100
1000
0001
0100
,
0010
0000
0100
0000
0001
1000
0001
0010
,
0100
1000
0001
0100
,
0010
1000
0100
0010
,
0100
1000
0001
0100
,
0010
0000
0100
0000
0001
1000
0001
1000
,
0001
0010
0100
1000
,
0001
1000
0100
1000
,
0001
0100
0001
1000
,
0010
0100
0001
0100
,
0010
1000
0010
1000
0001
0000
0010
0000
,
0100
1000
0100
0000
0010
0000
0001
0000
,
0100
0001
0100
0001
1000
0000
0100
0000
,
0010
0100
0010
0000
0001
1000
0001
0100
,
0010
0000
0100
0000
0001
0100
0001
0010
,
0100
0000
1000
0000
0100
0010
0001
0000
,
0100
0000
0001
0000
0010
0001
1000
0100
,
0010
0000
0100
0000
1000
0010
0100
0001
,
0010
0000
0000
0000
;

//---------------dance-single - Rikame----------------
#NOTES:
     dance-single:
     Rikame:
     Easy:
     4:
     0.239,0.228,0.007,0.000,0.000:
0000
0000
0000
0000
,
0000
0000
0000
0000
,
0000
0000
0000
0000
,
0000
0000
0000
0000
,
0001
0100
0001
1000
,
0100
0010
0001
0010
,
0000
0001
0100
0001
,
0010
0100
1000
0100
,
0010
0000
0000
0010
0000
0000
0000
0000
,
0001
0000
0000
0001
0000
0000
0000
0000
,
1000
0000
0000
1000
0000
0000
0000
0000
,
0010
0000
0100
0000
0010
1000
0001
0000
,
0010
0100
1000
0001
,
1000
0100
0010
0001
,
0100
0001
1000
0010
,
1000
0100
0000
0000
,
0010
0100
1000
0001
,
0100
0010
0100
0001
,
0010
0001
1000
0010
,
0100
0010
1000
0100
,
0010
0000
0000
0010
0000
0000
0000
0000
,
0001
0000
0000
0001
0000
0000
0000
0000
,
1000
0000
0000
1000
0000
0000
0000
0000
,
0010
0000
0000
0010
0000
0000
0000
0000
,
0100
0000
0000
0100
0000
0000
0000
0000
,
0010
0000
0000
0010
0000
0000
0000
0000
,
1000
0000
0000
1000
0000
0000
0000
0000
,
0100
0000
0010
0001
,
1000
0001
0000
0001
1000
0000
0100
0000
,
0010
0001
0100
0010
,
1000
0100
0000
0100
1000
0000
0010
0000
,
0100
0001
0010
0100
,
1000
0000
0000
0010
0000
0000
1000
0000
,
0100
0000
0000
0010
0000
0000
0100
0000
,
1000
0000
0000
0001
1000
0000
0000
0000
,
0010
0000
0000
0100
0000
0000
0010
0000
,
1000
0001
0010
0001
,
1000
0000
0000
0000
,
0100
1000
0100
0010
,
0001
0000
0000
0100
,
0001
1000
0010
0100
,
0001
0000
0000
0000
0010
0000
0000
0001
,
0100
0000
0000
0000
,
0010
1000
0001
1000
,
0100
0010
0001
1000
,
0001
0100
0010
1000
,
0010
1000
0001
0100
,
0001
0000
0010
0000
0000
0100
0000
0000
,
1000
0010
1000
0100
,
0010
0001
0100
0010
,
0100
0001
1000
0100
,
1000
0001
0100
0010
,
1000
0100
0010
0100
,
1000
0001
0100
0010
,
0100
0001
1000
0010
,
1000
0100
0010
0100
,
1000
0001
0010
0100
,
0010
0001
0100
0010
,
1000
0001
1000
0100
,
0010
0001
0100
0010
,
1000
1000
0001
0100
,
0010
0010
1000
0100
,
0010
0010
0100
1000
,
0001
0000
0100
0000
0000
0010
0010
0010
,
0100
0001
1000
0100
,
0010
0001
0010
0100
,
0010
0001
1000
0010
,
1000
0001
0100
0010
,
1001
0000
0000
0000
;

//---------------dance-single - Rikame----------------
#NOTES:
     dance-single:
     Rikame:
     Beginner:
     2:
     0.082,0.101,0.030,0.000,0.000:
0000
0000
0000
0000
,
0000
0000
0000
0000
,
0000
0000
0000
0000
,
0000
0000
0000
0000
,
0001
0000
0000
0000
,
1000
0000
0000
0000
,
0010
0000
0000
0000
,
1000
0000
0000
0000
,
0100
0000
0000
0000
,
0010
0000
0000
0000
,
0001
0000
0000
0000
,
1000
0000
1000
0000
,
1000
0000
0000
0000
,
0010
0000
0000
0000
,
0100
0000
0000
0000
,
0001
0000
0000
0000
,
0010
0000
0000
0000
,
0001
0000
0000
0000
,
1000
0000
0000
0000
,
0100
0000
0000
0000
,
0010
0000
0000
0000
,
0001
0000
0000
0000
,
1000
0000
0000
0000
,
0010
0000
0000
0000
,
1000
0000
0000
0000
,
0001
0000
0000
0000
,
0100
0000
0000
0000
,
0010
0000
0000
0000
,
1001
0000
0000
0000
,
0001
0000
0000
0000
,
0110
0000
0000
0000
,
0000
0000
0000
0000
,
1001
0000
0000
0000
,
1000
0000
0000
0000
,
0010
0000
0000
0000
,
0100
0000
0000
0000
,
0001
0000
0000
0000
,
0010
0000
0000
0000
,
0100
0000
0000
0000
,
0010
0000
0000
0000
,
0001
0000
0000
0000
,
0100
0000
0000
0000
,
0010
0000
0000
0000
,
1000
0000
0001
0000
,
1000
0000
0000
0000
,
0100
0000
0000
0000
,
0010
0000
0000
0000
,
0100
0000
0000
0000
,
1000
0000
0000
0000
,
0001
0000
0000
0000
,
0100
0000
0000
0000
,
0010
0000
0000
0000
,
0100
0000
0000
0000
,
0001
0000
0000
0000
,
1000
0000
0000
0000
,
0100
0000
0000
0000
,
0010
0000
0000
0000
,
0001
0000
0000
0000
,
1000
0000
0000
0000
,
0010
0000
0000
0000
,
0100
0000
0100
0000
,
0001
0000
0001
0000
,
1000
0000
1000
0000
,
0100
0000
0000
0000
,
0010
0000
0010
0000
,
0001
0000
0001
0000
,
1000
0000
1000
0000
,
0010
0000
0100
0000
,
0110
0000
0000
0000
;
