#VERSION:0.81;
#TITLE:athletic meet of sound toy;
#SUBTITLE:;
#ARTIST:Mr.T;
#TITLETRANSLIT:;
#SUBTITLETRANSLIT:;
#ARTISTTRANSLIT:;
#GENRE:;
#ORIGIN:;
#CREDIT:;
#BANNER:[Round 1 Singles] - athletic meet of sound toy.png;
#BACKGROUND:[Round 1 Singles] - athletic meet of sound toy-bg.png;
#PREVIEWVID:;
#JACKET:[Round 1 Singles] - athletic meet of sound toy-jacket.png;
#CDIMAGE:;
#DISCIMAGE:;
#LYRICSPATH:;
#CDTITLE:cdtitle.png;
#MUSIC:[Round 1 Singles] - athletic meet of sound toy.mp3;
#OFFSET:-0.395000;
#SAMPLESTART:88.259773;
#SAMPLELENGTH:12.000000;
#SELECTABLE:YES;
#BPMS:0.000=190.000;
#STOPS:35.000=0.079,
35.250=0.079,
35.500=0.079,
35.750=0.079,
66.000=0.079,
66.250=0.079,
66.500=0.079,
66.750=0.079;
#DELAYS:;
#WARPS:;
#TIMESIGNATURES:0.000=4=4;
#TICKCOUNTS:0.000=4;
#COMBOS:0.000=1;
#SPEEDS:0.000=1.000=0.000=0;
#SCROLLS:0.000=1.000;
#FAKES:;
#LABELS:0.000=Song Start;
#BGCHANGES:;
#KEYSOUNDS:;
#ATTACKS:
;

//---------------dance-single - ----------------
#NOTEDATA:;
#CHARTNAME:;
#STEPSTYPE:dance-single;
#DESCRIPTION:;
#CHARTSTYLE:;
#DIFFICULTY:Hard;
#METER:9;
#RADARVALUES:0.684557,0.646436,0.179472,0.197419,0.044868,492.000000,20.000000,22.000000,0.000000,0.000000,0.000000,0.000000,0.000000,0.684557,0.646436,0.179472,0.197419,0.044868,492.000000,20.000000,22.000000,0.000000,0.000000,0.000000,0.000000,0.000000;
#CREDIT:;
#NOTES:
// measure 0
0000
0000
0000
0000
,  // measure 1
0000
0000
0000
0000
,  // measure 2
0000
0000
0000
0000
,  // measure 3
0000
0000
0000
0000
,  // measure 4
0000
0000
0000
0000
,  // measure 5
0000
0000
1000
0000
0001
0100
1000
0000
,  // measure 6
0100
0000
0001
0000
1000
0100
0001
0000
,  // measure 7
0100
0000
1000
0000
0001
1000
0001
0000
,  // measure 8
1000
0000
0001
0000
1000
0000
0000
0000
1001
0000
0000
0000
0001
0001
0001
0001
,  // measure 9
0001
0010
0001
0001
0100
0100
0010
0010
,  // measure 10
1000
0100
0001
0100
1000
0010
0001
0010
,  // measure 11
2000
0000
0000
0100
3200
0000
0000
0001
,  // measure 12
0302
0000
0000
0010
0023
0000
0000
0000
,  // measure 13
1030
0100
1000
1000
0010
0010
0100
0100
,  // measure 14
0001
0010
1000
0010
0001
0100
1000
0100
,  // measure 15
0002
0000
0000
0013
0020
0000
0000
0100
,  // measure 16
0130
0000
0000
0000
0000
0000
0000
0000
1000
1000
1000
1000
1000
0000
0100
0000
,  // measure 17
1000
1000
0010
0010
0100
0100
0001
1000
,  // measure 18
0100
0100
0001
1000
0010
0010
0002
0000
,  // measure 19
0000
0100
0203
0000
0000
1000
2300
0000
,  // measure 20
0000
0010
3020
0000
0000
0000
0031
0100
,  // measure 21
0001
0001
0010
0010
0100
0100
1000
0001
,  // measure 22
0100
0100
1000
0001
0010
0010
2000
0000
,  // measure 23
0000
0100
3200
0000
0000
0010
0310
0000
,  // measure 24
0001
0000
0000
0000
1000
0010
0000
1000
0010
0000
0100
0000
0001
0000
0000
0000
,  // measure 25
0001
0010
0010
0100
,  // measure 26
0100
1000
0000
1000
,  // measure 27
1000
0001
0001
1001
,  // measure 28
1000
0010
0000
0110
0000
0100
0001
0000
,  // measure 29
1000
0001
1000
0000
0001
0010
0000
0110
,  // measure 30
0000
0100
1000
0000
0001
0100
1000
0000
,  // measure 31
1000
0100
0001
0000
1000
0100
0010
0010
,  // measure 32
0001
0001
0010
0010
0100
0100
1000
0000
,  // measure 33
0000
0000
0000
0000
0000
0000
0001
0100
,  // measure 34
1000
0100
0001
0000
0001
0100
1000
0010
,  // measure 35
0001
0100
1000
0000
1000
0100
0001
0010
,  // measure 36
1000
0010
0001
0100
1000
0100
0001
0000
,  // measure 37
0010
0000
0100
0000
1000
0010
0100
0010
,  // measure 38
1000
0100
0010
0000
0100
0010
0001
0100
,  // measure 39
1000
0100
0001
0000
1000
0001
1000
1000
,  // measure 40
0010
0010
0001
0001
0100
0100
2000
0000
,  // measure 41
3200
0000
0302
0000
0023
0000
1030
0100
,  // measure 42
0001
0100
1000
0000
1000
0100
0001
0010
,  // measure 43
1000
0100
0001
0000
0001
0100
1000
0010
,  // measure 44
0001
0010
1000
0100
0001
0100
1000
0000
,  // measure 45
0010
0000
0100
0000
0001
0010
0100
0010
,  // measure 46
0001
0100
0010
0000
0100
0010
1000
0100
,  // measure 47
0001
0100
1000
0000
0001
0100
1000
0000
,  // measure 48
1000
0100
0001
0000
1000
0100
0001
0000
,  // measure 49
0001
0100
1000
0000
0001
0100
0010
1000
,  // measure 50
0010
0100
0001
1000
0100
0010
0001
0010
,  // measure 51
0100
1000
1001
0000
0000
0000
0001
0100
,  // measure 52
0001
0001
0010
0010
0100
0100
1000
0010
,  // measure 53
0001
0010
1000
0100
0001
0100
2000
0000
,  // measure 54
0000
0010
3020
0000
0000
0001
0032
0000
,  // measure 55
0000
0100
0203
0000
0000
0000
1300
0010
,  // measure 56
1000
1000
0100
0100
0010
0010
0001
0100
,  // measure 57
1000
0100
0001
0010
1000
0010
0002
0000
,  // measure 58
0000
0100
0203
0000
0000
0010
0310
0000
,  // measure 59
1000
0000
0000
0000
0001
0010
0000
0001
0010
0000
0100
0000
1000
0000
0000
0000
,  // measure 60
0010
0001
0100
1000
,  // measure 61
1010
1000
1001
0001
,  // measure 62
0010
1000
0100
0001
,  // measure 63
0011
0001
1001
1000
,  // measure 64
0001
1000
0001
0000
1000
0010
0000
0110
,  // measure 65
0000
0100
0001
0000
1000
0100
0001
0000
,  // measure 66
0001
0100
1000
0000
0001
0100
0010
0010
,  // measure 67
1000
1000
0010
0010
0100
0100
0001
0000
,  // measure 68
0011
0001
1001
1000
,  // measure 69
1010
0000
1000
0000
1001
0000
1000
0100
,  // measure 70
0110
0000
0010
0001
0101
0000
0001
0010
,  // measure 71
1000
0010
0001
0100
1000
0000
1000
0100
,  // measure 72
0001
0000
1000
0100
0001
0000
0001
0100
,  // measure 73
1000
0010
0001
0010
1000
0000
0001
0010
,  // measure 74
0110
0000
0100
1000
1010
0000
1001
0000
,  // measure 75
1000
0000
0000
0000
0001
0010
0000
0001
0010
0000
0100
0000
1000
0000
0010
0000
,  // measure 76
0001
0010
1000
0100
0010
0010
0001
0100
,  // measure 77
1000
0100
0001
0010
0100
0100
1000
0010
,  // measure 78
0100
0010
0001
0010
0100
0010
1000
0100
,  // measure 79
0010
0100
0001
0100
0010
0100
1000
0010
,  // measure 80
0001
1000
0100
0001
1000
1000
0001
0010
,  // measure 81
1000
0001
0100
1000
0001
0001
1000
0001
,  // measure 82
1000
0001
0010
0001
0010
0001
1000
0001
,  // measure 83
1000
0001
1000
0010
1000
0010
1000
1000
,  // measure 84
0100
0100
0010
0010
0001
0001
1001
0000
;

//---------------dance-single - ----------------
#NOTEDATA:;
#CHARTNAME:;
#STEPSTYPE:dance-single;
#DESCRIPTION:;
#CHARTSTYLE:;
#DIFFICULTY:Medium;
#METER:7;
#RADARVALUES:0.617896,0.646436,0.287155,0.089736,0.044868,440.000000,32.000000,10.000000,0.000000,0.000000,0.000000,0.000000,0.000000,0.617896,0.646436,0.287155,0.089736,0.044868,440.000000,32.000000,10.000000,0.000000,0.000000,0.000000,0.000000,0.000000;
#CREDIT:;
#NOTES:
0000
0000
0000
0000
,
0000
0000
0000
0000
,
0000
0000
0000
0000
,
0000
0000
0000
0000
,
0000
0000
0000
0000
,
0000
1010
0000
0000
,
0000
0101
0000
0000
,
0000
0011
0000
1100
,
0000
0000
0000
0000
0110
0000
0000
0000
1001
0000
0000
0000
0001
0001
0001
0001
,
0001
0000
0100
0000
1000
0100
0001
0000
,
0010
0000
0001
0100
0010
0100
1000
0100
,
0001
0000
0000
0001
0010
0000
0000
0010
,
0100
0000
0000
0100
1000
0000
0000
0000
,
1000
0000
0100
0000
0001
0100
1000
0000
,
0010
0000
1000
0100
0010
0100
0001
0100
,
1000
0000
0000
1000
0001
0000
0000
0001
,
1000
0000
0000
0000
0000
0000
0000
0000
1000
1000
1000
1000
1000
0000
0000
0000
,
0100
0000
0001
0100
1000
0000
0010
0000
,
1000
0100
0010
0100
0001
0100
1000
0000
,
0000
1000
0010
0000
0000
0010
0100
0000
,
0000
0100
0001
0000
0000
0000
0001
0000
,
0100
0000
1000
0100
0001
0000
0010
0000
,
0001
0100
0010
0100
1000
0100
0001
0000
,
0000
0001
1000
0000
0000
1000
0001
0000
,
1001
0000
0000
0000
1000
0010
0000
1000
0010
0000
0100
0000
0001
0000
0000
0000
,
0001
0010
0010
0100
,
0100
1000
0000
1000
,
1000
0001
0001
1001
,
1000
0010
0000
0110
0000
0100
0001
0000
,
1000
0001
1000
0000
0001
0010
0000
0110
,
0000
0100
1000
0000
0001
0100
1000
0000
,
1000
0100
0001
0000
1000
0100
0001
0000
,
0001
0100
1000
0000
0001
0000
1001
0000
,
0000
0000
0000
0000
0000
0000
0001
0100
,
1000
0100
0001
0000
1000
0100
0001
0000
,
1000
0010
0001
0000
1000
0010
0001
0010
,
1000
0100
0001
0100
1000
0010
0001
0000
,
0010
0000
1000
0000
0001
0010
0100
1000
,
0100
0010
0001
0000
1000
0010
0100
0001
,
0100
0010
1000
0000
0001
0001
0100
0100
,
1000
1000
0010
0010
0001
0001
0020
0000
,
2030
0000
3200
0000
0302
0000
1003
0100
,
0001
0100
1000
0000
0001
0100
1000
0000
,
0001
0010
1000
0000
0001
0010
1000
0010
,
0001
0100
1000
0100
0001
0010
1000
0000
,
0010
0000
0001
0000
1000
0010
0100
0001
,
0100
0010
1000
0000
0001
0010
0100
1000
,
0100
0010
0001
0000
1000
0100
0001
0000
,
0001
0100
1000
0000
0001
0100
1000
0000
,
1000
0100
0001
0000
1000
0010
0100
0001
,
0100
0010
1000
0001
0010
0100
1000
0100
,
0010
0001
1001
0000
0000
0000
0000
0001
,
0001
0000
1000
0100
0001
0000
0001
0100
,
1000
0010
0001
0010
1000
0001
2000
0000
,
0000
0100
3200
0000
0000
0001
0302
0000
,
0000
0010
0023
0000
0000
0000
0030
1000
,
1000
0000
0001
0010
1000
0000
1000
0010
,
0001
0100
1000
0100
0001
1000
0002
0000
,
0000
1000
2003
0000
0000
0001
3001
0000
,
1001
0000
0000
0000
0001
0010
0000
0001
0010
0000
0100
0000
1000
0000
0000
0000
,
1000
0010
0010
0100
,
0100
0001
0001
1000
,
1100
1000
1001
0001
,
0101
0001
1001
1000
,
0001
1000
0001
0000
1000
0010
0000
0110
,
0000
0100
0001
0000
1000
0100
0001
0000
,
0001
0100
1000
0000
0001
0100
0010
0010
,
1000
1000
0010
0010
0100
0100
0001
0000
,
0011
0000
0001
0000
1001
0000
1000
0100
,
0001
0100
1000
0000
1001
0000
1000
0010
,
0110
0000
0100
0001
0101
0000
0001
0010
,
1000
0010
0001
0000
1001
0000
1000
0000
,
1010
0000
1000
0000
1001
0000
1000
0100
,
0001
0100
1000
0000
1001
0000
1000
0010
,
0110
0000
0100
0001
0011
0000
1001
0000
,
1001
0000
0000
0000
1000
0010
0000
1000
0010
0000
0100
0000
0001
0000
0010
0000
,
0100
1000
0100
0010
0001
0000
1000
0010
,
0100
0001
0100
0010
1000
0000
0001
0010
,
1000
0000
1000
0010
0001
0000
1000
0010
,
0001
0010
1000
0100
0001
0000
0001
0100
,
1000
0010
0001
0010
1000
0000
0001
0010
,
0100
1000
0100
0010
0001
0000
1000
0010
,
0001
0000
0001
0010
1000
0000
0001
0010
,
1000
0000
1000
0010
0001
0000
1000
0010
,
0100
0001
1000
0100
0010
0001
1001
0000
;

//---------------dance-single - ----------------
#NOTEDATA:;
#CHARTNAME:;
#STEPSTYPE:dance-single;
#DESCRIPTION:;
#CHARTSTYLE:;
#DIFFICULTY:Easy;
#METER:5;
#RADARVALUES:0.401248,0.456308,0.161525,0.000000,0.017947,295.000000,18.000000,0.000000,0.000000,0.000000,0.000000,0.000000,0.000000,0.401248,0.456308,0.161525,0.000000,0.017947,295.000000,18.000000,0.000000,0.000000,0.000000,0.000000,0.000000,0.000000;
#CREDIT:;
#NOTES:
0000
0000
0000
0000
,
0000
0000
0000
0000
,
0000
0000
0000
0000
,
0000
0000
0000
0000
,
0000
0000
0000
0000
,
0000
1010
0000
0000
,
0000
0101
0000
0000
,
0000
0011
0000
1100
,
0000
0000
0000
0000
0110
0000
0000
0000
1001
0000
0000
0000
0001
0001
0001
0001
,
0001
0010
0100
1000
,
0001
0000
0100
0000
0010
0000
1000
0001
,
1000
0000
0000
0100
0100
0000
0000
0001
,
0001
0000
0000
0010
0010
0000
0000
0000
,
1000
0100
0010
0001
,
1000
0000
0010
0000
0100
0000
0001
1000
,
0001
0000
0000
0100
0100
0000
0000
0010
,
0010
0000
0000
0000
0000
0000
0000
0000
1000
1000
1000
1000
1000
0000
0000
0000
,
0010
0100
0001
1000
,
0100
0000
0010
0000
0001
1000
0001
0000
,
0000
0100
0100
0000
0000
1000
1000
0000
,
0000
0010
0010
0000
0000
0000
0001
0000
,
0100
0010
1000
0001
,
0010
0000
0100
0000
1000
0001
1000
0000
,
0000
0010
0010
0000
0000
0100
0100
0000
,
0000
0000
0000
0001
,
0001
0100
0100
0010
,
0010
1000
0000
1000
,
1000
0001
0001
1001
,
0000
0000
0000
1000
,
1000
0010
0010
0100
,
0100
0000
0001
0000
0001
1000
0001
0000
,
1000
0001
1000
0000
0001
1000
0001
0000
,
0000
0000
0000
0000
,
0000
0000
0000
1000
,
0010
0100
0000
0010
,
0100
0001
0000
0001
,
0010
1000
0010
0001
,
0000
0000
0000
0001
,
0100
1000
0000
1000
,
0100
0001
0000
1000
,
0010
0100
0001
0011
,
1100
1010
0101
0001
,
0010
0100
0000
0010
,
0100
1000
0000
1000
,
0010
0001
0010
1000
,
0000
0000
0000
0001
,
0010
1000
0000
1000
,
0010
0001
0000
1000
,
0000
0010
0000
0100
,
0000
0001
0000
1000
,
0100
0010
0001
0010
,
0100
1000
0000
0000
,
0001
0100
0010
1000
,
0001
0000
0010
0000
0100
1000
1000
0000
,
0000
0010
0010
0000
0000
0001
0001
0000
,
0000
0100
0100
0000
0000
0000
0000
0000
,
1000
0010
0100
0001
,
1000
0000
0100
0000
0010
0001
0001
0000
,
0000
0010
0010
0000
0000
0100
0100
0000
,
0000
0000
0000
1000
,
1000
0010
0010
0100
,
0100
0001
0001
1000
,
1100
1000
1001
0001
,
0101
0001
1001
0001
,
0001
0010
0010
0100
,
0100
1000
1000
0001
,
1001
1000
1001
0001
,
0100
0010
1000
0001
,
0001
0010
0010
0100
,
0100
1000
1000
0001
,
1000
0001
1000
0010
,
0100
0010
0100
0001
,
0001
0010
0010
0100
,
0100
1000
1000
0010
,
0100
0010
0100
0001
,
1000
0001
1000
0001
,
0100
0000
0010
0100
0010
0000
1000
0000
,
0100
0000
0010
0100
0010
0000
0001
1000
,
0001
0000
1000
0001
1000
0000
0001
0000
,
0100
0000
0010
0100
0010
0000
1000
0000
,
0100
0000
0010
0100
0010
0000
0001
0000
,
0010
0000
0100
0010
0100
0000
1000
0010
,
0100
0000
0001
0100
0010
0000
1000
0100
,
0010
0000
0001
0010
0100
0000
1000
0000
,
1000
0001
0001
1001
;
