#TITLE:Wanna Be Your Special;
#SUBTITLE:;
#ARTIST:Shoichiro Hirata feat. SUIMI;
#TITLETRANSLIT:;
#SUBTITLETRANSLIT:;
#ARTISTTRANSLIT:;
#GENRE:;
#CREDIT:;
#BANNER:;
#BACKGROUND:;
#LYRICSPATH:;
#CDTITLE:;
#MUSIC:01 Wanna Be Your Special.mp3;
#OFFSET:-0.024;
#SAMPLESTART:51.666;
#SAMPLELENGTH:15.000;
#SELECTABLE:YES;
#BPMS:0.000=137.000
;
#STOPS:
;
#BGCHANGES:;
#KEYSOUNDS:;
#ATTACKS:;

//---------------dance-single - ----------------
#NOTES:
     dance-single:
     :
     Hard:
     8:
     0.488,0.437,0.167,0.264,0.136,339.000,19.000,30.000,0.000,0.000,0.000,0.488,0.437,0.167,0.264,0.136,339.000,19.000,30.000,0.000,0.000,0.000:
0000
0000
0000
0000
,
0000
0000
0000
0000
,
0000
0000
0000
0000
,
0000
0000
0000
0000
,
0001
0010
0100
1000
0010
0100
0001
1000
,
0001
0010
0001
1000
0001
0100
0001
0010
,
0001
0100
0010
1000
0100
0010
0001
1000
,
0010
0000
0000
0010
0000
0000
0010
0000
0000
0010
0000
0000
0020
0000
0000
0000
,
0000
0000
0000
0000
,
1030
0000
0000
0100
0000
0000
1000
0000
0000
0010
0000
0000
0100
0000
0100
0000
,
0001
0000
0000
0010
0000
0000
0001
0000
0000
0100
0000
0000
0010
0000
0010
0000
,
1000
0000
0000
0100
0000
0000
0010
0000
0000
0100
0000
0000
0010
0000
0010
0000
,
0001
0000
0000
1000
0000
0000
0010
0000
0000
0100
0000
0000
0001
0000
0001
0000
,
0100
0000
0000
0010
0000
0000
1000
0000
0000
0001
0000
0000
1000
0000
1000
0000
,
0100
0000
0000
0010
0000
0000
0100
0000
0000
1000
0000
0000
0001
0000
0001
0000
,
0100
0000
0000
0001
0000
0000
0100
0000
0000
0001
0000
0000
1000
0000
0000
0100
,
0000
0000
1000
0000
0000
0100
0000
0000
1000
0000
0000
0001
0000
0000
0010
0000
,
0200
0000
0000
0010
0000
0000
0310
0000
0000
0001
0000
0000
0001
0000
0100
0000
,
0020
0000
0000
0100
0000
0000
0130
0000
0000
0001
0000
0000
1000
0000
0001
0000
,
2000
0000
0000
0100
0000
0000
3100
0000
0000
1000
0000
0000
0001
0000
0010
0000
,
0200
0000
0000
1000
0000
0000
1300
0000
0000
0100
0000
0000
1000
0000
0001
0000
,
0020
0000
0000
0100
0000
0000
0130
0000
0000
0010
0000
0000
0001
0000
1000
0000
,
0200
0000
0000
1000
0000
0000
1300
0000
0000
0100
0000
0000
1000
0000
0010
0000
,
0200
0000
0310
2000
0000
3001
0020
0000
,
0230
0000
1300
0002
0000
1003
0010
0100
,
0002
0000
0103
0020
0000
1030
0200
0000
,
2300
0000
3001
0200
0000
0301
0010
0100
,
1000
0000
0000
2002
0000
0000
0000
0000
,
0000
0000
0000
0000
,
3003
0000
0000
0000
,
0001
1000
0001
0100
1000
0100
0002
0000
,
0103
0000
0110
0000
0010
1000
0100
0010
,
0001
1000
0001
0010
0001
0100
0020
0000
,
1030
0000
1100
0000
1000
0010
0100
0001
,
1000
0010
0001
0010
1000
0100
2000
0000
,
3001
0000
0011
0000
0010
0100
1000
0010
,
0100
0001
0100
0010
1000
0001
2000
0000
,
3001
0000
0101
0000
0001
1000
0001
1000
,
0001
0010
1000
0010
0001
0010
0200
0000
,
1300
0000
1100
0000
1000
0001
1000
0001
,
0100
0010
1000
0010
0100
0001
0020
0000
,
0130
0000
1100
0000
1000
0001
0100
0001
,
1000
0100
0001
0100
1000
0010
2000
0000
,
3010
0000
0110
0000
0100
0001
0010
0100
,
1000
0001
1000
0100
0001
0100
2000
0000
,
3100
0000
1010
0000
0100
0001
0100
0010
,
1000
0100
0010
0001
1000
0000
1001
0000
,
1000
0100
1000
0010
1000
0100
0001
0100
,
1000
0100
0010
0001
1000
0000
0101
0000
,
0010
1000
0010
0100
0010
0000
1010
0000
,
1000
0010
0100
0001
0010
0000
0110
0000
,
0100
0010
0001
0010
0100
0010
0001
1000
,
0001
0100
1000
0100
0001
0000
0101
0000
,
0010
0100
0001
1000
0100
0000
1100
0000
,
0100
0010
0001
0100
0010
0000
0110
0000
,
0100
0001
0100
0010
0100
0010
1000
0100
,
0001
0100
1000
0010
0100
0000
0110
0000
,
1000
0001
1000
0010
0100
0000
0101
0000
,
0002
0010
0010
0013
,
2000
0100
0100
3100
,
0020
0001
0001
0031
,
0100
0010
1000
0100
0010
0001
1000
0001
,
1001
0000
0000
0000
;

//---------------dance-single - ----------------
#NOTES:
     dance-single:
     :
     Medium:
     6:
     0.332,0.355,0.079,0.238,0.000,228.000,9.000,27.000,0.000,0.000,0.000,0.332,0.355,0.079,0.238,0.000,228.000,9.000,27.000,0.000,0.000,0.000:
0000
0000
0000
0000
,
0000
0000
0000
0000
,
0000
0000
0000
0000
,
0000
0000
0000
0000
,
0001
0000
0001
0000
0001
0000
0001
0100
,
0010
0000
0010
0000
0010
0000
0010
1000
,
0100
0000
0100
0000
0100
0000
0100
0010
,
0002
0000
0000
0000
,
0000
0000
0000
0000
,
1003
0000
0000
1000
0000
0000
1000
0000
,
0100
0000
0000
0100
0000
0000
0100
0000
,
0010
0000
0000
0010
0000
0000
0001
0000
,
1000
0000
0000
1000
0000
0000
1000
0000
,
0001
0000
0000
0001
0000
0000
0001
0000
,
0100
0000
0000
0100
0000
0000
0100
0000
,
0010
0000
0000
0010
0000
0000
0010
0000
,
0220
0000
0000
0330
,
0001
0100
1000
0100
,
0001
0000
1000
0000
1000
0000
0100
1000
,
0010
1000
0001
0100
,
1000
0000
0100
0000
0010
0000
1000
0100
,
1000
0010
0001
0010
,
1000
1000
0001
1000
,
0002
0000
0000
0203
0000
0000
0320
0000
,
2030
0000
0000
3200
0000
0000
0310
0010
,
0002
0000
0000
0203
0000
0000
0320
0000
,
2030
0000
0000
3002
0000
0000
0103
0010
,
2000
0000
0000
0002
0000
0000
0000
0000
,
0000
0000
0000
0000
,
3003
0000
0000
0000
,
1000
0000
0001
0100
0000
0100
0002
0000
,
0010
0000
0013
0000
0100
1000
0100
1000
,
0001
0000
0100
0010
0000
0010
0200
0000
,
0010
0000
0310
0000
1000
0001
1000
0001
,
1000
0000
0001
0010
0000
0010
0002
0000
,
0100
0000
0103
0000
0001
0100
0001
0100
,
0010
0000
0010
0100
0000
0100
0020
0000
,
1000
0000
1030
0000
1000
0100
0010
0001
,
0100
0000
0010
1000
0000
1000
0020
0000
,
0100
0000
0130
0000
0001
0010
0001
0010
,
0100
0000
1000
0001
0000
0001
2000
0000
,
0100
0000
3100
0000
0100
0010
0001
0100
,
0001
0000
0100
0001
0000
0001
2000
0000
,
0010
0000
3010
0000
0100
0001
0100
0010
,
1000
0000
1000
0001
0000
0001
0200
0000
,
0010
0010
0010
0310
,
1000
0100
0100
0110
,
0010
0001
1000
1001
,
0001
0100
0010
0110
,
0100
0001
1000
1100
,
1000
0000
0100
0000
0010
0001
0100
0000
,
0010
0000
1000
0000
0010
0100
0010
0000
,
1000
0000
0100
0000
0010
0001
0100
0000
,
0010
0000
1000
0000
0100
1000
0100
0000
,
1000
0000
1010
0000
0010
0100
0010
0000
,
0100
0000
0101
0000
0001
1000
0001
0000
,
1000
0000
1100
0000
1000
0100
1000
0000
,
0001
0000
0101
0000
1000
0001
1000
0001
,
2000
0000
0000
0000
,
3020
0000
0000
0000
,
0230
0000
0000
0000
,
0302
0000
0000
0000
,
1003
0000
0000
0000
;

//---------------dance-single - ----------------
#NOTES:
     dance-single:
     :
     Easy:
     3:
     0.200,0.273,0.053,0.194,0.000,131.000,6.000,22.000,0.000,0.000,0.000,0.200,0.273,0.053,0.194,0.000,131.000,6.000,22.000,0.000,0.000,0.000: // measure 0
0000
0000
0000
0000
,  // measure 1
0000
0000
0000
0000
,  // measure 2
0000
0000
0000
0000
,  // measure 3
0000
0000
0000
0000
,  // measure 4
1000
1000
0100
0100
,  // measure 5
0010
0010
0001
0001
,  // measure 6
0100
0100
0010
1000
,  // measure 7
2002
0000
0000
0000
,  // measure 8
0000
0000
0000
3003
,  // measure 9
0200
0300
0000
0000
,  // measure 10
0020
0030
0000
0000
,  // measure 11
2000
3000
0000
0000
,  // measure 12
0200
0300
0000
0000
,  // measure 13
0002
0003
0000
0000
,  // measure 14
0200
0300
0000
0000
,  // measure 15
2000
3000
0000
0000
,  // measure 16
0020
0030
0000
0000
,  // measure 17
0100
0100
0100
0000
,  // measure 18
0001
0000
0001
0000
,  // measure 19
0100
0100
0100
0000
,  // measure 20
0010
0000
0010
0000
,  // measure 21
1000
1000
1000
0000
,  // measure 22
0001
0000
1000
0000
,  // measure 23
0002
1003
0002
0103
,  // measure 24
0002
0013
0000
0100
,  // measure 25
2000
3100
2000
3010
,  // measure 26
2000
3001
0000
0100
,  // measure 27
2002
0000
0000
0000
,  // measure 28
0000
0000
0000
0000
,  // measure 29
3003
0000
0000
0000
,  // measure 30
1000
1000
1000
1000
,  // measure 31
0000
0001
0000
1000
,  // measure 32
0000
0100
0000
0010
,  // measure 33
0000
0100
1000
1001
,  // measure 34
0010
0010
0010
0010
,  // measure 35
0000
0100
0000
0100
,  // measure 36
0000
0001
0000
1000
,  // measure 37
0000
0100
1000
1100
,  // measure 38
0100
0100
0100
0100
,  // measure 39
0000
0010
0000
0010
,  // measure 40
0000
0001
0000
0001
,  // measure 41
0000
0100
0001
0101
,  // measure 42
0001
0001
0001
0001
,  // measure 43
0000
0100
0000
0100
,  // measure 44
0000
0010
0000
1000
,  // measure 45
0000
0001
1000
1001
,  // measure 46
1000
1000
1000
0000
,  // measure 47
0001
0001
0001
0000
,  // measure 48
1000
0000
0100
0000
,  // measure 49
0010
0000
0001
0000
,  // measure 50
1000
1000
1000
0000
,  // measure 51
0010
0010
0010
0000
,  // measure 52
0100
0000
0100
0000
,  // measure 53
0001
0000
0001
0000
,  // measure 54
1000
1000
1000
1000
,  // measure 55
0001
0001
0001
0001
,  // measure 56
0100
0000
0100
0000
,  // measure 57
0001
0000
0001
0000
,  // measure 58
0020
0000
0000
0030
,  // measure 59
0200
0000
0000
0300
,  // measure 60
2000
0000
0000
3000
,  // measure 61
0002
0000
0000
0000
,  // measure 62
0003
0000
0000
0000
;
