#TITLE:UFO Catcher;
#SUBTITLE:;
#ARTIST:Initial P;
#TITLETRANSLIT:;
#SUBTITLETRANSLIT:;
#ARTISTTRANSLIT:;
#GENRE:;
#CREDIT:brunobg24;
#MENUCOLOR:;
#METERTYPE:DDR;
#BANNER:[Round 1 Singles] - UFO Catcher.png;
#BACKGROUND:[Round 1 Singles] - UFO Catcher-bg.png;
#LYRICSPATH:;
#CDTITLE:;
#MUSIC:[Round 1 Singles] - UFO Catcher.ogg;
#OFFSET:-0.020;
#SAMPLESTART:53.661;
#SAMPLELENGTH:10.727;
#SELECTABLE:YES;
#LISTSORT:;
#BPMS:0.000=179.000,96.000=89.500,112.000=179.000;
#STOPS:;
#BGCHANGES:;
#ATTACKS:;

//---------------dance-single - ----------------
#NOTES:
     dance-single:
     :
     Challenge:
     10:
     0.868,0.873,0.158,0.000,0.931:
0000
0000
0000
0000
,
0000
0000
0000
0000
,
0000
0000
0000
0000
,
0000
0000
0000
0000
,
1000
0000
0001
0000
1000
0000
0100
0000
1000
0001
0000
0100
0001
0000
0010
0000
,
0100
0000
1000
0000
0001
0000
0100
0000
0001
0010
0000
0001
1000
0000
0010
0000
,
1000
0000
0100
0000
0010
0000
0100
0000
1000
0001
0000
0100
0001
0000
0010
0000
,
0001
0000
0010
0000
0100
0000
1000
0000
0001
1000
0000
0001
1000
0100
1000
0001
,
1000
0000
0010
0100
0010
0000
1000
0000
0001
0000
1000
0100
1000
0000
0001
0000
,
0010
0000
0001
1000
0001
0000
0100
0000
0001
0010
0001
0010
0100
1000
0100
1000
,
0001
0000
0010
0001
0010
0000
0100
0000
1000
0000
0010
1000
0010
0000
0100
0000
,
0001
0010
1000
0010
0001
0000
1000
0000
0100
1000
0100
1000
0100
0010
0001
0100
,
0010
0000
1000
0100
1000
0000
0001
0000
1000
0000
0001
0100
0001
0000
0010
0000
,
0100
0000
1000
0010
1000
0000
0001
0000
1000
0100
1000
0100
0010
0001
0010
0001
,
0100
0000
0010
1000
0010
0000
0100
0000
0001
0000
0010
0001
0010
0000
0100
0000
,
1000
0010
0001
0010
1000
0000
0001
0000
1000
0100
1000
0100
0010
0001
0010
0100
,
1000
0000
0001
0100
0001
0000
0010
0000
0001
0000
1000
0010
1000
0000
0100
0000
,
1000
0000
0001
1000
0001
0000
0100
0000
0010
1000
0010
1000
0001
0100
0001
0100
,
0010
0000
1000
0100
1000
0000
0001
0000
0010
0000
0001
1000
0001
0000
1000
0000
,
0100
1000
0100
0010
0001
0000
1000
0000
0100
1000
0100
1000
0001
0100
0001
0010
,
0001
0000
1000
0001
1000
0000
0010
0000
1000
0000
0100
1000
0100
0000
0010
0000
,
0001
0000
0100
0001
0100
0000
0010
0000
1000
0010
1000
0010
0100
0001
0100
0001
,
0010
0000
0001
1000
0001
0000
1000
0000
0010
0000
0100
0010
0100
0000
0001
0000
,
0010
0001
1000
0001
1000
0000
0100
0000
1000
0100
1000
0100
0010
0001
0010
0100
,
1000
0100
0001
0100
,
1000
0000
0000
0000
0000
0000
0000
0000
0000
0000
0000
0000
0000
0000
0001
1000
,
0001
0000
0000
0000
0000
0000
0000
0000
0000
0000
0000
0000
1000
0000
0010
0100
,
0010
0100
0000
0001
0011
1001
1100
1010
,
1000
0000
0100
0000
,
0010
0000
0001
0000
,
1000
0000
0000
0000
,
0000
0000
0000
0000
0000
0000
0001
1000
,
0001
0001
0001
0001
,
0100
0100
0100
0100
,
0001
0010
0001
0010
0100
1000
0100
1000
,
0001
0000
0010
0000
1000
0000
0010
0000
0001
0100
0001
0100
0010
1000
0010
1000
,
0100
0000
1000
0000
0001
0100
0000
0000
0001
0000
0010
0001
0000
1000
0010
0000
,
1000
0000
0001
0000
0100
0001
0000
0000
1000
0000
0100
1000
0000
0001
1000
0000
,
0010
0000
0100
0000
0001
0010
0000
0000
0001
0000
1000
0010
0000
1000
0100
0000
,
1000
0000
0001
0000
0100
0001
0000
0000
0010
0000
0001
1000
0000
0100
1000
0000
,
0010
0000
1000
0000
0100
1000
0000
0000
0001
0000
1000
0001
0000
0100
0010
0000
,
1000
0000
0001
0000
0100
0001
0000
0000
0010
0000
0001
1000
0000
0001
0100
0000
,
0010
0000
1000
0000
0100
1000
0000
0000
0001
0000
0100
0001
0000
0010
0001
0000
,
1000
0000
0010
0000
1000
0100
0000
1000
0001
0000
1000
0000
0001
1000
0010
1000
,
0010
0000
1000
0000
0100
1000
0000
1000
0001
0000
1000
0010
0000
0100
0001
0000
,
1000
0000
0010
0000
0100
0001
0000
0001
0010
0000
0001
1000
0000
0100
1000
0000
,
0001
0000
1000
0000
0001
0010
0000
0010
0100
0000
1000
0001
0000
0100
0001
0000
,
0010
0000
0001
0000
1000
0100
0000
0100
0010
0000
0001
1000
0000
0001
0010
0000
,
0001
0000
1000
0000
0100
1000
0000
1000
0010
0000
0100
0001
0000
0100
0010
0000
,
1000
0000
0001
0000
0100
0010
0000
0010
1000
0000
0100
1000
0000
0001
1000
0000
,
0001
0000
0010
0000
0001
0100
0000
0100
0010
0000
1000
0100
0000
1000
0001
0000
,
1000
0000
0001
0000
0100
0001
0000
0001
0100
0010
0100
0010
1000
0001
1000
0001
,
1000
0000
0100
1000
0000
1000
0001
0000
0100
0000
0001
0010
0000
0001
1000
0000
,
0001
0000
1000
0010
0000
0010
0100
0000
0001
0000
1000
0000
0010
1000
0010
1000
,
0010
0000
0100
0001
0000
0001
1000
0000
0010
0000
1000
0001
0000
0100
0001
0000
,
0010
0000
0001
0100
0000
0100
0010
0000
1000
0000
0001
0000
1000
0001
1000
0001
,
1000
0000
0001
0100
0000
0100
0010
0000
1000
0000
0100
1000
0000
0001
1000
0000
,
0010
0000
1000
0001
0000
0001
0010
0000
0001
0000
1000
0000
0001
1000
0001
1000
,
0001
0000
0100
0010
0000
0010
1000
0000
0100
0000
1000
0001
0000
1000
0010
0000
,
1000
0000
0000
0000
1000
0000
0001
0000
0000
0000
0001
0000
0100
0000
0000
0010
0000
0000
0100
0000
0000
0000
0000
0000
,
0001
0000
1000
0000
0001
0100
0000
0000
0010
0000
1000
0010
0000
1000
0001
0000
,
0100
0000
0001
0000
1000
0010
0000
0000
0100
0000
0001
1000
0000
0100
1000
0000
,
0001
0000
0010
0000
0001
1000
0000
0000
0010
0000
0100
0001
0000
0100
0010
0000
,
1000
0000
0100
0000
0010
0001
0000
0000
1000
0000
0001
1000
0000
0100
1000
0000
,
0001
0000
0010
0000
0001
1000
0000
0000
0100
0000
1000
0010
0000
1000
0001
0000
,
0100
0000
0001
0000
0010
0001
0000
0000
1000
0000
0010
1000
0000
0100
1000
0000
,
0010
0000
0100
0000
0001
0010
0000
0000
0001
0000
1000
0010
0000
1000
0001
0000
,
0100
0000
0001
0000
0010
0001
0000
0001
1000
0000
0100
0000
1000
0001
1000
0001
,
1000
0000
0010
0000
0100
0001
0000
0001
1000
0000
0100
1000
0000
0001
1000
0000
,
0001
0000
0100
0000
0010
1000
0000
1000
0010
0000
0100
0001
0000
0100
0001
0000
,
0010
0000
0001
0000
1000
0100
0000
0100
0010
0000
0001
1000
0000
0100
1000
0000
,
0001
0000
1000
0000
0001
0100
0000
0100
0010
0000
1000
0010
0000
0100
0001
0000
,
0010
0000
0001
0000
1000
0100
0000
0100
0010
0000
0001
1000
0000
0100
1000
0000
,
0001
0000
0100
0000
0001
0010
0000
0010
0100
0000
1000
0001
0000
1000
0010
0000
,
1000
0000
0001
0000
0100
0001
0000
0001
0010
0000
0001
1000
0000
0100
1000
0000
,
0001
0000
0100
0000
0010
1000
0000
1000
0001
0000
0100
0000
0001
1000
0001
1000
,
0001
1100
1000
1001
,
0001
0000
0101
0000
0100
0000
1010
1000
,
0010
0000
0110
0000
0100
0000
0101
0001
,
0010
0011
0001
1001
,
1000
1010
0010
0110
,
0100
0000
0101
0000
0001
0000
0011
0010
,
0100
0000
1100
0000
1000
0000
1001
0001
,
0100
0000
0000
0000
0110
0000
0000
0000
0010
0000
0100
0000
0010
0100
0010
0100
,
0010
0000
0000
0000
;

//---------------dance-single - ----------------
#NOTES:
     dance-single:
     :
     Hard:
     9:
     0.633,0.594,0.333,0.000,0.025:
0000
0000
0000
0000
,
0000
0000
0000
0000
,
0000
0000
0000
0000
,
0000
0000
0000
0000
,
1000
0001
1000
0000
0001
0010
0100
0000
,
0001
0100
1000
0000
0001
1000
0001
0000
,
1000
0100
0010
0000
1000
0010
0001
0000
,
1000
0000
0001
0000
1000
0000
0000
0010
0100
0000
0001
0000
0010
0000
0100
0000
,
1000
0001
0010
1000
0000
1000
0010
0001
,
0000
1000
0100
0001
0100
1000
0001
0100
,
0000
0001
0100
1000
0000
1000
0100
0001
,
1000
0100
0010
0100
1000
0001
0010
0100
,
0000
1000
0010
0001
0000
0001
0010
1000
,
0000
0001
0100
1000
0100
0001
0010
0100
,
0000
1000
0100
0001
0000
0001
0100
1000
,
0010
0100
0001
0010
0100
0010
0001
1000
,
0001
1000
0100
0010
0000
0010
0100
1000
,
0000
1000
0100
0010
0001
0010
0100
1000
,
0000
0001
0010
0100
0000
0100
0010
0001
,
1000
0001
0010
1000
0010
0001
1000
0100
,
0000
1000
0100
0010
0000
1000
0010
0001
,
0000
1000
0100
0001
0100
1000
0001
0010
,
0000
0001
0010
0100
0000
0001
0100
1000
,
0010
1000
0100
0010
0100
1000
0001
1000
,
0010
1000
0100
0010
,
0001
0000
0000
0000
0000
0000
0000
0000
0000
0000
0000
0000
0000
0000
1000
0001
,
1000
0000
0000
0000
0000
0000
0000
0000
0000
0000
0000
0000
0010
0000
0100
0010
,
0100
0001
0000
0000
1000
1000
1000
1000
,
1000
0000
0001
0000
,
1000
0000
0100
0000
,
0010
0000
0000
0000
,
0000
0000
0000
0000
0000
0000
0001
1000
,
0001
1000
0001
1000
,
0001
1000
0001
1000
,
0001
1000
0001
1000
0001
1000
0001
1000
,
0001
0010
0100
1000
0001
0010
0100
1000
,
0010
0110
1000
1100
,
1000
0000
1001
0000
0001
0000
0101
0001
,
0100
0000
0110
0000
0010
0000
1010
1000
,
0100
0000
0101
0000
0100
1000
0100
1000
,
0001
0011
0010
0110
,
0100
0000
1100
0000
1000
0000
1001
0001
,
0100
0000
0110
0000
0010
0000
1010
1000
,
0100
0000
0000
0000
0010
0000
0000
0001
1000
0000
0100
0000
0010
0000
0001
0000
,
1000
0100
0010
1000
0010
0001
0010
1000
,
0010
0001
1000
0100
0010
0001
0010
0100
,
1000
0001
0010
0100
0001
0100
1000
0100
,
0010
0001
1000
0001
0010
0100
0010
0001
,
1000
0100
0001
1000
0001
0100
1000
0010
,
0100
0001
0010
1000
0001
1000
0010
0001
,
1000
0100
0001
0100
1000
0010
0001
0010
,
0100
0001
0010
0100
0010
0001
1000
0100
,
0010
0001
0010
0000
0011
0000
1001
0000
,
0001
1000
0001
0000
1010
0000
1100
0000
,
1000
0100
0010
0000
0011
0000
1001
0000
,
0001
0010
0100
0000
1000
0100
0010
0001
,
1000
0001
0100
0000
0110
0000
1010
0000
,
0010
1000
0010
0000
0110
0000
0101
0000
,
0001
1000
0001
0000
1100
0000
1001
0000
,
1000
0000
0000
0000
1000
0000
0001
0000
0000
0000
0001
0000
0100
0000
0000
0010
0000
0000
0100
0000
0000
0000
0000
0000
,
0001
0010
0100
0010
0001
1000
0010
0000
,
1000
0100
0010
0100
1000
0001
0100
0000
,
0001
0010
1000
0010
0001
1000
0100
0000
,
1000
0100
0001
0100
1000
0001
0010
0000
,
0001
0010
1000
0100
1000
0010
0001
0000
,
1000
0100
0001
0010
0001
0100
1000
0000
,
0001
0010
0100
1000
0100
0010
0001
0000
,
1000
0100
0010
0001
0010
0100
1000
0001
,
1000
0010
0001
0010
0100
0010
1000
0001
,
0010
0001
0100
1000
0100
0010
0100
0001
,
1000
0010
1000
0100
0010
1000
0010
0001
,
0100
0001
0010
0100
0001
0100
1000
0001
,
1000
0010
0001
1000
0100
0001
1000
0001
,
0100
0001
0010
1000
0001
0100
1000
0001
,
1000
0100
0001
0100
1000
0010
0001
0010
,
0100
0001
0010
0100
0010
0001
1000
0100
,
0010
0011
0001
1001
,
1000
0000
1100
0000
1000
0000
1001
0001
,
0100
0000
0110
0000
0010
0000
1010
1000
,
0001
0101
0100
0101
,
0001
0011
0010
0110
,
0100
0000
1100
0000
1000
0000
1001
0001
,
0100
0000
0110
0000
0010
0000
1010
1000
,
0100
0000
1100
0000
1000
0100
0001
1000
,
0001
0000
0000
0000
;

//---------------dance-single - ----------------
#NOTES:
     dance-single:
     :
     Medium:
     7:
     0.474,0.489,0.133,0.017,0.141:
0000
0000
0000
0000
,
0000
0000
0000
0000
,
0000
0000
0000
0000
,
0000
0000
0000
0000
,
1000
0000
1001
0000
0001
0100
0001
0000
,
0100
0000
0110
0000
0010
1000
0010
0000
,
1000
0000
1100
0000
0100
0010
0100
0000
,
0010
0000
0011
0000
0001
1000
0001
1000
,
0001
1000
0100
1000
0000
0001
1000
0001
,
0000
1000
0001
1000
0001
0000
0100
0000
,
0000
0001
0100
0001
0000
0010
0100
0010
,
0001
1000
0001
1000
0100
0000
1000
0000
,
0000
0001
0100
0001
0000
0010
0100
0010
,
0000
0100
1000
0100
0010
0000
0001
0000
,
0000
1000
0001
1000
0000
0001
0010
0001
,
1000
0001
0010
0100
1000
0000
0010
1000
,
0010
0100
0001
0100
0000
0001
1000
0001
,
0000
1000
0100
0010
0100
0000
1000
0000
,
0000
0001
1000
0001
0000
0010
0100
0010
,
0001
1000
0100
1000
0001
0000
0100
0000
,
0000
0010
1000
0010
0000
1000
0001
1000
,
0000
0001
0010
0100
0010
0000
0001
0000
,
0000
1000
0100
1000
0000
0010
1000
0010
,
1000
0001
0010
0100
1000
0000
0001
1000
,
0001
1000
0001
0100
,
0010
0000
0000
0000
0000
0000
0000
0000
0000
0000
0000
0000
0000
0000
1000
0100
,
1000
0000
0000
0000
0000
0000
0000
0000
0000
0000
0000
0000
0001
0000
0100
0010
,
0100
0001
0000
0000
1000
1000
1000
1000
,
1000
0000
0001
0000
,
0100
0000
0010
0000
,
1000
0000
0000
0000
,
0000
0000
0000
0000
0000
0000
0001
1000
,
0001
1000
0001
1000
,
0001
1000
0001
1000
,
0001
0010
0100
1000
,
0001
0010
0001
0000
1000
0001
1000
0001
,
1000
1100
0001
0101
,
0100
0000
0000
0000
0000
0000
0001
0010
,
0001
0000
0000
0000
0000
0000
1000
0001
,
1000
0010
0000
0000
,
1000
0100
0001
0100
,
1000
0000
0000
0000
0000
0000
0001
0100
,
0001
0000
0000
0000
0000
0000
1000
0001
,
1000
0000
0010
0000
0100
0001
0100
0001
,
1000
0000
0010
0000
0000
0100
0000
0000
0001
0000
0000
0010
0000
0000
0001
0000
,
0000
0000
1000
0000
0000
0010
0000
0000
1000
0000
0000
0100
0000
0000
0010
0000
,
0000
0000
0001
0000
0000
1000
0000
0000
0001
0000
0000
0010
0000
0000
0100
0000
,
0000
0000
1000
0000
0000
0010
0000
0000
0100
0000
0000
0001
0000
0000
0010
0000
,
0001
0000
1000
0000
0000
0010
0000
0000
0100
0000
0000
0001
0000
0000
0010
0000
,
0000
0000
0001
0000
0000
1000
0000
0000
0001
0000
0000
0100
0000
0000
0010
0000
,
0000
0000
1000
0000
0000
0100
0000
0000
0010
0000
0000
0001
0000
0000
0100
0000
,
0000
0000
0001
0000
0000
0010
0000
0000
0100
0000
0000
1000
0000
0000
0010
0000
,
0100
0000
0010
0000
1000
0001
1000
0000
,
0100
0000
1000
0000
0001
1000
0001
0000
,
0100
0000
0001
0000
0010
0100
1000
0000
,
0001
0000
1000
0000
0001
0100
0010
0000
,
1000
0000
0001
0000
0010
0001
1000
0000
,
0100
0000
1000
0000
0001
1000
0001
0000
,
1000
0000
0100
0000
0010
0001
0010
0000
,
0002
0000
2003
0000
3010
0100
0010
0000
,
1000
0001
1000
0000
0010
0000
0110
0000
,
0001
0100
0001
0000
1000
0000
1010
0000
,
0010
1000
0010
0000
0100
0000
0101
0000
,
0001
0010
0001
0000
0100
0000
0110
0000
,
0010
1000
0010
0000
1000
0000
1100
0000
,
0100
0010
0100
0000
0010
0000
0011
0000
,
0001
1000
0001
0000
0100
0000
0101
0000
,
0001
1000
0001
0000
1000
0000
1100
0000
,
1000
0000
0001
0000
0000
0010
0000
0000
0100
0000
0000
1000
0000
0000
0010
0000
,
0000
0000
1000
0000
0000
0001
0000
0000
0100
0000
0000
0001
0000
0000
0010
0000
,
0000
0000
0001
0000
0000
1000
0000
0000
0100
0000
0000
1000
0000
0000
0010
0000
,
0000
0000
0100
0000
0000
0001
0000
0000
1000
0000
0000
0010
0000
0000
0100
0000
,
0001
0000
0010
0000
0000
0100
0000
0000
1000
0000
0000
0001
0000
0000
0100
0000
,
0000
0000
0010
0000
0000
1000
0000
0000
0001
0000
0000
1000
0000
0000
0100
0000
,
0000
0000
0010
0000
0000
0001
0000
0000
1000
0000
0000
0001
0000
0000
0100
0000
,
0000
0000
0010
0000
0000
1000
0000
0000
0100
0000
0000
1000
0000
0000
0001
0000
,
0100
0110
0010
1010
,
1000
0000
0000
0000
0000
0000
0001
1000
,
0001
0000
0000
0000
0000
0000
0100
0010
,
0100
0001
0000
0000
,
1000
0010
0001
0010
,
1000
0000
0000
0000
0000
0000
0001
1000
,
0001
0000
0000
0000
0000
0000
1000
0010
,
1000
0000
0001
0000
1000
0100
0010
0001
,
0100
0000
0000
0000
;

//---------------dance-single - ----------------
#NOTES:
     dance-single:
     :
     Easy:
     5:
     0.374,0.419,0.008,0.017,0.008:
0000
0000
0000
0000
,
0000
0000
0000
0000
,
0000
0000
0000
0000
,
0000
0000
0000
0000
,
1000
0001
1000
0010
,
1000
0100
0010
0100
,
1000
0001
0010
0100
,
1000
0001
0100
0001
,
1000
0000
0001
0100
0000
0000
0100
0010
,
0000
0000
0010
1000
0010
0000
1000
0000
,
0001
0000
0010
0001
0000
0000
0001
1000
,
0001
0010
0100
1000
,
0001
0000
1000
0010
0000
0000
0010
0100
,
0000
0000
0100
0001
0100
0000
0001
0000
,
1000
0000
0001
0010
0000
0000
0010
0001
,
0010
0100
1000
0001
,
1000
0100
0001
0100
,
1000
0100
0010
0001
,
0010
0100
1000
0001
,
0010
1000
0010
0001
,
1000
0010
1000
0001
,
0100
0010
0100
0001
,
1000
0100
0010
0100
,
1000
0001
0010
0100
,
1000
0001
1000
0001
,
0100
0000
0000
0000
0000
0000
0000
0000
0000
0000
0000
0000
0000
0000
0010
0100
,
0010
0000
0000
0000
0000
0000
0000
0000
0000
0000
0000
0000
1000
0000
0001
1000
,
0001
0100
0000
0000
0010
0010
0010
0010
,
1000
0000
0100
0000
,
0010
0000
0001
0000
,
1000
0000
0000
0000
,
0000
0000
0000
0000
0000
0000
0001
1000
,
0001
1000
0001
1000
,
0001
1000
0001
1000
,
0001
0010
0100
1000
,
0001
0010
0100
1000
,
1001
0001
1000
0100
,
0010
0000
0000
0000
0000
0000
0001
1000
,
0001
0000
0000
0000
0000
0000
1000
0100
,
1000
0010
0000
0000
,
1000
0001
0010
0100
,
0010
0000
0000
0000
0000
0000
0001
1000
,
0001
0000
0000
0000
0000
0000
1000
0100
,
1000
0010
0100
0001
,
0010
0001
1000
0001
,
1000
0010
0100
0001
,
0010
0100
0010
0001
,
1000
0100
0010
0100
,
1000
0001
1000
0010
,
1000
0100
0010
0100
,
1000
0001
0010
0100
,
1000
0001
0100
0001
,
1000
1000
0010
0100
,
0001
0001
0100
0010
,
0100
0100
0001
0010
,
0100
0100
1000
0001
,
1000
1000
0001
0100
,
0001
0001
0010
0100
,
0010
0010
0001
1000
,
0002
0000
2003
0000
3010
0100
0010
0000
,
1000
0100
0010
0100
,
1000
0001
0010
0100
,
1000
0100
0010
0001
,
1000
0001
0010
0100
,
1000
0100
0010
0100
,
1000
0001
0100
0001
,
1000
0001
0010
0001
,
1000
0001
1000
0100
,
1000
0001
0100
0010
,
0100
0001
1000
0100
,
0010
0001
0010
0100
,
1000
0001
0100
0010
,
0100
0001
1000
0100
,
0001
0100
1000
0010
,
0001
0010
1000
0001
,
0100
0000
0001
0000
0100
0000
0001
1000
,
0001
0100
0010
1000
,
0100
0000
0100
0000
0000
0000
1000
0001
,
1000
0000
1000
0000
0000
0000
0001
0100
,
0001
0010
0000
0000
,
0001
0010
0100
1000
,
0010
0000
0010
0000
0000
0000
1000
0001
,
1000
0000
1000
0000
0000
0000
0001
0100
,
0001
0000
0010
0000
0100
0000
1000
0001
,
1000
0000
0000
0000
;

//---------------dance-single - ----------------
#NOTES:
     dance-single:
     :
     Beginner:
     2:
     0.248,0.314,0.000,0.008,0.000: // measure 1
0000
0000
0000
0000
,  // measure 2
0000
0000
0000
0000
,  // measure 3
0000
0000
0000
0000
,  // measure 4
0000
0000
0000
0000
,  // measure 5
1000
0001
0000
0100
,  // measure 6
0000
0010
0000
1000
,  // measure 7
0001
1000
0000
0010
,  // measure 8
0000
0100
0000
0001
,  // measure 9
1000
0100
0000
0100
,  // measure 10
0000
0100
0010
0001
,  // measure 11
1000
0001
0000
0001
,  // measure 12
1000
0001
1000
0010
,  // measure 13
1000
0010
0000
0010
,  // measure 14
0000
0010
0100
0001
,  // measure 15
1000
0001
0000
0001
,  // measure 16
1000
0001
1000
0010
,  // measure 17
1000
0100
0000
0100
,  // measure 18
0000
0100
0010
0001
,  // measure 19
1000
0010
0000
0010
,  // measure 20
1000
0001
1000
0001
,  // measure 21
0100
0010
0000
0010
,  // measure 22
0000
0010
1000
0001
,  // measure 23
1000
0100
0000
0100
,  // measure 24
0010
0001
1000
0001
,  // measure 25
0100
0010
0100
0010
,  // measure 26
0100
0000
0000
0000
0000
0000
0000
0010
,  // measure 27
0100
0000
0000
0000
0000
0000
0001
1000
,  // measure 28
0001
1000
0000
0000
0001
0000
0001
0000
,  // measure 29
0001
0000
1000
0000
,  // measure 30
0010
0000
0100
0000
,  // measure 31
0001
0000
0000
0000
,  // measure 32
0000
0000
0000
1000
,  // measure 33
0100
0000
0000
0000
,  // measure 34
0000
0000
0000
0010
,  // measure 35
0001
1000
0001
1000
,  // measure 36
0001
0010
0200
0000
,  // measure 37
1300
0100
0000
0010
,  // measure 38
0000
0001
0000
0100
,  // measure 39
0000
0010
0000
1000
,  // measure 40
0000
0001
0000
0100
,  // measure 41
0000
0001
0000
0010
,  // measure 42
0000
0100
0000
1000
,  // measure 43
0000
0001
0000
1000
,  // measure 44
0000
0100
0000
0010
,  // measure 45
0001
0000
1000
0000
,  // measure 46
0001
0100
0001
0000
,  // measure 47
1000
0000
0010
0000
,  // measure 48
1000
0010
1000
0000
,  // measure 49
0010
0000
0100
0000
,  // measure 50
0010
0100
0010
0000
,  // measure 51
1000
0000
0010
0000
,  // measure 52
1000
0010
1000
0000
,  // measure 53
0001
1000
0000
0010
,  // measure 54
0000
0100
0000
0001
,  // measure 55
1000
0001
0000
0100
,  // measure 56
0000
0010
0000
1000
,  // measure 57
0100
1000
0000
0001
,  // measure 58
0000
0100
0000
0001
,  // measure 59
1000
0001
0000
0100
,  // measure 60
0001
0001
1000
0001
,  // measure 61
1000
0000
0100
0000
,  // measure 62
0010
0000
0001
0000
,  // measure 63
1000
0000
0001
0000
,  // measure 64
0010
0000
0100
0000
,  // measure 65
1000
0000
0001
0000
,  // measure 66
1000
0000
0010
0000
,  // measure 67
1000
0000
0001
0000
,  // measure 68
0010
0000
0100
0000
,  // measure 69
1000
0000
0001
0000
,  // measure 70
1000
0001
1000
0000
,  // measure 71
0001
0000
0100
0000
,  // measure 72
0001
0100
0001
0000
,  // measure 73
0100
0000
0010
0000
,  // measure 74
0100
0010
0100
0000
,  // measure 75
0010
0000
1000
0000
,  // measure 76
0010
1000
0010
0000
,  // measure 77
1000
1000
0001
0001
,  // measure 78
0100
0000
0000
0010
,  // measure 79
0100
0000
0000
0001
,  // measure 80
1000
0001
0000
0000
,  // measure 81
1000
1000
0100
0100
,  // measure 82
0010
0000
0000
0001
,  // measure 83
1000
0000
0000
0001
,  // measure 84
0100
0001
0010
0001
,  // measure 85
1000
0000
0000
0000
;
