#TITLE:UFD;
#SUBTITLE:;
#ARTIST:cybermiso;
#TITLETRANSLIT:;
#SUBTITLETRANSLIT:;
#ARTISTTRANSLIT:;
#GENRE:Drum 'n Bass;
#CREDIT:;
#BANNER:banner-alt.png;
#BACKGROUND:bg.png;
#LYRICSPATH:;
#CDTITLE:;
#MUSIC:cybermiso - UFD.mp3;
#OFFSET:-0.040000;
#SAMPLESTART:68.040001;
#SAMPLELENGTH:12.000000;
#SELECTABLE:YES;
#BPMS:0.000000=180.000000
;
#STOPS:
;
#BGCHANGES:;
#KEYSOUNDS:;
#ATTACKS:;

//---------------dance-single - ----------------
#NOTES:
     dance-single:
     :
     Hard:
     9:
     0.610289,0.602251,0.430675,0.159767,0.111142,530.000000,62.000000,23.000000,0.000000,0.000000,0.000000,0.610289,0.602251,0.430675,0.159767,0.111142,530.000000,62.000000,23.000000,0.000000,0.000000,0.000000:
0000
0000
0000
0000
,
0000
0000
0000
0000
,
0000
0000
0000
0000
,
0000
0000
0000
0000
,
0000
0000
0000
0000
,
0000
0000
0000
0000
,
0000
0000
0000
0000
,
0000
0000
0000
0000
,
0010
1000
0100
0001
,
0100
1000
0010
0100
,
0001
0010
0100
1000
,
0010
0100
0001
0010
,
0001
0100
0010
1000
,
0100
0000
1000
0000
0001
0100
0001
0000
,
1000
0000
0100
0000
0010
0001
0100
0000
,
0010
1000
0100
0000
1000
0001
0100
0000
,
0220
0000
0000
0000
,
0000
0000
0000
0330
,
0010
0100
0010
0100
0010
0100
0010
0100
,
0010
0100
0010
0100
0010
0100
1001
0000
,
1000
0100
0001
0000
0101
0000
0100
0010
,
0001
1000
0010
0100
0000
0100
0010
0000
,
1000
0100
0010
0000
0110
0000
0100
1000
,
0001
0100
0010
1000
0000
1000
0001
0000
,
0001
0010
0100
0000
1100
0000
1000
0001
,
0100
0000
0010
0100
0000
0100
0001
0000
,
1000
0001
1000
0001
1000
0001
1000
0001
,
0010
0100
1000
0010
0100
0001
1001
0000
,
1000
0010
0100
0001
0000
0001
0100
0000
,
0010
1000
0100
1000
0000
1000
0001
0000
,
0001
0010
0100
1000
0000
1000
0100
0000
,
0010
0001
0100
0010
0000
0010
0110
0000
,
0100
0001
1000
0100
0000
0100
1000
0000
,
0010
0100
1000
0100
0000
0100
0101
0000
,
0001
0010
1000
0010
0001
0100
1000
0100
,
0001
1000
0001
1000
0001
0000
1001
0000
,
1000
0010
0100
0010
1000
0001
0010
0000
,
0100
1000
0001
0100
0000
0100
0010
0000
,
0100
0001
0010
0001
1000
0100
0010
0000
,
0002
0203
0320
2030
,
3001
1000
0100
0010
0001
1000
0010
0000
,
0100
1000
0100
0001
0000
0001
1000
0000
,
0100
0010
0001
1000
0100
1000
0010
0000
,
0100
0001
0010
0100
,
1000
0100
1000
0001
0000
0001
0100
0000
,
0010
1000
0100
1000
0000
1000
0001
0000
,
0100
0010
0100
0001
0000
0001
1000
0000
,
0200
0302
0203
0320
,
0031
1000
0010
1000
0000
1000
0001
0000
,
0100
0010
0100
0001
0000
0001
1000
0000
,
0100
0001
0100
1000
0010
0001
0010
1000
,
0001
1000
0001
1000
0001
1000
1001
0000
,
1000
0000
0000
0000
1000
0000
0010
0000
0000
0000
0000
0000
0100
0000
0000
0000
0001
0000
0100
0000
0000
0010
0000
0000
,
0110
0000
1001
0000
0100
0010
0100
0000
,
1100
0000
0011
0000
0001
0100
1000
0100
,
0101
0110
1010
1001
,
0010
0001
0010
0000
0100
0000
0000
0000
1000
0000
1000
0000
0001
0000
0000
0000
,
1001
0000
0010
0100
0001
0000
0011
0000
,
0100
1000
0100
1000
0010
0000
0100
0001
,
1001
0110
1010
0101
,
0001
0000
0000
0001
0010
0000
0100
0000
1000
0000
0001
0000
0100
0000
0010
0000
,
0000
0000
0000
0000
0110
0000
0000
0000
0010
0000
1000
0100
1000
0000
0001
0000
,
0100
0000
0010
0000
0100
0000
0000
0001
0000
1000
0000
0000
1100
0000
0000
0000
,
0021
1000
0100
0031
,
0010
0000
0000
0100
1000
0000
0000
0000
0010
0000
0100
0000
0110
0000
0000
0000
,
1010
0000
1000
0001
0000
0000
0011
0000
,
0001
0010
0001
0010
0100
1000
0100
1000
,
0010
0000
0100
0000
0001
0000
1000
0000
0000
0000
0000
1000
0001
0000
0100
0000
,
0010
0000
0110
0000
0100
0001
0000
0011
,
0000
2200
3300
1001
,
0010
0000
0000
0000
0000
0000
0100
0000
0000
0010
0000
0000
0000
0000
0000
0000
0000
0000
0100
0000
0000
0010
0000
0000
0100
0000
0000
0000
0010
0000
0000
0000
0100
0000
0000
0000
0010
0000
0000
0000
0000
0000
1000
0000
0000
0000
0000
0000
,
1200
0010
0001
0310
,
0001
0000
0101
0000
0100
0010
0000
1010
,
0000
0202
0303
1001
,
1000
0000
0000
1000
0001
0000
0000
0000
0010
0000
0100
0000
1000
0000
0001
0000
,
0101
1100
0110
1001
,
0001
0000
0011
0000
0100
1000
0000
1001
,
0000
0202
0303
0110
,
0010
0001
0010
1000
0002
0000
1003
0100
,
0011
0110
1100
1001
,
0010
0000
0000
0010
0100
0000
0001
0000
0100
0000
0010
0000
1010
0000
0000
0000
,
1000
0000
0000
0000
0100
0000
0001
0000
0100
0000
1000
0001
1000
0000
0010
0000
,
0100
0001
1000
0010
0100
0001
0010
0100
,
1000
0000
0100
0000
0001
0000
0100
0000
0000
0000
0000
0100
0010
0000
0001
0000
,
1000
0000
0010
0000
0100
0001
0100
0001
,
0000
0000
0000
0000
1000
0100
1000
0000
0000
0000
0000
0000
0001
0010
0001
0000
,
0100
0000
0010
0000
1000
0100
1000
0001
,
0000
0100
0000
0000
0100
0010
0100
0010
0000
0000
1010
0000
0000
0101
0000
0000
,
1000
0000
0100
0000
0010
0100
1000
0001
,
0000
0000
0000
0000
0100
0001
0100
0000
0000
0000
0000
0000
0010
1000
0010
0000
,
0200
0000
0000
0000
0000
0000
0301
0000
0000
0010
0000
0000
0001
0000
1000
0000
0001
0000
1000
0000
0000
0010
0000
0000
,
0100
0000
0001
0100
0000
0000
0010
0000
1000
0000
0100
0000
0010
0000
0001
0000
,
1000
0000
0010
0000
0001
0010
1000
0100
,
0000
0000
0000
0000
0010
0100
0010
0000
0000
0000
0000
0000
0001
1000
0001
0000
,
1000
1010
0000
0101
0000
0000
0001
0010
,
1100
2010
3001
0101
,
0010
0000
1000
0000
0100
0001
0100
1000
,
1001
0000
0000
0000
0010
0100
0010
0000
0000
0000
0000
0000
1000
0001
1000
0000
,
0001
0010
0100
1000
0010
0100
0001
0010
,
0100
0010
0100
1001
,
0220
0000
0000
0000
,
0000
0000
0000
0000
,
0330
0000
0000
0000
;

//---------------dance-single - ----------------
#NOTES:
     dance-single:
     :
     Challenge:
     10:
     0.733339,0.850236,0.611281,0.291748,0.395943,609.000000,88.000000,42.000000,20.000000,0.000000,0.000000,0.733339,0.850236,0.611281,0.291748,0.395943,609.000000,88.000000,42.000000,20.000000,0.000000,0.000000:
// measure 0
0000
0000
0000
0000
,  // measure 1
0000
0000
0000
0000
,  // measure 2
0000
0000
0000
0000
,  // measure 3
0000
0000
0000
0000
,  // measure 4
0000
0000
0000
0000
,  // measure 5
0000
0000
0000
0000
,  // measure 6
0000
0000
0000
0000
,  // measure 7
0000
0000
0000
0000
,  // measure 8
0001
1000
0001
1000
,  // measure 9
0100
0010
0001
1000
,  // measure 10
0001
0010
0100
1000
,  // measure 11
0001
0100
0010
1000
,  // measure 12
0001
0000
0100
0010
0100
0000
0010
0000
,  // measure 13
1000
0000
0000
0100
0000
0000
0010
0000
0000
0000
0001
0000
0100
0000
0010
0000
,  // measure 14
1000
0000
0100
0000
0010
0000
0001
0100
,  // measure 15
0000
0010
0000
1000
0010
0000
0100
0000
0001
0100
0000
0010
1000
0000
0000
0000
,  // measure 16
2002
0000
0000
0000
,  // measure 17
0000
0000
3003
0000
,  // measure 18
1000
0001
1000
0001
1000
0001
1000
0001
,  // measure 19
1000
0001
1000
0001
1000
0001
1000
0001
0100
0000
0010
0000
0110
0000
0000
0000
,  // measure 20
0100
0000
0101
0001
0000
0000
1001
0000
,  // measure 21
1000
0000
0100
0000
1000
0000
0001
0000
0000
0000
0010
0100
0010
0000
0001
0000
,  // measure 22
0100
0010
0100
0001
0000
0000
1001
0000
,  // measure 23
0100
0000
0220
0000
0330
0000
1001
0001
,  // measure 24
0100
0010
1000
0100
0000
0000
1100
0000
,  // measure 25
0010
0000
0001
0000
0100
0000
0010
0000
0000
0000
0000
0010
1000
0000
0100
0000
,  // measure 26
0010
0001
0010
0000
0001
0100
0001
0000
1000
0100
1000
0000
0010
1000
0010
0000
,  // measure 27
0100
0010
0100
0010
0100
0010
0100
0010
1000
0000
0001
0000
1001
0000
0000
0000
,  // measure 28
0110
0000
1000
0100
0000
0000
0011
0000
,  // measure 29
0001
0000
0010
0000
0100
0000
1000
0000
0000
0000
0000
0010
1000
0000
0001
0000
,  // measure 30
0100
0010
0100
0001
0000
0000
0101
0000
,  // measure 31
0001
0000
0010
0000
0100
0000
1000
0000
0000
0000
0000
1000
0100
0000
1000
0000
,  // measure 32
0100
0001
0100
1000
0000
0000
0011
0000
,  // measure 33
0001
0000
0100
0000
0010
0000
0100
0000
0000
0000
0000
0100
0001
0000
0010
0000
,  // measure 34
0100
1000
0100
1000
0001
0100
0001
0100
,  // measure 35
0010
0100
0010
0100
0010
0100
0010
0200
0000
0000
0300
0010
0100
0000
0110
0000
,  // measure 36
1001
0000
0012
0010
0003
0000
1100
0000
,  // measure 37
1000
0000
0100
0000
0001
0000
0100
0000
0000
0000
0000
0100
0010
0000
0100
0000
,  // measure 38
1000
0000
0010
0000
0100
0000
0001
0000
1000
0100
1000
0000
1001
0000
0000
0000
,  // measure 39
0010
0000
0000
0000
1010
0000
0000
0000
0101
0000
0000
0001
0010
0000
0100
0000
,  // measure 40
1000
0000
0100
0000
0001
0000
0100
0000
1000
0010
1000
0000
0101
0000
0000
0000
,  // measure 41
0001
0000
0010
0000
0100
0000
1000
0000
0000
0000
0000
1000
0001
0000
0100
0000
,  // measure 42
0010
0000
1000
0000
0100
0000
1000
0000
0001
0010
0001
0000
1100
0000
0000
0000
,  // measure 43
0010
0000
0000
0000
0011
0000
1000
0000
0010
0100
0010
0100
0001
0000
0010
0000
,  // measure 44
0100
1000
0010
0100
0000
0000
1001
0000
,  // measure 45
1000
0000
0010
0000
0100
0000
0001
0000
0000
0000
0000
0001
0100
0000
0001
0000
,  // measure 46
0010
0100
1000
0001
0000
0000
1001
0000
,  // measure 47
0200
0320
0032
2003
,  // measure 48
3010
0100
0001
1000
0000
0000
1100
0000
,  // measure 49
0010
0000
0100
0000
0001
0000
1000
0000
0000
0000
0000
1000
0001
0000
0100
0000
,  // measure 50
0010
0100
0001
1000
0100
0010
0001
1000
,  // measure 51
0010
0100
0010
0100
0010
0100
0010
0100
0000
0000
0000
0000
0110
0000
0000
0000
,  // measure 52
1001
0000
0000
1000
0100
0010
0100
0010
0100
0000
1000
0000
1001
0000
0100
0000
,  // measure 53
0010
0000
1000
0100
2000
0000
0000
0000
3010
0000
0100
0001
0200
0000
0000
0000
,  // measure 54
0310
0000
0100
0000
0110
0000
0000
1010
0000
0101
0000
0100
0010
0000
1000
0000
,  // measure 55
1010
0110
0101
1001
,  // measure 56
1000
0100
1000
0100
0001
0000
0000
0000
0101
0000
1100
0000
1002
0000
0000
0000
,  // measure 57
1003
0000
0010
0100
0010
0000
0000
0000
1020
0000
0000
0000
0031
0000
0000
0000
,  // measure 58
0002
0000
0013
0000
2000
0000
3010
0000
0100
0001
0100
0001
1000
0000
0100
0000
,  // measure 59
0011
1100
1010
0102
,  // measure 60
1003
0000
0000
1000
0100
0000
0000
0000
0010
0000
0001
0000
0010
0000
0100
0000
,  // measure 61
1000
0000
0000
0000
2100
0000
0000
0000
3010
0000
0100
0001
0100
0000
0010
0000
,  // measure 62
1000
0000
0000
0000
1100
0000
0000
1000
0000
0010
0000
0100
0001
0000
0010
0000
,  // measure 63
0200
1000
2300
0001
3002
0010
0023
0100
,  // measure 64
0130
0000
0000
0100
1000
0100
1000
0100
0010
0000
0001
0000
0011
0000
0100
0000
,  // measure 65
1000
0000
0010
1000
0020
0000
0000
0000
0130
0000
0001
0100
0002
0000
0000
0000
,  // measure 66
1003
0100
0010
0001
1000
0010
0100
0001
,  // measure 67
1000
0010
1000
0010
0100
0001
0200
0000
0000
0000
0300
0001
1000
0000
0100
0000
,  // measure 68
0110
0000
1001
0000
0100
0010
0000
0110
,  // measure 69
0000
0000
MMMM
0000
0000
0000
0022
0000
0000
0033
0000
0000
0000
0000
MMMM
0000
0000
0000
1100
0000
0000
0000
0000
0000
,  // measure 70
1000
0000
0000
0000
0000
0000
0010
0000
0000
0100
0000
0000
0000
0000
0000
0000
0000
0000
0001
0000
0000
1000
0000
0000
0001
0000
0000
0000
0010
0000
0000
0000
0100
0000
0000
0000
1000
0000
0000
0000
0000
0000
0010
0000
0000
0000
0000
0000
,  // measure 71
0110
0011
1001
1100
,  // measure 72
0100
0000
0011
0000
0010
1000
0000
1100
,  // measure 73
0000
0000
MMMM
0000
0000
0000
2002
0000
0000
3003
0000
0000
0000
0000
MMMM
0000
0000
0000
0110
0000
0000
0000
0000
0000
,  // measure 74
1010
0000
0000
1000
0001
0010
0001
0010
0100
0000
1000
0000
0010
0000
0100
0000
,  // measure 75
0101
1010
1001
0110
,  // measure 76
0100
0000
0011
0000
0100
1000
0000
0011
,  // measure 77
0000
0000
0000
0000
0000
0000
1000
0000
0000
0000
0000
0000
1100
0000
0000
0000
0000
0000
0000
0000
MMMM
0000
0000
0000
0000
0000
0000
0000
0000
0000
0001
0000
0000
1000
0000
0000
0001
0000
0000
0000
0000
0000
0000
0000
0000
0000
0000
0000
,  // measure 78
0200
1300
0200
0301
1001
0000
0110
0000
,  // measure 79
0011
0101
1100
1010
,  // measure 80
0010
0000
0000
0010
0100
0001
0100
0001
1000
0000
0100
0000
0001
0000
0100
0000
,  // measure 81
0010
0000
0001
0010
0001
0000
0000
0000
0100
0000
0010
1000
0010
0000
0000
0000
,  // measure 82
0100
0001
1000
0010
0100
0010
1000
0001
,  // measure 83
1000
0001
1000
0001
1000
0001
2000
0000
0000
0000
3000
0001
1000
0000
0010
0000
,  // measure 84
0200
0000
0300
0000
1001
1000
0010
0100
,  // measure 85
0000
0000
0000
0000
0001
0010
0001
0010
0100
0000
0000
0000
0100
1000
0100
1000
,  // measure 86
0010
0000
0100
0000
1001
0100
0010
0001
,  // measure 87
0000
0000
0000
1000
0001
1000
0001
0010
0000
0000
1100
0000
0000
0011
0000
0000
,  // measure 88
0001
0000
0100
0000
0110
1000
0100
0010
,  // measure 89
0000
0000
0000
0000
0001
0100
0001
0100
0001
0000
0000
0000
1000
0010
1000
0010
,  // measure 90
2000
0000
0000
0000
0000
0000
3010
0000
0000
0100
0000
0000
0001
0000
0100
0000
0010
0000
1000
0000
0000
0000
0000
0000
,  // measure 91
1010
0000
0100
0001
0000
0000
0001
0000
1000
0000
0001
0000
0100
0000
0010
0000
,  // measure 92
1000
0000
0001
0000
1001
0100
0010
0001
,  // measure 93
0000
0000
0000
0000
0100
0010
0100
0010
0100
0000
0000
0000
0001
1000
0001
1000
,  // measure 94
0000
0002
0003
2000
3010
0000
0100
0000
,  // measure 95
1001
2100
3020
0032
,  // measure 96
1003
0000
0100
0001
0100
0000
0010
0000
1010
0000
0100
0000
0010
0000
0001
0000
,  // measure 97
0000
0000
0000
0000
1000
0001
1000
0001
1000
0000
0000
0000
0010
0100
0010
0100
,  // measure 98
0010
1000
0100
0001
0100
0010
0001
1000
,  // measure 99
1010
0101
0210
0310
,  // measure 100
2002
0000
0000
0000
,  // measure 101
0000
0000
0000
0000
,  // measure 102
3003
0000
0000
0000
;

//---------------dance-single - ----------------
#NOTES:
     dance-single:
     :
     Medium:
     7:
     0.455484,0.495971,0.291748,0.250069,0.013893,381.000000,42.000000,36.000000,0.000000,0.000000,0.000000,0.455484,0.495971,0.291748,0.250069,0.013893,381.000000,42.000000,36.000000,0.000000,0.000000,0.000000:
0000
0000
0000
0000
,
0000
0000
0000
0000
,
0000
0000
0000
0000
,
0000
0000
0000
0000
,
0000
0000
0000
0000
,
0000
0000
0000
0000
,
0000
0000
0000
0000
,
0000
0000
0000
0000
,
0010
1000
0100
1000
,
0001
0100
0010
0100
,
0001
0010
0100
1000
,
0010
0100
0001
0000
,
0010
0001
1000
0100
,
0010
0000
0001
1000
0000
1000
0001
0000
,
0100
0010
1000
0100
,
0010
0001
0100
0000
0010
1000
0100
0000
,
0220
0000
0000
0000
,
0000
0000
0330
0000
,
0100
0010
0100
0010
0100
0010
0100
0010
,
0200
0000
0000
0310
,
0100
0000
1000
0010
0000
0000
0101
0000
,
0001
0000
1000
0100
0000
0000
0011
0000
,
0001
0000
0100
0010
0000
0000
1010
0000
,
1000
0000
0100
0010
0000
0000
0110
0000
,
0100
0000
1000
0001
0000
0000
0101
0000
,
0100
0000
0010
1000
0000
0000
1001
0000
,
0001
0000
0010
0100
0000
0000
0110
0000
,
0010
0000
0001
1000
0000
0000
1001
0000
,
1000
0000
0010
0100
0000
0000
0110
0000
,
0100
0000
0001
1000
0000
1000
0001
0000
,
0010
0000
0100
1000
0000
0000
1001
0000
,
0010
0000
0100
0001
0000
0001
1000
0000
,
0100
0000
0010
0001
0000
0000
0011
0000
,
0100
0000
1000
0010
0000
0010
1000
0000
,
0100
0010
0100
0010
0100
0010
0100
0010
,
0200
0000
0000
0310
,
0001
0000
0100
0010
0000
0000
1010
0000
,
1000
0000
0001
1000
0000
1000
0100
0000
,
0010
0000
0100
1000
0000
0000
1001
0000
,
0002
0203
0320
2030
,
3001
0000
0010
0001
0000
0000
0101
0000
,
0100
0000
0010
1000
0000
1000
0100
0000
,
0010
0000
0100
1000
0000
0000
1001
0000
,
0020
0230
0302
2003
,
3100
0000
0010
0001
0000
0000
0101
0000
,
0100
0000
0010
1000
0000
1000
0001
0000
,
0010
0000
0001
0100
0000
0000
0110
0000
,
0020
0230
0302
2003
,
3100
0000
0010
0001
0000
0000
1001
0000
,
1000
0000
0010
0100
0000
0000
0110
0000
,
0100
0010
0100
0010
0100
0010
0100
0010
,
0200
0000
0000
0310
,
0010
0000
1000
0000
0100
1000
0001
0000
,
0010
0000
0001
0000
0000
0001
0100
0000
,
0010
0000
1000
0000
0100
0010
0100
0000
,
2000
3020
0230
0301
,
1000
0000
0100
0000
0010
0001
0010
0000
,
0100
0000
1000
0000
0000
0001
1000
0000
,
0200
0320
0031
1000
,
1010
1010
0101
0101
,
0001
0000
1000
0000
0100
1000
0001
0000
,
0010
0000
0100
0000
1000
0001
1000
0000
,
0010
0000
0100
0000
0001
0010
0100
0000
,
1000
0010
0001
0100
,
1000
0000
0010
0000
1000
0001
0010
0000
,
0001
0000
0100
0000
0000
0100
0010
0000
,
1000
0100
1000
0100
1000
0100
1000
0100
,
0020
0000
0000
0031
,
0001
0000
0100
0000
0010
0000
0000
1010
,
0000
0101
0000
1001
,
0000
1001
0000
0110
0000
0000
0010
0000
,
0100
1000
0010
0100
,
0001
0000
0100
0000
0010
0000
0000
1000
,
0000
1010
0000
0101
,
0001
0000
1000
0000
0001
0010
0100
0000
,
2000
3020
0230
0302
,
0013
0000
0100
0000
0010
0000
0000
0100
,
0000
0110
0000
1001
,
0010
1000
0100
0010
,
0002
0203
0320
2030
,
3010
0100
0001
1000
,
0100
0000
1000
0000
0000
1000
0001
0000
,
0100
0010
0100
0010
0100
0010
0100
0010
,
0200
0000
0000
0310
,
0100
0001
1001
1000
,
0000
0000
0100
1000
0000
0000
1000
0001
,
0100
0010
0100
0001
,
0000
0000
0000
0000
0000
0000
0000
0101
0000
0000
1010
0000
0000
1001
0000
0000
,
0100
0010
0011
0001
,
0000
0000
1000
0001
0000
0000
0001
1000
,
0010
0000
0000
0100
0000
0000
0001
0000
0001
0010
0000
0000
,
0100
0000
0000
0100
0000
0000
0000
0000
1000
0000
0000
0000
0001
0000
0000
0000
,
0100
0010
0110
0100
,
0000
0000
0001
0100
0000
0000
0100
0010
,
0100
0001
1000
0100
,
0010
0120
0130
1001
,
0010
0100
0001
0100
,
0000
0000
0010
1000
0000
0000
1000
0001
,
0010
0100
1000
0010
,
0200
1000
0010
0301
,
2002
0000
0000
0000
,
0000
0000
0000
0000
,
3003
0000
0000
0000
;

//---------------dance-single - ----------------
#NOTES:
     dance-single:
     :
     Easy:
     5:
     0.307625,0.354265,0.083356,0.201445,0.006946,269.000000,12.000000,29.000000,0.000000,0.000000,0.000000,0.307625,0.354265,0.083356,0.201445,0.006946,269.000000,12.000000,29.000000,0.000000,0.000000,0.000000:
0000
0000
0000
0000
,
0000
0000
0000
0000
,
0000
0000
0000
0000
,
0000
0000
0000
0000
,
0000
0000
0000
0000
,
0000
0000
0000
0000
,
0000
0000
0000
0000
,
0000
0000
0000
0000
,
0010
0000
0100
0000
,
0001
0000
1000
0000
,
0100
0000
0010
0000
,
0001
0000
1000
0000
,
0010
0000
0001
0000
,
0100
0000
1000
0000
,
0001
0000
1000
0000
,
0010
0000
0100
0000
,
2002
0000
0000
0000
,
0000
0000
3003
0000
,
0002
0000
0000
0000
,
2000
0000
3003
1001
,
0010
0100
0000
0100
,
0001
1000
0000
1000
,
0100
0001
0000
1000
,
0010
0100
0000
0100
,
1000
0010
0000
0010
,
0100
0001
0000
0001
,
1000
0100
0000
0100
,
0010
0001
0000
0001
,
1000
0001
0000
0001
,
0100
0010
0000
0010
,
1000
0100
0000
1000
,
0001
0100
0000
0010
,
1000
0001
0000
0010
,
0100
1000
0000
0010
,
0200
0000
0000
0000
,
0020
0000
0330
0110
,
0010
1000
0100
0000
,
1000
0000
0000
0001
0000
0000
0100
0000
,
0010
1000
0100
0000
,
1000
0010
0100
0001
,
1000
0100
0010
0000
,
0100
0000
0000
1000
0000
0000
0001
0000
,
0100
0010
1000
0001
,
0010
0100
1000
0001
,
0100
0010
0100
0000
,
1000
0000
0000
0100
0000
0000
0010
0000
,
1000
0001
0010
0000
,
0001
0010
0100
1000
,
0001
0100
0010
0000
,
0100
0000
0000
0001
0000
0000
1000
0000
,
0200
0000
0000
0000
,
0020
0000
0330
0110
,
0100
1000
0100
0000
,
1000
0001
0100
0000
,
0010
1000
0001
0000
,
0020
1000
0100
0031
,
0100
0010
0100
0000
,
0001
1000
0000
1000
,
0010
0100
0001
1000
,
0100
0100
0010
0010
,
0100
1000
0001
0000
,
0100
0110
0100
0100
,
0010
1000
0100
1000
,
0001
0100
0010
1000
,
0001
0010
0000
0010
,
0001
1000
0000
1000
,
0020
0000
0000
0000
,
0200
0000
0330
0110
,
0100
0000
0010
0000
0100
0000
0000
0001
,
0000
1000
0000
0100
,
0000
0010
0000
0010
0100
0000
1000
0000
,
0010
0100
0001
1000
,
0100
0000
0010
0000
0100
0000
0000
1000
,
0000
0001
0000
1000
,
0010
0100
0001
1001
,
1000
0100
0010
0001
,
0100
0000
0010
0000
0100
0000
0000
0001
,
0000
1000
0000
0100
,
0010
0001
0010
0100
,
1000
0010
0001
0100
,
1000
0000
0010
0000
1000
0000
0000
0001
,
0000
1000
0100
0010
,
0002
0000
0000
0000
,
2000
0000
3003
1001
,
2000
0000
3010
0000
,
0000
0200
0301
2000
,
3100
0010
0001
0010
,
0000
0000
0000
0000
0000
0000
0000
0100
0000
0000
0100
0000
0000
0100
0000
0000
,
0020
0000
0031
0000
,
0000
0200
0310
2000
,
3001
0010
0100
1000
,
0002
1003
2000
3001
,
0200
0000
0310
0000
,
0000
0200
0310
0002
,
1003
0010
0100
0001
,
1000
1001
0001
1001
,
0020
0000
0130
0000
,
0000
0020
1030
0002
,
0103
0010
1000
0001
,
0010
0010
0100
0110
,
2002
0000
0000
0000
,
0000
0000
0000
0000
,
3003
0000
0000
0000
;

//---------------dance-single - ----------------
#NOTES:
     dance-single:
     :
     Beginner:
     1:
     0.124042,0.173659,0.006946,0.083356,0.000000,112.000000,1.000000,12.000000,0.000000,0.000000,0.000000,0.124042,0.173659,0.006946,0.083356,0.000000,112.000000,1.000000,12.000000,0.000000,0.000000,0.000000:
0000
0000
0000
0000
,
0000
0000
0000
0000
,
0000
0000
0000
0000
,
0000
0000
0000
0000
,
0000
0000
0000
0000
,
0000
0000
0000
0000
,
0000
0000
0000
0000
,
0000
0000
0000
0000
,
0010
0000
0000
0000
,
0100
0000
0000
0000
,
0001
0000
0000
0000
,
1000
0000
0000
0000
,
0100
0000
0000
0000
,
0010
0000
0000
0000
,
0001
0000
0000
0000
,
1000
0000
0000
0000
,
0020
0000
0000
0000
,
0000
0000
0030
0000
,
0020
0000
0000
0000
,
0000
0000
0000
0030
,
0010
0000
0000
0000
,
0100
0000
0000
0000
,
0001
0000
0000
0000
,
1000
0000
0000
0000
,
0100
0000
0000
0000
,
0010
0000
0000
0000
,
0001
0000
0000
0000
,
2000
0000
0000
3000
,
1000
0000
0000
0000
,
0001
0000
0000
0000
,
0100
0000
0000
0000
,
0010
0000
0000
0000
,
0100
0000
0000
0000
,
0001
0000
0000
0000
,
2000
0000
0000
0000
,
0000
0000
0000
3000
,
1000
0000
0000
0000
,
0100
0000
0000
0000
,
0010
0000
0000
0000
,
0001
0000
0000
0000
,
0100
0000
0000
0000
,
0010
0000
0000
0000
,
0100
0000
0000
0000
,
0001
0000
0000
0000
,
0010
0000
0000
0000
,
0100
0000
0000
0000
,
1000
0000
0000
0000
,
0001
0000
0000
0000
,
0100
0000
0000
0000
,
0010
0000
0000
0000
,
0200
0000
0000
0000
,
0000
0000
0000
0300
,
0100
0000
0100
0000
,
0100
0000
0000
0000
,
0010
0000
0010
0000
,
0020
0000
0030
0000
,
0010
0000
0010
0000
,
0010
0000
0000
0000
,
1000
0000
1000
0000
,
2000
0000
3000
0000
,
0001
0000
0001
0000
,
0001
0000
0000
0000
,
1000
0000
1000
0000
,
2000
0000
3000
0000
,
0100
0000
0100
0000
,
0100
0000
0000
0000
,
0020
0000
0000
0000
,
0000
0000
0000
0030
,
0010
0000
0100
0000
,
0000
0010
0000
0010
,
0000
0000
0100
0000
,
0001
0000
1000
0000
,
0100
0000
0020
0030
,
0000
0100
0000
0100
,
0000
1000
0000
0001
,
0000
0100
0100
0100
,
0000
0100
0000
0010
,
0000
1000
0000
1000
,
1000
0000
1000
0000
,
0010
0010
0010
0000
,
0100
0000
0001
0000
,
1000
0000
0001
0000
,
0020
0000
0000
0000
,
0000
0000
0000
0030
,
0010
0000
0100
0000
,
0000
0000
0100
0000
,
0000
0000
1000
0000
,
0000
0000
0001
0000
,
0000
0000
0100
0000
,
0000
0000
0010
0000
,
0000
0000
0100
0000
,
0001
0000
0001
0000
,
1000
0000
0000
0000
,
0100
0000
0000
0000
,
0010
0000
0000
0000
,
0001
0000
0001
0000
,
1000
0000
0000
0000
,
0010
0000
0000
0000
,
0100
0000
0000
0000
,
0002
0000
0003
0000
,
1001
0000
0000
0000
;
