#VERSION:0.81;
#TITLE:The Quest;
#SUBTITLE:;
#ARTIST:C-Sharp;
#TITLETRANSLIT:;
#SUBTITLETRANSLIT:;
#ARTISTTRANSLIT:;
#GENRE:;
#ORIGIN:;
#CREDIT:;
#BANNER:The Quest-bn.png;
#BACKGROUND:The Quest-bg.png;
#JACKET:;
#CDIMAGE:;
#DISCIMAGE:;
#LYRICSPATH:;
#CDTITLE:;
#MUSIC:The Quest.mp3;
#OFFSET:-0.034;
#SAMPLESTART:56.480;
#SAMPLELENGTH:14.120;
#SELECTABLE:YES;
#BPMS:0.000=136.090,
164.000=135.850,
172.000=136.080,
288.000=135.900;
#STOPS:;
#DELAYS:;
#WARPS:;
#TIMESIGNATURES:0.000=4=4;
#TICKCOUNTS:0.000=4;
#COMBOS:0.000=1;
#SPEEDS:0.000=1.000=0.000=0;
#SCROLLS:0.000=1.000;
#FAKES:;
#LABELS:0.000=Song Start;
#BGCHANGES:0.000=The Quest-bg.png=1.000=0=0=1=====,
99999=-nosongbg-=1.000=0=0=0 // don't automatically add -songbackground-
;
#KEYSOUNDS:;
#ATTACKS:
;

//---------------dance-single - ----------------
#NOTEDATA:;
#CHARTNAME:;
#STEPSTYPE:dance-single;
#DESCRIPTION:;
#CHARTSTYLE:;
#DIFFICULTY:Beginner;
#METER:1;
#RADARVALUES:0.085,0.112,0.007,0.015,0.000,78.000,1.000,2.000,0.000,0.000,0.000,0.000,0.000,0.085,0.112,0.007,0.015,0.000,78.000,1.000,2.000,0.000,0.000,0.000,0.000,0.000;
#CREDIT:;
#OFFSET:-0.034;
#BPMS:0.000=136.090
,164.000=135.850
,172.000=136.080
,288.000=135.900
;
#STOPS:;
#DELAYS:;
#WARPS:;
#TIMESIGNATURES:0.000=4=4
;
#TICKCOUNTS:0.000=4
;
#COMBOS:0.000=1
;
#SPEEDS:0.000=1.000=0.000=0
;
#SCROLLS:0.000=1.000
;
#FAKES:;
#LABELS:0.000=Song Start
;
#NOTES:
0000
0000
0000
0000
,
0000
0000
0000
0000
,
0000
0000
0000
0000
,
0000
0000
0000
0000
,
0000
0000
0000
0000
,
0000
0000
0000
0000
,
0000
0000
0000
0000
,
0000
0000
0000
0000
,
0001
0000
0000
0000
,
0001
0000
0000
0000
,
1000
0000
0000
0000
,
1000
0000
0000
0000
,
0100
0000
0000
0000
,
0100
0000
0000
0000
,
1000
0000
0000
0000
,
2000
0000
0000
3000
,
0001
0000
0000
0001
,
0001
0000
0000
0000
,
1000
0000
0000
1000
,
1000
0000
0000
0000
,
0100
0000
0000
0100
,
0100
0000
0000
0000
,
0010
0000
0000
0010
,
0010
0000
0000
0000
,
0001
0000
0000
0001
,
0001
0000
0000
0000
,
1000
0000
0000
1000
,
1000
0000
0000
0000
,
0100
0000
0000
0100
,
0100
0000
0000
0000
,
0010
0000
0000
0010
,
0010
0000
0000
0000
,
1001
0000
0000
1000
,
1000
0000
0000
0000
,
0010
0000
0000
0100
,
0100
0000
0000
0000
,
0100
0000
0000
0001
,
0001
0000
0000
0000
,
1000
0000
0000
0100
,
0100
0000
0000
0000
,
0010
0000
0000
0000
,
0010
0000
0000
0000
,
0200
0000
0000
0000
,
0000
0000
0300
0000
,
0100
0000
0000
0000
,
0100
0000
0000
0000
,
0100
0000
0000
0000
,
0000
0000
0000
0000
,
1000
0000
0000
0000
,
1000
0000
0000
0000
,
1000
0000
0000
0000
,
0000
0000
0000
0000
,
0001
0000
0000
0000
,
0001
0000
0000
0000
,
0001
0000
0000
0000
,
0010
0000
0000
0000
,
0001
0000
0000
0000
,
0001
0000
0000
0000
,
0001
0000
0000
0000
,
1000
0000
0000
0000
,
0100
0000
0000
0000
,
0100
0000
0000
0000
,
1000
0000
0000
0000
,
1000
0000
0000
0000
,
0010
0000
0000
0000
,
0010
0000
0000
0000
,
1000
0000
0000
0000
,
0001
0000
0000
0000
,
0100
0000
0000
0000
,
0100
0000
0000
0000
,
0010
0000
0000
0000
,
0010
0000
0000
0000
,
1000
0000
0000
0000
,
0001
0000
0000
0000
,
0100
0000
0000
0000
,
0010
0000
0000
0000
,
0100
0000
0000
0000
;

//---------------dance-single - ----------------
#NOTEDATA:;
#CHARTNAME:;
#STEPSTYPE:dance-single;
#DESCRIPTION:;
#CHARTSTYLE:;
#DIFFICULTY:Easy;
#METER:3;
#RADARVALUES:0.170,0.198,0.022,0.029,0.000,155.000,3.000,4.000,0.000,0.000,0.000,0.000,0.000,0.170,0.198,0.022,0.029,0.000,155.000,3.000,4.000,0.000,0.000,0.000,0.000,0.000;
#CREDIT:;
#OFFSET:-0.034;
#BPMS:0.000=136.090
,164.000=135.850
,172.000=136.080
,288.000=135.900
;
#STOPS:;
#DELAYS:;
#WARPS:;
#TIMESIGNATURES:0.000=4=4
;
#TICKCOUNTS:0.000=4
;
#COMBOS:0.000=1
;
#SPEEDS:0.000=1.000=0.000=0
;
#SCROLLS:0.000=1.000
;
#FAKES:;
#LABELS:0.000=Song Start
;
#NOTES:
0000
0000
0000
0000
,
0000
0000
0000
0000
,
0000
0000
0000
0000
,
0000
0000
0000
0000
,
0000
0000
0000
0000
,
0000
0000
0000
0000
,
0000
0000
0000
0000
,
0000
0000
0000
0000
,
0001
0000
0000
0000
,
1000
0000
0000
0000
,
0001
0000
0000
0000
,
1000
0000
0000
0000
,
0010
0000
0000
0000
,
0100
0000
0000
0000
,
0010
0000
0010
0000
,
0100
0000
0100
0000
,
1001
0000
0001
0000
,
1000
0000
1000
0000
,
0100
0000
0100
0000
,
1000
0000
1000
0000
,
0001
0000
0001
0000
,
0010
0000
0010
0000
,
0001
0000
0001
0000
,
1000
0000
1000
0000
,
0100
0000
0100
0000
,
1000
0000
1000
0000
,
0010
0000
0010
0000
,
0100
0000
0100
0000
,
0010
0000
0010
0000
,
1000
0000
1000
0000
,
0001
0000
0001
0000
,
0100
0000
0100
0000
,
0101
0000
0001
0000
,
0010
0000
0001
0000
,
1000
0000
0100
0000
,
1000
0000
0001
0000
,
0010
0000
0001
0000
,
1000
0000
0001
0000
,
0100
0000
0010
0000
,
1000
0001
1000
0001
,
0100
0000
0100
0000
,
0010
0000
0010
0000
,
0200
0000
0010
0000
,
0020
0000
0000
0330
,
0110
0010
0000
0100
,
0010
0100
0000
0001
,
0100
0001
0000
1000
,
0000
1000
0000
0001
,
1000
0001
0000
1000
,
0100
1000
0000
0001
,
0010
0001
0000
0010
,
0000
0010
0000
0100
,
1000
0100
0000
1000
,
0001
1000
0000
0001
,
0100
0001
0000
0100
,
0000
0010
0000
1000
,
0100
1000
0000
0001
,
0010
0001
0000
1000
,
0001
1000
0000
0010
,
0000
0100
0000
0010
,
1000
0100
0000
1000
,
0000
0001
0010
0001
,
1000
0000
0100
0000
,
1000
0001
1000
1000
,
0001
0000
0100
0000
,
0010
1000
0010
0100
,
0010
0000
1000
0000
,
0100
1000
0100
1000
,
0001
0000
0001
0000
,
1000
0000
1000
0001
,
1000
0000
0001
0000
,
0100
0010
0100
0010
,
1000
0000
0001
0000
,
0010
0000
0001
0000
,
1000
0000
0100
0000
,
0010
0000
0002
0000
,
0200
0000
0000
0303
;

//---------------dance-single - ----------------
#NOTEDATA:;
#CHARTNAME:;
#STEPSTYPE:dance-single;
#DESCRIPTION:;
#CHARTSTYLE:;
#DIFFICULTY:Medium;
#METER:6;
#RADARVALUES:0.355,0.395,0.015,0.022,0.000,333.000,2.000,3.000,0.000,0.000,0.000,0.000,0.000,0.355,0.395,0.015,0.022,0.000,333.000,2.000,3.000,0.000,0.000,0.000,0.000,0.000;
#CREDIT:;
#OFFSET:-0.034;
#BPMS:0.000=136.090
,164.000=135.850
,172.000=136.080
,288.000=135.900
;
#STOPS:;
#DELAYS:;
#WARPS:;
#TIMESIGNATURES:0.000=4=4
;
#TICKCOUNTS:0.000=4
;
#COMBOS:0.000=1
;
#SPEEDS:0.000=1.000=0.000=0
;
#SCROLLS:0.000=1.000
;
#FAKES:;
#LABELS:0.000=Song Start
;
#NOTES:
0000
0000
0000
0000
,
0000
0000
0000
0000
,
0000
0000
0000
0000
,
0000
0000
0000
0000
,
0000
0000
0000
0000
,
0000
0000
0000
0000
,
0000
0000
0000
0000
,
0000
0000
0000
0000
,
0001
1000
0000
0001
,
0100
0001
0000
0100
,
0010
0100
0000
0010
,
1000
0010
0000
1000
,
0100
1000
0000
0001
,
0010
0001
0000
1000
,
0010
0010
0100
0100
,
0010
0100
0010
0100
0010
0100
0010
0100
,
0001
1000
0000
0100
,
0010
0001
0000
0010
,
0100
1000
0000
0100
,
0010
0001
1000
0001
,
0100
0001
0000
0100
,
0010
1000
0000
0010
,
0100
0001
0000
0100
,
0001
1000
0010
1000
,
0100
0000
1000
0100
0000
0100
1000
0100
,
0000
0010
0000
0001
0010
0001
0010
0000
,
0001
0000
1000
0001
0000
0001
1000
0000
,
0001
0000
0100
0010
0010
0100
0010
0000
,
1000
0000
0001
1000
0000
1000
0001
0000
,
0010
0000
0100
1000
0100
1000
0001
0000
,
0100
0000
0100
0010
0000
0010
1000
0000
,
0100
1000
0100
0000
1000
0000
0001
0000
,
0011
0000
0010
0001
0000
0001
1000
0001
,
0000
1000
0000
0010
1000
0010
0100
0000
,
0010
0000
1000
0100
0000
0100
0010
0000
,
0001
0000
0010
0100
0100
0010
0100
0000
,
1000
0000
0001
0010
0000
0010
0001
0000
,
1000
0000
0001
0100
0001
0100
0010
0000
,
1000
0000
0010
1000
0000
1000
0100
0000
,
1000
0001
1000
0000
0001
0000
0100
0000
,
0101
0001
0100
0010
,
1000
0100
1000
0001
,
2000
0000
0100
0000
,
0100
0000
3100
0000
,
1000
0100
0000
1000
0100
0000
1000
0000
,
0100
0010
0000
0100
0010
0000
0001
0000
,
1000
0001
0000
1000
0001
0000
1000
0001
,
0000
1000
0001
0000
1000
0001
0000
1000
,
0010
1000
0000
0010
1000
0000
0010
0000
,
1000
0001
0000
1000
0001
0000
0010
0000
,
0100
0010
0000
0100
0010
0000
0100
1000
,
0100
0010
0100
0010
0100
0010
0100
1000
,
0001
0010
0000
0001
0010
0000
0001
0010
,
0001
0010
0000
0100
0010
0000
0001
0010
,
0001
1000
0000
0001
0100
0000
0001
1000
,
0000
0001
0100
0000
0010
0100
0000
0001
,
0100
0001
0000
0100
0010
0000
0100
0001
,
0100
0010
0000
1000
0010
0000
0100
0010
,
1000
0010
0000
1000
0001
0000
1000
0100
,
0000
0010
0100
0000
0010
0001
0000
1000
,
0001
0000
1000
0100
0000
1000
0100
1000
,
0000
0100
0000
0010
0100
0010
0100
0000
,
1000
0000
0001
1000
0000
0001
1000
0000
,
0001
0000
0100
0010
0010
0100
0010
0000
,
1000
0000
0010
1000
0000
0010
1000
0000
,
0100
0000
1000
0100
0010
0100
1000
0000
,
0001
0000
0010
0001
0000
0010
0001
0000
,
1000
0100
1000
0100
1000
0100
1000
0100
,
0010
0000
0001
1000
0000
0001
1000
0001
,
0000
1000
0000
0010
0100
0010
0100
0000
,
0010
0000
1000
0010
0000
1000
0100
0000
,
0010
0000
0001
0010
0010
0001
1000
0000
,
0001
0000
1000
0010
0000
1000
0010
0000
,
0100
0000
0010
0100
0001
0100
0010
0000
,
1000
0010
0100
0001
,
0100
0010
1000
0200
,
0020
0000
0000
0330
;

//---------------dance-single - ----------------
#NOTEDATA:;
#CHARTNAME:;
#STEPSTYPE:dance-single;
#DESCRIPTION:;
#CHARTSTYLE:;
#DIFFICULTY:Hard;
#METER:9;
#RADARVALUES:0.613,0.677,0.044,0.066,0.474,568.000,6.000,9.000,0.000,0.000,2.000,0.000,0.000,0.613,0.677,0.044,0.066,0.474,568.000,6.000,9.000,0.000,0.000,2.000,0.000,0.000;
#CREDIT:;
#OFFSET:-0.034;
#BPMS:0.000=136.090
,164.000=135.850
,172.000=136.080
,288.000=135.900
;
#STOPS:;
#DELAYS:;
#WARPS:;
#TIMESIGNATURES:0.000=4=4
;
#TICKCOUNTS:0.000=4
;
#COMBOS:0.000=1
;
#SPEEDS:0.000=1.000=0.000=0
;
#SCROLLS:0.000=1.000
;
#FAKES:;
#LABELS:0.000=Song Start
;
#NOTES:
0000
0000
0000
0000
,
0000
0000
0000
0000
,
0000
0000
0000
0000
,
0000
0000
0000
0000
,
0000
0000
0000
0000
,
0000
0000
0000
0000
,
0000
0000
0000
0000
,
0000
0000
0000
0000
,
0001
0000
0000
0001
0000
0000
0100
0000
0000
0100
0000
0010
0000
0000
0100
0000
,
0010
0000
0000
0010
0000
0000
1000
0000
0000
1000
0000
0100
0000
1000
0000
0000
,
0100
0000
0000
0100
0000
0000
0010
0000
0000
0010
0000
0100
0000
1000
0000
0000
,
0001
0000
0000
0001
0000
0000
0010
0000
0000
0010
0000
0100
0000
0000
1000
0000
,
0001
0000
0000
0001
0000
0000
1000
0000
0000
1000
0000
0010
0000
0000
0100
0000
,
0010
0000
0000
0010
0000
0000
1000
0000
0000
1000
0000
0100
0000
0000
1000
0000
,
0100
1000
0100
1000
0100
0010
0100
1000
,
0001
0010
0001
0010
0001
0010
0001
0010
0001
1000
0001
1000
0001
1000
0001
1000
,
0001
0100
0000
0100
0001
0000
0001
1000
0000
1000
0001
0000
0010
0000
0100
0000
,
1000
0100
0000
0100
1000
0000
1000
0001
0000
0001
1000
0000
0001
0000
0010
0000
,
0100
0010
0000
0010
0100
0000
0100
1000
0000
1000
0100
0000
0010
0000
0001
0000
,
1000
0001
0000
0001
1000
0000
1000
0010
0000
0010
1000
0000
0001
0000
0010
0000
,
0001
0100
0000
0100
0001
0000
0001
0010
0000
0010
0001
0000
1000
0000
0010
0000
,
1000
0010
0000
0010
0100
0000
0100
0010
0000
0010
1000
0000
0001
0000
0100
0000
,
0001
0010
0000
0010
0001
0000
0001
1000
0000
1000
0100
0000
0010
0000
0001
0000
,
1000
0100
0000
0100
0010
0000
0010
0100
0000
0100
1000
0000
0001
0000
0010
0000
,
0001
0100
0000
0100
0001
0000
0001
0100
0000
0100
0001
0000
0100
0000
0001
0000
,
0100
0010
0000
0010
0100
0000
0100
0010
0000
0010
1000
0000
0100
0000
1000
0000
,
0001
0100
0000
0100
0001
0000
0001
0100
0000
0100
0001
0000
0100
0000
0001
0000
,
0010
0001
0000
0001
0010
0000
0010
0001
0000
0001
1000
0000
0100
0000
0010
0000
,
0100
1000
0000
1000
0100
0000
0100
1000
0000
1000
0100
0000
1000
0000
0100
0000
,
0010
0001
0000
0001
1000
0000
1000
0100
0000
0100
0010
0000
0001
0000
1000
0000
,
0010
1000
0000
1000
0010
0000
0010
1000
0000
1000
0010
0000
1000
0000
0010
0000
,
0100
0010
0000
0010
1000
0000
1000
0001
0000
0001
0010
0000
0100
0000
1000
0000
,
0001
0100
0000
0001
0100
0000
0001
0100
0000
0001
0100
0000
0001
0000
0100
0000
,
0010
0100
0000
0010
0100
0000
0010
1000
0000
0010
0100
0000
0001
0000
1000
0000
,
0001
0100
0000
0001
0100
0000
0001
0100
0000
0001
0100
0000
0001
0000
1000
0000
,
0001
1000
0000
0001
1000
0000
0010
0100
0000
0010
1000
0000
0001
0000
0100
0000
,
0001
0010
0000
0001
0010
0000
0001
0010
0000
0001
0010
0000
0001
0000
0010
0000
,
0100
1000
0000
0100
1000
0000
0100
0010
0000
0100
0010
0000
0100
0000
1000
0000
,
0010
1000
0000
0010
1000
0000
0010
1000
0000
0010
1000
0000
0010
0000
0100
0000
,
0010
1000
0000
0001
1000
0000
0001
0100
0000
0001
1000
0000
0100
0010
0100
0010
,
0100
1000
0002
0013
0001
0100
0020
1030
,
0100
1000
0002
0013
0001
0100
0020
1030
,
0100
0010
0200
0000
1300
0001
2000
0000
,
3010
0100
0020
0000
1030
0001
1000
0100
,
1000
0100
0100
0001
0100
0100
1000
0001
,
1000
0010
0010
0001
0010
0010
1000
0001
,
1000
0100
0100
0001
0100
0100
1000
0010
,
0010
0001
0010
0010
1000
0100
0100
0001
,
1000
0010
0010
0001
0010
0010
1000
0001
,
1000
0100
0100
0001
0100
0100
1000
0001
,
1000
0100
0100
0001
0100
0100
1000
0010
,
0010
0001
0100
0100
1000
0010
0010
0100
,
1000
0100
0100
0001
0010
0010
1000
0001
,
0100
0010
0010
0001
0100
0100
1000
0010
,
1000
0100
0100
0001
0010
0010
1000
0100
,
0100
0001
0010
0010
1000
0100
0100
0010
,
1000
0010
0010
0100
0010
0010
1000
0001
,
0100
0010
0010
0100
0010
0010
1000
0001
,
1000
0010
0010
0001
0100
0100
1000
0010
,
0010
0001
0100
0100
1000
0010
0010
0100
,
1000
0100
0100
0001
0010
0010
0100
0010
,
0001
0010
0010
0001
0100
0100
0010
0001
,
1000
0100
0100
0001
0010
0010
1000
0100
,
0100
0001
0010
0010
1000
0100
0100
0010
,
1000
0010
0010
1000
0010
0010
0100
1000
,
0100
0010
0010
0001
0100
0100
1000
0100
,
0001
0100
0100
0001
0010
0010
1000
0010
,
0010
0000
0004
4000
0000
0000
0000
0000
0000
0000
0000
0000
3003
0000
0000
0000
,
1001
0000
1000
0010
0000
0010
0100
0001
,
0000
0001
0000
0010
0001
0100
0001
0000
,
1001
0000
1000
0010
0000
0010
0100
0000
,
0110
0000
0000
0000
0010
0000
1000
0100
1000
0000
0010
0000
0100
0000
0010
0000
,
0110
0000
0100
0010
0000
0010
1000
0000
,
1100
0000
0100
0001
0100
0010
0100
0000
,
0110
0000
0010
0001
0000
0001
1000
0000
,
0001
0000
1000
0010
1000
0000
0010
0000
0100
0000
0001
0000
0010
0000
0200
0000
,
0020
0000
0000
0330
;

//---------------dance-single - ----------------
#NOTEDATA:;
#CHARTNAME:;
#STEPSTYPE:dance-single;
#DESCRIPTION:;
#CHARTSTYLE:;
#DIFFICULTY:Challenge;
#METER:11;
#RADARVALUES:0.985,0.932,0.397,0.920,1.000,758.000,54.000,125.000,0.000,0.000,2.000,0.000,0.000,0.985,0.932,0.397,0.920,1.000,758.000,54.000,125.000,0.000,0.000,2.000,0.000,0.000;
#CREDIT:;
#OFFSET:-0.034;
#BPMS:0.000=136.090
,164.000=135.850
,172.000=136.080
,288.000=135.900
;
#STOPS:;
#DELAYS:;
#WARPS:;
#TIMESIGNATURES:0.000=4=4
;
#TICKCOUNTS:0.000=4
;
#COMBOS:0.000=1
;
#SPEEDS:0.000=1.000=0.000=0
;
#SCROLLS:0.000=1.000
;
#FAKES:;
#LABELS:0.000=Song Start
;
#NOTES:
// measure 0
0000
0000
0000
0000
,  // measure 1
0000
0000
0000
0000
,  // measure 2
0000
0000
0000
0000
,  // measure 3
0000
0000
0000
0000
,  // measure 4
0000
0000
0000
0000
,  // measure 5
0000
0000
0000
0000
,  // measure 6
0000
0000
0000
0000
,  // measure 7
0000
0000
0000
0000
,  // measure 8
0001
1000
0000
0001
1000
0000
0001
1000
0000
0001
1000
0001
1000
0000
0010
0000
,  // measure 9
0100
0010
0000
0100
0010
0000
0100
0010
0000
0100
0010
0100
0010
0000
1000
0000
,  // measure 10
0001
0100
0000
0001
0100
0000
0001
0100
0000
0001
0100
0001
0100
0000
0001
0000
,  // measure 11
1000
0100
0000
1000
0100
0000
1000
0100
0000
0010
0100
0010
0001
0000
1000
0000
,  // measure 12
0001
1000
0001
1000
0001
1000
0001
1000
0010
1000
0010
1000
0010
1000
0010
1000
,  // measure 13
0010
0100
0010
0100
0010
0100
0010
0100
0001
0100
0001
0100
0001
0100
0001
0100
,  // measure 14
0001
1000
0001
1000
0100
1000
0100
1000
0100
0010
0100
0010
0001
0010
0001
0010
,  // measure 15
0100
1000
0010
0100
0001
0010
0001
0100
0010
1000
0100
0010
0001
0010
0100
0010
,  // measure 16
0002
1000
0000
2003
0100
0000
3200
0010
0000
0310
0001
0010
0100
0010
0001
1000
,  // measure 17
0020
0100
0000
0230
0001
0000
0302
0100
0000
0103
0010
1000
0010
0100
0001
1000
,  // measure 18
0200
0010
0000
0320
0100
0000
0230
1000
0000
1300
0001
0010
0100
1000
0001
0010
,  // measure 19
0200
0010
0000
0320
0001
0000
0032
1000
0000
1003
0010
0100
0010
1000
0001
1000
,  // measure 20
0200
1000
0000
2300
0010
0000
3020
0100
0000
0130
0001
0100
0010
0100
0001
1000
,  // measure 21
0002
0010
0000
0023
0100
0000
0230
0010
0000
0310
0001
1000
0100
0010
0100
1000
,  // measure 22
0200
0010
0000
0320
0001
0000
0032
0010
0000
0013
0100
1000
0100
0010
0001
0010
,  // measure 23
0200
1000
0000
2300
0001
0000
3002
1000
0000
1003
0001
0100
0001
1000
0001
0100
,  // measure 24
0020
1000
0000
2030
0100
0000
3200
1000
0000
1300
0010
0100
0001
0100
0010
1000
,  // measure 25
0002
0100
0000
0203
0001
0000
0302
0010
0000
0013
0100
0010
0001
1000
0100
0010
,  // measure 26
0200
1000
0000
2300
0001
0000
3002
0010
0000
0013
0100
0010
0001
0010
0100
1000
,  // measure 27
0200
0010
0000
0320
0001
0000
0032
1000
0000
1003
0010
0100
0010
1000
0001
1000
,  // measure 28
0200
0010
0000
0320
0001
0000
0032
0010
0000
0013
0001
1000
0100
1000
0001
0100
,  // measure 29
0002
0100
0000
0203
0010
0000
0320
1000
0000
1030
0001
0100
0001
0010
0001
0100
,  // measure 30
0020
1000
0000
2030
0100
0000
3200
0010
0000
0310
0001
0010
0100
1000
0100
0010
,  // measure 31
0200
1000
0000
2300
0001
0000
3002
1000
0000
1003
0010
0100
0010
1000
0010
0100
,  // measure 32
0002
1000
0000
2003
0100
0000
3200
0010
0000
0310
0001
0010
0100
1000
0100
0010
,  // measure 33
0200
0010
0000
0320
0001
0000
0032
1000
0000
1003
0010
0100
0010
1000
0001
1000
,  // measure 34
0200
0010
0000
0320
0001
0000
0032
0010
0000
0013
0100
1000
0001
0100
0010
1000
,  // measure 35
0200
1000
0000
2300
0010
0000
3020
0100
0000
0130
0001
0100
0010
1000
0100
1000
,  // measure 36
0002
0010
0000
0023
0001
0000
0032
0100
0000
0103
0010
1000
0001
0100
0001
0010
,  // measure 37
0200
0010
0000
0320
0001
0000
0032
1000
0000
1003
0100
0010
0001
0100
0010
1000
,  // measure 38
0200
1000
0000
2300
0001
0000
3002
0100
0000
0103
0010
1000
0001
0010
0100
0010
,  // measure 39
0001
1000
0100
0010
0001
0010
0100
1000
0100
0010
0100
1000
0100
0010
0001
0010
,  // measure 40
0100
1000
0001
1000
0000
1000
0010
0000
0010
0100
0001
0100
0000
0100
0010
0000
,  // measure 41
0010
1000
0001
1000
0000
1000
0100
0000
0100
0010
0001
0010
0000
0010
0100
0000
,  // measure 42
1000
0100
0010
0001
0010
0100
1000
0010
,  // measure 43
0100
0001
0100
0010
1000
0100
1000
0001
,  // measure 44
2001
0000
0200
3000
0020
0300
0200
0030
0002
0300
0200
0003
0020
0300
0002
0030
,  // measure 45
2000
0003
0002
3000
0200
0003
0020
0300
0002
0030
0020
0003
0200
0030
0020
0300
,  // measure 46
2000
0030
0200
3000
0002
0300
0200
0003
0020
0300
0002
0030
2000
0003
0020
3000
,  // measure 47
0002
0030
0020
0003
0200
0030
2000
0300
0200
3000
0002
0300
2000
0003
0020
3000
,  // measure 48
0200
0030
0020
0300
2000
0030
0200
3000
0020
0300
0002
0030
0020
0003
2000
0030
,  // measure 49
0020
3000
0200
0030
2000
0300
0002
3000
0200
0003
0020
0300
0200
0030
2000
0300
,  // measure 50
0200
3000
0002
0300
0200
0003
0020
0300
2000
0030
0200
3000
0002
0300
0200
0003
,  // measure 51
1000
0000
1300
0100
0010
0001
1000
0100
0010
0100
1000
0100
0010
0001
1000
0100
,  // measure 52
1100
0010
0001
1100
0010
0001
1100
0100
,  // measure 53
0011
1000
0100
0011
1000
0100
0011
0001
,  // measure 54
0101
0010
1000
0101
0010
1000
0101
1000
,  // measure 55
0100
1100
0010
0001
1100
0010
0001
1001
,  // measure 56
1010
0100
0001
1010
0100
0001
1010
1000
,  // measure 57
1100
0010
0001
0101
0100
0010
1010
1000
,  // measure 58
0101
0001
0010
1100
0010
0001
1010
0100
,  // measure 59
0001
1001
1000
0100
0110
0010
0001
1100
,  // measure 60
1001
0001
0100
1010
0001
0010
1100
0100
,  // measure 61
0110
0010
0001
1100
0100
0010
0011
0001
,  // measure 62
0101
0100
0010
1010
1000
0100
0110
0010
,  // measure 63
0001
1001
1000
0010
0110
0100
0001
0101
,  // measure 64
1001
1000
0010
0101
0100
0010
1010
1000
,  // measure 65
1001
0001
0010
1100
0010
0001
0011
0010
,  // measure 66
0110
0100
1000
0011
0001
0100
1010
0100
,  // measure 67
0001
0000
0001
0100
0010
1000
0001
0100
0010
0100
0001
1000
0001
0010
0100
1000
,  // measure 68
0100
0010
0001
0010
0000
0010
0100
0000
1000
0100
0010
0100
0000
0100
1000
0000
,  // measure 69
0001
1000
0010
1000
0000
1000
0010
0000
1000
0010
0100
0010
0000
0010
1000
0000
,  // measure 70
0001
0100
0010
0100
0000
0100
0001
0000
1000
0001
0010
0001
0000
0001
0010
0000
,  // measure 71
0001
1000
0010
1000
0000
1000
0100
0000
1000
0100
0010
0100
0000
0100
1000
0000
,  // measure 72
0001
0000
0100
0000
0101
0000
0001
0100
0010
0000
1000
0000
1100
0000
0100
1000
,  // measure 73
0001
0000
0010
0000
0011
0000
0010
0001
1000
0000
0010
0000
1010
0000
1000
0001
,  // measure 74
0100
0000
0010
0000
1010
0000
1000
0001
0010
0000
0100
0000
1100
0000
1000
0100
,  // measure 75
0010
0000
0001
0000
1001
0000
1000
0010
0100
0000
0001
0000
0101
0000
0100
0040
,  // measure 76
4000
0000
0000
3030
;
