#TITLE:TEKNOPATHETIC;
#SUBTITLE:;
#ARTIST:長沼英樹;
#TITLETRANSLIT:;
#SUBTITLETRANSLIT:;
#ARTISTTRANSLIT:Hideki Naganuma;
#GENRE:DRUM-N-BASS;
#CREDIT:;
#MENUCOLOR:;
#NEWMETERSYSTEM:NO;
#BANNER:[Round 1 Singles] - TEKNOPATHETIC.png;
#BACKGROUND:[Round 1 Singles] - TEKNOPATHETIC-bg.png;
#LYRICSPATH:;
#CDTITLE:CDTile.png;
#MUSIC:[Round 1 Singles] - TEKNOPATHETIC.ogg;
#OFFSET:-0.375;
#SAMPLESTART:66.380;
#SAMPLELENGTH:12.000;
#SELECTABLE:YES;
#LISTSORT:;
#DISPLAYBPM:80.000:160.000;
#BPMS:0.000=160.000,2.500=320.000,3.000=160.000,10.000=320.000,10.500=160.000,17.500=320.000,18.000=160.000,25.000=320.000,25.500=160.000,26.000=80.000,28.000=160.000,60.000=80.000,76.000=160.000,152.000=80.000,154.000=160.000,238.000=320.000,239.000=160.000,245.000=80.000,248.500=160.000,251.997=160.000,280.000=320.000,281.000=160.000;
#STOPS:2.500=0.281
,10.000=0.281
,17.500=0.281
,25.000=0.281
,226.500=0.188
,228.000=0.188
,229.500=0.188
,233.000=0.188
,234.500=0.188
,236.000=0.188
,238.000=0.186
,239.500=0.188
,241.000=0.188
,242.500=0.188
,244.500=0.188
,248.500=0.188
,280.000=0.188
;
#BGCHANGES:;
#ATTACKS:;

//---------------dance-single - DDRDAIKENKAI----------------
#NOTES:
     dance-single:
     DDRDAIKENKAI:
     Easy:
     4:
     0.290,0.301,0.038,0.015,0.000:
0000
0000
0000
0000
,
0000
0000
0000
0000
,
0000
0000
0000
0000
,
0000
0000
0000
0000
,
0000
0000
0000
0000
,
0000
0000
0000
0000
,
0000
0000
0000
0000
,
0010
0000
1000
0000
0000
0001
0000
0000
,
0100
0000
0000
0010
0000
0000
1000
0000
,
0100
0000
0010
0000
0000
0001
0000
0000
,
0100
0000
0000
0010
0000
0000
1000
0000
,
0100
0000
1000
0000
0000
0010
0000
0000
,
0100
0000
0000
0001
0000
0000
0010
0000
,
0100
0000
1000
0000
0000
0001
0000
0000
,
0100
0000
0000
0010
0000
0000
0100
0000
,
0100
0000
0001
0000
0000
1000
0000
0001
,
0001
0000
1000
0000
0000
0010
0000
1000
,
1000
0000
0010
0000
0000
0100
0000
0001
,
0001
0000
0010
0000
0000
0100
0000
1000
,
1000
0010
1000
0001
,
1000
0000
0001
0000
0000
0100
0100
0000
,
0100
0001
0100
0001
,
0010
0000
0100
0000
0000
1000
1000
0000
,
0001
0100
0010
1000
,
0100
0000
1000
0000
0000
0001
0001
0000
,
0001
0010
0100
1000
,
0001
0001
0000
0000
0000
1000
1000
0000
,
0001
0001
1000
1000
,
0100
0100
0010
0010
,
0001
0001
1000
1000
,
0010
0000
0010
0000
0000
0100
0100
0000
,
0010
0010
1000
1000
,
0001
0001
0100
0100
,
0010
0010
0100
0100
,
0001
0000
0001
0000
0000
1000
1000
0000
,
0010
0100
0010
0100
,
0100
0010
0100
0010
,
1000
0001
1000
0001
,
0001
1000
0001
1000
0001
0000
1000
0000
,
0000
0010
0000
0000
0100
0000
0000
0001
,
0000
0010
0100
1000
,
0000
0010
0000
0000
0100
0000
0000
0001
,
0000
1000
0100
0010
,
0000
0001
0000
0000
0100
0000
0000
0010
,
0000
1000
0010
0100
,
0000
0001
0000
0000
0010
0000
0000
0100
,
0000
1000
0001
0100
,
0010
0000
0000
0100
0000
0000
0001
0000
,
0000
1000
0100
1000
,
0010
0000
0000
0100
0000
0000
0001
0000
,
0000
0100
0010
1000
,
0010
0000
0000
0100
0000
0000
0001
0000
,
0000
1000
0001
0100
,
0010
0000
0000
0100
0000
0000
0001
0000
,
0000
1000
1001
0001
,
1000
0010
0100
0100
,
0100
0100
0110
0000
,
0010
0000
0010
0000
0000
0000
1000
1000
,
0000
1000
0000
0000
0000
0001
0000
0001
,
0000
0000
0000
0100
0100
0000
0100
0000
,
0000
0010
0010
0000
,
1000
1000
2000
3000
0000
0000
0000
0000
,
0000
1001
0001
0000
0100
0000
0010
0000
,
1000
1000
0010
0100
,
0001
0001
0010
0100
,
0010
0100
0010
0100
,
0010
0100
0010
0001
,
0100
0100
0010
1000
,
0100
0100
1000
0001
,
0100
0010
0010
0010
,
1001
0001
0100
0010
,
0100
0000
0001
0000
0010
0000
0000
0001
,
0001
0100
0010
1000
,
0100
0000
0020
0000
0000
0000
0030
0001
,
0001
0100
0001
1000
,
0001
0000
1000
0000
0010
0000
0000
0100
,
0100
0001
1000
0010
,
0100
0010
0010
0010
,
0010
1001
0000
0000
;

//---------------dance-single - DDRDAIKENKAI----------------
#NOTES:
     dance-single:
     DDRDAIKENKAI:
     Medium:
     6:
     0.408,0.421,0.077,0.015,0.000:
0000
0000
0000
0000
,
0000
0000
0000
0000
,
0000
0000
0000
0000
,
0000
0000
0000
0000
,
0000
0000
0000
0000
,
0000
0000
0000
0000
,
0000
0000
0000
0000
,
1000
0000
0001
0100
0000
0010
0000
0000
,
1000
0100
0000
0010
0000
0001
0001
0000
,
1000
0000
0001
0010
0000
0100
0000
0000
,
1000
0010
0000
0100
0000
0001
0001
0000
,
1000
0000
0001
1000
0000
0010
0000
0000
,
1000
0001
0000
0010
0000
0001
0001
0000
,
1000
0000
0010
1000
0000
0100
0000
0000
,
1000
0010
0000
0100
0000
0001
0001
0000
,
1000
0000
0001
0000
0100
0000
0010
1000
,
0100
0000
0010
0000
0001
0000
0010
0100
,
1000
0000
0001
0000
0100
0000
0010
1000
,
0100
0000
1000
0000
0010
0000
0100
0001
,
1000
0100
1000
0001
,
0100
0000
0010
0000
0100
0001
0001
0000
,
1000
0100
0010
0100
,
1000
0000
0001
0000
0100
0010
0010
0000
,
1000
0100
1000
0010
,
0100
0000
0001
0000
0010
0001
0001
0000
,
1000
0100
1000
0001
,
0100
0001
1000
0000
1000
0001
1000
0000
,
0001
0000
1000
0001
1000
0000
0010
0100
,
0010
0000
0100
0001
0200
0000
0301
0000
,
1000
0100
1000
0000
1001
0000
0001
0000
,
0101
0000
0000
1010
0000
0001
0001
0000
,
1000
0000
0001
0010
0001
0000
0010
0100
,
0010
0000
0100
1000
0200
0000
1300
0000
,
0001
1000
0001
0000
1001
0000
1000
0000
,
1010
0000
0000
0101
0000
1000
1000
0000
,
0001
0010
0001
0000
1000
0100
1000
0000
,
0010
0100
0010
0000
1000
0001
1000
0000
,
0001
0100
0001
0000
1000
0010
1000
0000
,
0010
0100
0001
0010
0001
0000
1000
0001
,
0000
1000
0000
0000
0001
1000
0000
0001
,
0000
0100
0100
0000
0010
0000
1000
0100
,
0000
1000
0000
0000
0010
0100
0000
0010
,
0000
0100
0100
0000
0001
0000
0010
0100
,
0000
0010
0000
0000
0001
1000
0000
0100
,
0000
1000
1000
0000
0001
0000
0100
0010
,
0000
0100
0000
0000
0001
0010
0000
0001
,
0100
0000
0001
1000
0001
0000
1000
0000
,
0100
0010
0000
0100
0010
0000
0001
0100
,
0000
0001
0100
0000
0010
0000
1000
0000
,
0001
1000
0000
0001
1000
0000
0100
1000
,
0000
0100
1000
0000
0010
0000
0100
0000
,
0010
1000
0000
0010
1000
0000
0001
0100
,
0000
0001
0100
0000
0001
0000
1000
0000
,
0100
0010
0000
0100
0010
0000
0001
1000
,
0000
0001
1000
0000
0010
0000
1000
0000
,
0100
0001
0010
0010
,
0010
0000
0010
0000
1001
0000
0001
0100
,
0010
1000
0010
1000
0010
0100
0010
0100
,
0000
0001
0000
0010
0100
0010
0100
1000
,
0100
1000
0001
1000
0001
0000
0100
0000
,
0010
0100
0010
0100
0001
0100
0001
0010
,
0001
0010
0100
0000
0000
0000
0000
0000
,
0000
1001
1000
0000
0001
0000
0100
0000
,
0010
1000
0100
0000
1000
0000
0010
0000
,
0100
0100
0001
0000
0010
0000
0100
0000
,
1000
0001
0100
0000
0001
1000
0100
0000
,
1000
0001
0100
0000
0010
0000
0100
0000
,
0010
1000
0100
0000
1000
0000
0010
0000
,
0100
0100
0001
0000
0010
0000
0100
0000
,
1000
0001
0100
0000
0100
0000
0100
0000
,
1001
0000
1000
0000
0001
0100
0001
0000
,
1000
0001
1000
0000
0100
1000
0000
0100
,
0010
0000
0001
0000
0010
0100
0010
0000
,
0100
1000
0100
0000
0010
0000
0001
0100
,
0001
0000
0010
0000
0100
1000
0100
0000
,
1000
0010
1000
0000
1000
0010
0000
0010
,
0100
0000
0001
0000
0010
0000
0001
0100
,
0001
0100
0010
0000
0010
0000
0010
0000
,
0010
1001
0000
0000
;

//---------------dance-single - DDRDAIKENKAI----------------
#NOTES:
     dance-single:
     DDRDAIKENKAI:
     Hard:
     9:
     0.643,0.873,0.177,0.292,0.204:
0000
0000
0000
0000
,
0000
0000
0000
0000
,
0000
0000
0000
0000
,
0000
0000
0000
0000
,
0000
0000
0000
0000
,
0000
0000
0000
0000
,
0000
0000
0000
0000
,
1001
0001
0100
0010
0000
0100
0001
0000
,
1000
0000
0001
0010
0100
1000
1000
0001
,
0101
0000
0010
1000
0000
0100
0010
0000
,
0001
0000
1000
0001
0100
0010
0010
1000
,
1100
0100
1000
0001
0000
0100
0010
0000
,
0100
0000
0001
0010
0001
0100
0100
0010
,
1010
0000
1000
0001
0000
0100
0001
1000
,
0100
0000
0010
0000
0000
0000
0001
0000
1000
0000
0100
0000
1000
0001
1000
0000
,
0002
0000
2003
0000
3200
0010
0300
0010
0100
1000
0200
0310
0000
0000
0001
1000
,
0100
1000
0001
0000
0020
0001
0030
0001
0100
0001
0020
0031
0000
0000
1001
0000
,
0001
0010
0001
0000
2000
0010
3000
0010
0100
0010
2000
3010
0000
0000
1000
0001
,
0100
0010
1000
0000
0020
1000
0030
1000
0100
0001
0100
1000
0010
0001
0020
0000
,
2030
0001
3001
0100
0010
0100
0001
2000
,
0100
3100
0010
0100
2000
3001
0001
0010
,
0002
0100
0103
0010
1000
0100
0010
0200
,
1000
1300
0001
0100
0020
0130
0100
0010
,
2000
0001
3001
1000
0001
0100
0010
0200
,
0001
0301
0010
1000
0020
0031
0001
1000
,
0200
0010
0310
0100
1000
0001
0100
0020
,
0100
0000
0130
0000
0001
0000
1000
0000
0100
0000
1000
0000
0001
1000
0001
0000
,
0100
0000
0010
1000
0100
0000
0010
0100
,
1000
0000
0100
0010
0002
1000
1003
0000
,
0001
0100
0010
0000
1000
0010
0100
0000
,
0110
0000
0010
1010
0000
1000
1000
0001
,
0100
0000
0001
0010
0100
0000
0010
0001
,
0100
0000
0000
0100
0001
0000
1000
0000
0100
0000
1000
0000
0001
0000
0000
0000
,
0100
0010
0100
0000
0010
1000
0100
0000
,
1100
0000
0001
0011
0000
0001
0001
1000
,
0001
0100
0001
0100
0010
1000
0100
0010
,
0001
0100
0001
0100
0001
0010
0100
1000
,
0001
0010
0001
0010
0001
0100
0010
1000
,
0100
0010
0100
0010
0100
1000
0001
0000
1001
0000
0000
0000
0100
0000
0010
0000
,
0000
0010
0100
0000
0001
0000
1000
0001
,
0100
0010
0010
1000
1001
0000
1000
0010
,
0000
0010
1000
0000
0001
0000
1000
0010
,
0100
0001
0001
0100
0101
0000
0100
0001
,
0000
0100
0010
0000
1000
0000
0100
0010
,
0100
1000
1000
0001
0011
0000
0001
0100
,
0000
0010
0100
0010
1000
1100
0000
1000
,
0010
0000
0100
0000
0001
1000
0002
0000
1003
0000
0000
0000
0100
0000
1000
0000
,
0001
0100
0001
1000
0010
0100
1000
0100
,
0000
0001
0001
1000
0100
0000
1000
0001
,
0010
0001
0100
0010
1000
0010
0001
0010
,
0000
0100
0100
0001
1000
0000
0010
0100
,
0001
0010
0100
1000
0100
0001
0100
0010
,
0000
0001
0001
0100
1000
0000
0100
0010
,
1000
0100
0010
0001
0100
1000
0100
1000
,
0100
0000
0001
0000
0100
0000
0001
0000
1000
0000
0001
0000
1001
0000
0000
0001
,
1000
0100
1000
0000
1000
0010
0100
0010
,
0001
0000
0010
0000
0100
0001
1000
0000
2001
0000
3000
0000
0001
0000
0010
0000
,
0100
2000
3001
0100
0010
2000
3100
0100
,
0000
2000
3010
0010
0100
0001
0020
0130
,
1000
0100
0020
0031
1001
0000
0002
0103
,
0100
0010
1000
0020
0130
0001
0010
0002
,
0103
0000
0101
0000
2000
0000
3001
0000
0000
0100
0000
0000
0010
0000
0000
1000
,
0000
0000
1001
0000
1100
0000
1000
0000
0100
0000
0010
0000
0100
0000
0000
0100
,
0000
0000
0000
0100
1000
0000
0001
0000
0100
0000
0010
0000
0100
0000
0000
0100
,
0000
0000
0000
0010
1000
0000
0100
0000
1000
0000
0010
0000
0100
0000
0000
0100
,
0000
0000
0000
0001
0010
0000
0000
0010
0000
0000
0000
0100
1000
0000
0000
1000
,
0000
0000
0000
0001
0100
0000
0010
0000
1000
0000
0100
0000
0010
0000
0000
0010
,
0000
0000
0000
0001
1000
0000
0100
0000
1000
0000
0001
0000
0100
0000
0000
0100
,
0000
0000
0000
0010
1000
0000
0010
0000
0100
0000
0001
0000
0100
0000
0000
0100
,
0000
0000
0000
0001
0010
0000
0100
0000
0010
0000
0100
0000
0010
0000
0100
0000
,
1001
0000
1001
0001
0100
0010
1000
0100
,
0001
1000
0010
0100
1000
0200
0000
1000
,
1300
0001
0010
0001
0100
1000
0100
0001
,
0010
0100
2000
0000
3002
0000
0203
0010
,
0310
0100
1000
0100
0001
0010
0001
0100
,
1000
0100
0010
1000
0100
0020
0000
0001
,
0031
1000
0100
0010
0001
0100
0010
1000
,
0100
0000
0010
0000
0001
0100
0000
0000
0100
1000
0000
0000
1000
0100
0000
0000
,
0100
0001
0000
0000
1001
0000
0000
0000
0000
0000
0000
0000
0000
0000
0000
0000
;

//---------------dance-single - DDRDAIKENKAI----------------
#NOTES:
     dance-single:
     DDRDAIKENKAI:
     Challenge:
     11:
     0.891,1.000,0.569,0.315,0.596: // measure 1
0000
0000
0000
0000
,  // measure 2
0000
0000
0000
0000
,  // measure 3
0000
0000
0000
0000
,  // measure 4
0000
0000
0000
0000
,  // measure 5
0000
0000
0000
0000
,  // measure 6
0000
0000
0000
0000
,  // measure 7
0000
0000
0000
0000
,  // measure 8
1001
0000
0001
0000
0101
0000
0000
0010
1000
0100
0010
0000
0110
0000
0100
0000
,  // measure 9
1000
0000
0010
0000
0110
0000
0001
0010
0001
0010
0100
0000
0100
0000
1000
0000
,  // measure 10
1010
0000
0001
0000
0011
0000
0000
0010
0001
0100
0010
0000
0110
0000
0010
0000
,  // measure 11
1000
0000
0100
0000
0101
0000
0100
0010
0100
0010
0001
0000
0001
0000
0100
0000
,  // measure 12
0110
0000
0010
0000
1010
0000
0000
1000
0001
0100
0001
0000
0101
0000
0001
0000
,  // measure 13
0010
0000
0100
0000
1100
0000
1000
0001
1000
0001
0100
0000
0100
0000
0010
0000
,  // measure 14
1010
0000
0100
0000
0101
0000
0000
1000
0100
1000
0010
0000
0100
0000
0001
0000
,  // measure 15
1000
0000
1001
0000
0100
0000
0001
0000
1001
0000
1001
0000
1000
0001
1000
0000
,  // measure 16
0002
0000
0013
1000
0010
0001
0100
0010
0200
0000
0310
1000
0010
0001
0010
0100
,  // measure 17
0002
0000
1003
0100
1000
0010
0100
0001
2000
0000
3001
0010
0001
0100
0010
1000
,  // measure 18
0002
0000
0000
0000
0013
0000
1000
0000
0010
0000
0001
0000
0010
0000
0100
0000
1000
0002
0000
0000
1003
0000
0001
0000
0100
0000
0010
0000
0100
0000
0001
0000
,  // measure 19
2000
0000
0000
0000
3001
0000
0100
0000
0010
0000
1000
0000
0100
0000
0010
0000
0001
0200
0000
0000
1300
0000
0100
0000
0001
0000
1000
0000
0010
0000
0002
0000
,  // measure 20
0013
0000
1000
0000
1001
0000
0001
0100
0001
0000
0010
0000
0110
0000
0200
0000
,  // measure 21
1300
0000
0001
0000
0101
0000
0001
0100
0002
0000
1003
0000
1000
0000
0001
0000
,  // measure 22
0100
0000
0010
0000
0110
0000
0100
0001
0100
0000
0010
0000
1010
0000
2000
0000
,  // measure 23
3100
0000
0001
0000
0101
0000
0100
1000
0200
0000
0310
0000
0010
0000
0001
0000
,  // measure 24
0100
0000
0010
0000
1010
0000
1000
0100
1000
0000
0001
0000
1001
0000
0002
0000
,  // measure 25
0013
0000
0001
0000
0101
0000
0100
0001
0200
0000
0310
0000
0010
0000
0100
0000
,  // measure 26
0001
0000
1000
0000
1100
0000
0100
0010
0100
0000
1000
0000
1001
0000
0002
0000
,  // measure 27
1003
0000
1100
0000
1000
0000
0001
0000
1001
0000
1001
0000
1000
0001
1000
0000
,  // measure 28
1001
0000
0001
0000
0101
0000
0000
0100
0010
0100
0001
0000
1001
0000
1000
0000
,  // measure 29
0100
0000
0010
0000
0110
0000
0000
0010
0001
0010
0100
0000
1100
0000
1000
0000
,  // measure 30
0010
1010
1000
0000
1001
0100
0010
0000
,  // measure 31
1001
0001
1000
1200
0000
0010
0310
0001
,  // measure 32
0100
0000
1000
0000
1100
0000
0000
0100
0001
0010
0100
0000
0110
0000
0010
0000
,  // measure 33
0001
0100
0000
0010
0100
0000
0010
0000
1000
0100
1000
0000
1010
0000
1000
0000
,  // measure 34
0001
0011
0100
0000
1010
0001
0100
0000
,  // measure 35
0110
0010
1000
1001
0100
1001
0000
0110
,  // measure 36
0100
0000
0001
0000
0010
0000
0001
0100
0001
0100
0010
0000
0100
0000
1000
0000
,  // measure 37
0100
0000
0001
0000
0010
0000
0100
1000
0100
1000
0001
0000
0010
0000
1000
0000
,  // measure 38
0010
0000
0001
0000
1001
0000
0001
0010
0002
0000
0103
0000
0010
1000
0010
1000
,  // measure 39
0100
0100
1000
0010
0100
0001
1000
0000
1001
0000
0001
0000
0200
0000
0010
0000
,  // measure 40
0300
0000
0020
0000
1030
0000
0000
0000
0001
0000
0010
0000
1000
0000
0010
0001
,  // measure 41
0020
0100
0130
1000
1001
0001
0200
0010
,  // measure 42
0300
0000
0020
0000
1030
0000
0000
0000
0001
0000
1000
0000
0100
0000
1000
0010
,  // measure 43
2000
0001
3001
1000
0100
0001
0200
0010
,  // measure 44
0300
0000
0020
0000
0031
0000
0000
0000
1000
0000
0001
0000
0100
0000
0010
1000
,  // measure 45
0020
0001
0031
0010
0100
0001
0020
0100
,  // measure 46
0030
0020
0031
0100
0001
1001
0000
2000
,  // measure 47
3100
0000
0010
0000
0001
1000
0001
0000
2001
0000
3001
0000
1000
0000
0010
0100
,  // measure 48
0001
0000
0010
0000
0001
0100
0001
0100
0010
0000
1000
0000
0001
0000
1000
0100
,  // measure 49
1000
0000
0001
0000
0100
0010
0100
0010
1000
0000
0001
0000
0100
0000
0010
1000
,  // measure 50
0010
0000
0100
0000
0001
0010
0001
0010
0100
0000
1000
0000
0001
0010
0001
0010
,  // measure 51
0100
0000
1000
0000
0001
0100
0001
0100
0010
0000
1000
0000
0100
0000
1000
0010
,  // measure 52
0100
0000
0001
0000
1000
0100
1000
0100
0010
0000
0100
0000
1000
0000
0010
0100
,  // measure 53
0010
0000
1000
0000
0001
0100
0001
0100
0010
0000
1000
0000
0001
0000
1000
0010
,  // measure 54
0100
0000
0001
0000
1000
0100
1000
0100
0010
0000
0010
0001
0100
0000
0100
0010
,  // measure 55
1000
0000
0001
0000
1000
0100
0010
0000
0110
0000
0010
0000
1001
0000
0000
1000
,  // measure 56
0100
1000
0001
0000
0101
0000
0000
0100
0010
0000
1000
0000
0010
0000
1000
0000
,  // measure 57
0010
0000
1000
0000
0100
1000
0001
0000
2000
3001
0100
0000
0001
0000
0010
0000
,  // measure 58
0100
1100
1000
0001
1000
0010
1010
1010
,  // measure 59
0100
0000
0001
1000
0001
0000
1000
0000
0100
0000
0010
0000
0110
0000
0100
0000
,  // measure 60
1000
0000
0001
0000
0100
0000
0110
0000
0110
0000
0000
0000
1000
0100
1000
0000
,  // measure 61
0100
1000
0001
0011
0010
1000
0001
0100
,  // measure 62
1100
0000
0000
0000
1100
0000
0000
0000
0001
1000
0100
0000
2000
0000
3010
0000
0000
0000
0200
0000
0310
0000
0100
0000
0002
0000
0013
0000
0000
0000
0200
0000
,  // measure 63
0310
0001
1001
0000
0101
0000
0001
0000
0010
0000
0100
1000
0010
0000
0100
0000
,  // measure 64
0001
0010
0100
1000
0010
0000
1000
0000
0100
0000
0010
0001
0100
0000
0010
0000
,  // measure 65
1000
0100
0010
0001
0100
0000
0001
0000
0010
0000
0100
1000
0001
0000
0100
0000
,  // measure 66
0010
1000
0001
0100
0010
0000
1000
0000
0010
1000
0001
0100
0010
0000
1000
0000
,  // measure 67
0010
1000
0010
0100
0001
0000
0100
0000
0001
0000
1000
0100
1000
0000
0010
0000
,  // measure 68
1000
0100
1000
0001
0100
0000
0010
0000
1000
0000
0100
0010
0001
0000
1000
0000
,  // measure 69
0001
0010
0100
0010
0001
0000
1000
0000
0001
0000
1000
0100
0010
0000
0100
0000
,  // measure 70
1000
0100
0010
0100
1000
0000
1000
0010
0100
0000
0100
0001
0010
0000
0110
0000
,  // measure 71
2100
0000
0000
0000
3001
0000
1000
0000
0100
0000
1000
0010
1000
0000
0001
0000
,  // measure 72
1000
0100
1000
0010
0100
0000
0001
0000
0010
0000
0002
0000
0000
0000
1000
0000
,  // measure 73
1003
0100
0010
0001
0010
0000
0001
0000
0100
0000
0010
1000
0010
0000
0100
0000
,  // measure 74
0001
0010
0001
0010
0200
0000
1000
0000
2300
0000
3001
0000
0100
0000
0110
0000
,  // measure 75
0110
0000
0010
0000
1010
0000
1000
0000
0001
0000
0010
0100
1000
0000
0001
0000
,  // measure 76
0100
0010
0100
0001
0100
0000
1000
0000
0100
0000
0002
0000
0000
0000
0010
0000
,  // measure 77
0013
0100
1000
0100
0010
0000
0001
0000
0100
0000
0010
1000
0100
0000
0010
0000
,  // measure 78
0001
0100
0001
0010
0100
0000
0100
1000
0010
0000
0010
0100
0001
0000
1000
0000
,  // measure 79
0001
1000
0001
0000
1001
0000
0000
0000
0000
0000
0000
0000
0000
0000
0000
0000
;

//---------------dance-single - ----------------
#NOTES:
     dance-single:
     :
     Beginner:
     1:
     0.189,0.211,0.077,0.031,0.000:
0000
0000
0000
0000
,
0000
0000
0000
0000
,
0000
0000
0000
0000
,
0000
0000
0000
0000
,
0000
0000
0000
0000
,
0000
0000
0000
0000
,
0000
0000
0000
0000
,
1001
0000
0000
0000
,
0100
0000
0100
0000
,
0100
0000
0000
0000
,
0010
0000
0010
0000
,
0010
0000
0000
0000
,
1000
0000
1000
0000
,
1000
0000
0000
0000
,
0001
0000
0001
0000
,
1001
0000
0100
0000
,
0010
0000
0100
0000
,
0001
0000
0010
0000
,
0001
0000
0100
0000
,
0010
0000
1000
0000
,
1000
0000
0001
0001
,
0001
0000
1000
0000
,
0010
0000
0100
0100
,
0100
0000
0001
0000
,
1000
0000
0001
0001
,
0001
0000
1000
0000
,
0100
0000
0010
0010
,
0010
0000
0001
0000
,
0100
0100
0100
0000
,
0010
0000
1000
0000
,
1001
0000
0000
1000
,
1000
0000
0001
0000
,
0100
0100
0100
0000
,
0010
0000
1000
0000
,
1001
0000
0000
0000
,
1000
1000
1000
1000
,
1000
0000
0001
0000
,
0100
0100
0100
0000
,
0010
0010
0010
0000
,
0100
0000
0001
0000
,
1000
1000
1000
0000
,
0100
0000
0010
0000
,
0001
0001
0001
0000
,
1000
0000
0001
0000
,
0100
0100
0100
0000
,
0010
0000
1000
0000
,
0100
0100
0100
0000
,
1000
0000
0001
0000
,
1000
1000
1000
0000
,
0001
0000
1000
0000
,
0001
0001
0001
0000
,
0100
0000
0010
0000
,
0100
0100
0100
0000
,
0100
0000
0010
0010
,
0010
0000
1000
1000
,
1000
0000
0001
0001
,
0001
0000
2002
3003
,
0000
0000
0000
0000
,
0000
0000
0000
0000
,
0000
0000
0110
0110
,
0000
0000
0000
0000
,
1001
2002
0000
3003
,
0000
1001
0000
0001
,
0000
0100
0000
0010
,
0000
1000
0000
0100
,
0000
1000
0000
0100
,
0000
1000
0000
0010
,
0000
0100
0000
0001
,
0000
0010
0000
0100
,
0000
1000
1000
1000
,
1000
1000
0000
0001
,
0000
0100
0000
0100
,
0100
0100
0000
0010
,
0000
1000
0000
0000
,
0001
0001
0000
0001
,
0000
1000
0000
0001
,
0001
0001
0000
0100
,
0000
0010
0010
0010
,
0010
0010
0000
0000
;
