#TITLE:TECHNOFIRE;
#SUBTITLE:;
#ARTIST:BUZZ;
#TITLETRANSLIT:;
#SUBTITLETRANSLIT:;
#ARTISTTRANSLIT:;
#CREDIT:Lisek;
#BANNER:[Round 1 Singles] - TECHNOFIRE.png;
#BACKGROUND:[Round 1 Singles] - TECHNOFIRE-bg.png;
#LYRICSPATH:;
#CDTITLE:cdtitle.png;
#MUSIC:[Round 1 Singles] - TECHNOFIRE.mp3;
#OFFSET:-0.142;
#SAMPLESTART:12.940;
#SAMPLELENGTH:13.000;
#SELECTABLE:YES;
#BPMS:0.000=150.000;
#STOPS:;
#BGCHANGES:;

//---------------dance-single - Lisek----------------
#NOTES:
     dance-single:
     Lisek:
     Hard:
     8:
     0.551,0.590,0.344,0.019,0.316:
0000
0000
0000
0000
,
0000
0000
0000
0000
,
0000
0000
0000
0000
,
0000
0000
0000
0000
,
0001
0100
0010
0100
,
0001
1000
0100
1000
,
0001
0100
0010
0100
,
0001
0000
0000
1000
0000
0000
0010
0000
0000
0100
0000
0000
0100
0000
0010
0000
,
1000
0000
0000
0100
0000
0000
0001
0000
0000
0100
0000
0000
1100
0000
0000
0000
,
0001
0000
0000
0100
0000
0000
1000
0000
0000
0100
0000
0000
0101
0000
0000
0000
,
1000
0000
0000
0100
0000
0000
0001
0000
0000
0100
0000
0000
1100
0000
0000
0000
,
0001
0000
0000
0010
0000
0000
1000
0000
0000
0000
0010
0000
0011
0000
0000
0000
,
0001
0000
0000
0100
0000
0000
0010
0000
0000
1000
0000
0000
1100
0000
0000
0000
,
0100
0000
0000
0010
0000
0000
0001
0000
0000
0100
0000
0000
0110
0000
0000
0000
,
0010
0000
0000
1000
0000
0000
0100
0000
0000
0010
0000
0000
0011
0000
0000
0000
,
0001
0000
0000
1000
0000
0000
0010
0000
0000
0000
1000
0000
1001
0000
0000
0000
,
1100
0000
1100
0000
1000
0100
0010
0001
,
0100
0001
0010
0100
1000
0001
1000
0000
,
0101
0000
0101
0000
0001
0100
0010
1000
,
0100
0010
0100
1000
0010
0100
0001
0000
,
1010
0000
1010
0000
1000
0100
0010
0001
,
0010
0100
0010
0001
0010
0100
1000
0000
,
0011
0000
0011
0000
0001
0010
0100
1000
,
0000
1000
0000
0001
0000
0001
0000
0000
,
1001
0000
0000
0000
1001
0000
0000
0000
1000
0010
1000
0000
0010
0000
0000
0000
,
0100
0001
0010
0100
1000
0010
0100
0000
,
0110
0000
0000
0000
0110
0000
0000
0000
0100
0001
0100
0000
0010
0000
0000
0000
,
0100
0001
1000
0010
0100
0010
1000
0000
,
1010
0000
0000
0000
1010
0000
0000
0000
0010
0100
0010
0000
1000
0000
0000
0000
,
0001
0010
0100
0010
0001
0100
0001
0000
,
0101
0000
0000
0000
0101
0000
0000
0000
0001
0010
0001
0000
0100
0000
0000
0000
,
0010
1000
0001
0000
2002
0000
0000
0000
,
3003
0000
0000
0000
,
0000
0000
1000
0000
0010
0000
0100
0001
0000
0000
1000
0000
0100
0000
0010
0000
,
0100
0000
0000
1000
0000
0000
0000
0000
0000
0000
0001
0000
0100
0000
0010
0000
,
0100
0000
0000
1000
0000
0000
0100
0000
0000
0000
0001
0000
0001
0000
1000
0000
,
0100
0000
0000
0001
0000
0000
0100
0000
1000
0000
0000
0000
0001
0000
0000
0000
,
1001
0000
0001
0000
0100
0000
0010
0100
0000
0000
0001
0000
1000
0000
0100
0000
,
1000
0000
0000
0001
0000
0000
0000
0000
0000
0000
1000
0000
0010
0000
0100
0000
,
0010
0000
0000
0001
0000
0000
0010
0000
0000
0000
1000
0000
1000
0000
0001
0000
,
0100
0000
0000
1000
0000
0000
0001
0000
0010
0000
0000
1000
0000
0000
0001
0000
,
1000
0000
0010
0000
0100
0000
0010
0100
0000
0000
0001
0000
0100
0000
0010
0000
,
1000
0000
0000
0100
0000
0000
0000
0000
1000
0000
0000
0000
0010
0000
0000
0000
,
0100
0000
0000
0010
0000
0000
1000
0000
0000
0000
0100
0000
0010
0000
0001
0000
,
1000
0000
0000
0010
0000
0000
0100
0000
0001
0000
0000
0000
1001
0000
0000
0000
,
0001
0000
0010
0000
0100
0000
0010
0001
0000
0000
1000
0000
0010
0000
0100
0000
,
0010
0000
0000
1000
0000
0000
0000
0000
0001
0000
0000
0000
0100
0000
0000
0000
,
0001
0000
0000
0010
0000
0000
0100
0000
0000
0000
1000
0000
0010
0000
0100
0000
,
0001
0000
0000
0010
0000
0000
0100
0000
1000
0000
0000
0010
0000
0000
0100
0000
,
0001
0100
0000
0001
0100
0000
0010
0000
1000
0000
0100
0000
1000
0000
0001
0000
,
1000
0010
0000
1000
0010
0000
0100
0000
0010
0000
1000
0000
0001
0000
0100
0000
,
0001
0010
0000
0001
0010
0000
0001
0000
1000
0000
0010
0000
0100
0000
0010
0000
,
1000
0000
0000
0100
0000
0000
0010
0000
0000
0001
0000
0000
1000
0000
0010
0000
,
0100
0001
0000
0100
0001
0000
0100
0000
0010
0000
1000
0000
0100
0000
1000
0000
,
0010
1000
0000
0010
1000
0000
0010
0000
0100
0000
0001
0000
1000
0000
0010
0000
,
0100
0010
0000
0100
0010
0000
1000
0000
0001
0000
0100
0000
0001
0000
1000
0000
,
0001
0000
0000
0010
0000
0000
0100
0000
0000
1000
0000
0000
0001
0000
1000
0000
,
0001
0000
0000
1000
0000
0000
0100
0000
0000
0010
0000
0000
0001
0000
1000
0000
,
1010
0000
0000
0000
1010
0000
0000
1000
0000
0000
0010
0000
0100
0000
0001
0000
,
1000
0000
0000
0001
0000
0000
0010
0000
0000
0100
0000
0000
1000
0000
0001
0000
,
0101
0000
0000
0000
0101
0000
0000
0001
0000
0000
0100
0000
0001
0000
1000
0000
,
0010
0000
0000
0100
0000
0000
0010
0000
0000
1000
0000
0000
0001
0000
1000
0000
,
1100
0000
0000
0000
1100
0000
0000
1000
0000
0000
0010
0000
0100
0000
0001
0000
,
0010
0000
0000
0001
0000
0000
0100
0000
0000
0010
0000
0000
1000
0000
0010
0000
,
0110
0000
0000
0000
0110
0000
0000
0010
0000
0000
0100
0000
0001
0000
1000
0000
,
1001
0000
0000
0000
;

//---------------dance-single - ----------------
#NOTES:
     dance-single:
     Lisek:
     Beginner:
     1:
     0.077,0.122,0.115,0.019,0.000:
0000
0000
0000
0000
,
0000
0000
0000
0000
,
0000
0000
0000
0000
,
0000
0000
0000
0000
,
0000
0000
0000
0000
,
0000
0000
0000
0000
,
0000
0000
0000
0000
,
0000
0000
0000
0000
,
0001
0000
0000
0000
,
0100
0000
0000
0000
,
0010
0000
0000
0000
,
1000
0000
0000
0000
,
0001
0000
0000
0000
,
0100
0000
0000
0000
,
0010
0000
0000
0000
,
1000
0000
0000
0000
,
1001
0000
0000
0000
,
0000
0000
0000
0000
,
0110
0000
0000
0000
,
0000
0000
0000
0000
,
1001
0000
0000
0000
,
0000
0000
0000
0000
,
0110
0000
0000
0000
,
0000
0000
0000
0000
,
1001
0000
0000
0000
,
0000
0000
0000
0000
,
0110
0000
0000
0000
,
0000
0000
0000
0000
,
1001
0000
0000
0000
,
0000
0000
0000
0000
,
0110
0000
0000
0000
,
0000
0000
0000
0000
,
0000
0000
0000
0000
,
2000
0000
0000
0000
,
3000
0000
0000
0000
,
0001
0000
0000
0000
,
1000
0000
0000
0000
,
0020
0000
0000
0000
,
0030
0000
0000
0000
,
0100
0000
0000
0000
,
0001
0000
0000
0000
,
1000
0000
0000
0000
,
0100
0000
0000
0000
,
0010
0000
0000
0000
,
0001
0000
0000
0000
,
1000
0000
0000
0000
,
0010
0000
0000
0000
,
0100
0000
0000
0000
,
0001
0000
0000
0000
,
1000
0000
0000
0000
,
0100
0000
0000
0000
,
1000
0000
0000
0000
,
0100
0000
0000
0000
,
0010
0000
0000
0000
,
0001
0000
0000
0000
,
0010
0000
0000
0000
,
0001
0000
0000
0000
,
0000
0000
0000
0000
,
0110
0000
0000
0000
,
0000
0000
0000
0000
,
1001
0000
0000
0000
,
0000
0000
0000
0000
,
0110
0000
0000
0000
,
0000
0000
0000
0000
,
1001
0000
0000
0000
;

//---------------dance-single - ----------------
#NOTES:
     dance-single:
     Lisek:
     Easy:
     2:
     0.142,0.155,0.000,0.067,0.000:
0000
0000
0000
0000
,
0000
0000
0000
0000
,
0000
0000
0000
0000
,
0000
0000
0000
0000
,
0001
0000
0000
0000
,
1000
0000
0000
0000
,
0010
0000
0000
0000
,
0200
0000
0000
0000
,
0301
0000
0000
0000
,
1000
0000
0000
0000
,
0010
0000
0000
0000
,
1000
0000
0000
0000
,
0001
0000
0000
0000
,
0100
0000
0000
0000
,
0001
0000
0000
0000
,
2000
0000
0000
0000
,
3001
0001
0000
0000
,
1000
0000
0001
0000
,
1000
1000
0000
0000
,
0010
0000
0100
0000
,
0010
0010
0000
0000
,
0100
0000
0001
0000
,
0100
0100
0000
0000
,
0000
0000
0000
0000
,
0001
0001
0000
0000
,
1000
0000
0001
0000
,
1000
1000
0000
0000
,
0010
0000
0100
0000
,
0010
0010
0000
0000
,
1000
0000
0010
0000
,
1000
1000
0000
0000
,
0002
0000
0000
0000
,
0003
0000
0000
0000
,
1000
0000
0001
0000
,
1000
0000
0000
0000
,
0001
0000
0100
0000
,
0010
0000
1000
0000
,
0001
0000
1000
0000
,
0001
0000
0000
0000
,
1000
0000
0001
0000
,
0100
0000
0010
0000
,
1000
0000
0100
0000
,
1000
0000
0000
0000
,
0001
0000
0100
0000
,
0010
0000
0100
0000
,
0001
0000
1000
0000
,
0001
0000
0000
0000
,
1000
0000
0100
0000
,
0010
0000
0001
0000
,
1000
0000
0001
0000
,
1000
0000
0001
0000
,
1000
0000
0001
0000
,
2000
0000
0000
0000
,
3010
0000
0100
0000
,
0010
0000
0100
0000
,
0010
0000
0100
0000
,
0020
0000
0000
0000
,
1030
0000
0001
0000
,
1000
0000
0001
0000
,
1000
0000
0001
0000
,
2000
0000
0000
0000
,
3010
0000
0100
0000
,
0010
0000
0100
0000
,
0010
0000
0100
0000
,
0020
0000
0000
0000
,
0030
0000
0000
0000
;

//---------------dance-single - ----------------
#NOTES:
     dance-single:
     Lisek:
     Medium:
     6:
     0.433,0.497,0.296,0.268,0.038: // measure 1
0000
0000
0000
0000
,  // measure 2
0000
0000
0000
0000
,  // measure 3
0000
0000
0000
0000
,  // measure 4
0000
0000
0000
0000
,  // measure 5
1000
0010
1000
0010
,  // measure 6
0100
0001
0100
0001
,  // measure 7
1000
0100
1000
0001
,  // measure 8
2002
0000
0000
3003
,  // measure 9
1000
0010
1000
1100
,  // measure 10
0001
0100
0001
0101
,  // measure 11
0001
0010
0100
1100
,  // measure 12
1000
0010
0100
0101
,  // measure 13
0001
1000
0100
1100
,  // measure 14
1000
0010
0100
0101
,  // measure 15
0001
0010
0100
1100
,  // measure 16
1000
0100
0010
0011
,  // measure 17
1001
0000
1001
0000
1000
0001
1000
0000
,  // measure 18
0001
1000
0001
0000
1000
0001
1000
0000
,  // measure 19
1001
0000
1001
0000
1000
0010
1000
0000
,  // measure 20
0001
0100
0001
0000
1000
0010
1000
0000
,  // measure 21
1001
0000
1001
0000
1000
0100
1000
0000
,  // measure 22
0001
0010
0001
0000
1000
0100
1000
0000
,  // measure 23
1001
0000
1001
0000
0001
0100
0001
0000
,  // measure 24
1000
0010
0000
0100
0000
0010
0000
1000
,  // measure 25
1001
0000
1001
0000
1000
0010
1000
0000
,  // measure 26
0001
0100
0001
1000
0010
0100
0001
0000
,  // measure 27
1001
0000
1001
0000
0001
0100
0001
0000
,  // measure 28
1000
0010
0100
0010
1000
0001
0100
0000
,  // measure 29
1001
0000
1001
0000
1000
0100
1000
0000
,  // measure 30
0001
0100
0010
0100
0001
1000
0001
0000
,  // measure 31
1001
0000
1001
0000
0001
0100
0001
0000
,  // measure 32
1000
0001
1000
0000
2002
0000
0000
0000
,  // measure 33
3003
0000
0000
0000
,  // measure 34
1000
0001
0100
0001
,  // measure 35
2002
3003
0000
0000
,  // measure 36
1000
0000
0000
1000
0000
0000
1000
0000
0000
0000
0000
0000
0010
0000
0000
0000
,  // measure 37
0100
0000
0000
0100
0000
0000
0100
0000
0100
0000
0000
0000
0100
0000
0000
0000
,  // measure 38
0001
0100
0010
1000
,  // measure 39
2002
3003
0000
0000
,  // measure 40
0001
0000
0000
0001
0000
0000
0001
0000
0000
0000
0000
0000
0100
0000
0000
0000
,  // measure 41
0010
0000
0000
0010
0000
0000
0010
0000
0010
0000
0000
0000
0010
0000
0000
0000
,  // measure 42
1000
0001
0100
0001
,  // measure 43
2002
3003
1000
0001
,  // measure 44
1000
0000
0000
0010
0000
0000
1000
0000
0000
0000
0000
0000
0001
0000
0000
0000
,  // measure 45
1000
0000
0000
0001
0000
0000
1000
0000
0001
0000
0000
0000
1000
0000
0000
0000
,  // measure 46
0001
0100
0010
1000
,  // measure 47
2002
3003
0001
1000
,  // measure 48
0001
0000
0000
1000
0000
0000
0001
0000
0000
0000
0000
0000
1000
0000
0000
0000
,  // measure 49
0010
0000
0000
0100
0000
0000
0010
0000
0100
0000
0000
0000
0010
0000
0000
0000
,  // measure 50
2000
0100
0100
3100
,  // measure 51
0002
0100
0100
0103
,  // measure 52
2000
0100
0100
3100
,  // measure 53
0002
0100
0100
0013
,  // measure 54
0200
0010
0010
0310
,  // measure 55
0020
1000
1000
1030
,  // measure 56
0200
0010
0010
0310
,  // measure 57
2000
0010
0010
3001
,  // measure 58
0002
0100
1000
0103
,  // measure 59
2000
0001
0100
3001
,  // measure 60
0002
1000
0100
1003
,  // measure 61
2000
0001
0100
3001
,  // measure 62
0200
0010
0001
0310
,  // measure 63
0020
1000
0100
1030
,  // measure 64
0200
0001
0010
0301
,  // measure 65
0020
0100
1000
0130
,  // measure 66
1001
0000
0000
0000
;
