#TITLE:Swimming Pools (Drank);
#SUBTITLE:;
#ARTIST:Kendrick Lamar;
#TITLETRANSLIT:;
#SUBTITLETRANSLIT:;
#ARTISTTRANSLIT:;
#GENRE:Hip-Hop;
#CREDIT:;
#BANNER:[Round 1 Singles] - Swimming Pools (Drank).png;
#BACKGROUND:;
#LYRICSPATH:;
#CDTITLE:;
#MUSIC:[Round 1 Singles] - Swimming Pools (Drank).mp3;
#OFFSET:-0.173409;
#SAMPLESTART:90.960007;
#SAMPLELENGTH:15.000000;
#SELECTABLE:YES;
#BPMS:0.000000=74.000000
,39.000=71.939
,40.000=74.000
,55.000=76.181
,56.000=74.000
,72.000000=74.532997
,73.000000=74.000000
,75.000000=69.519997
,76.000000=79.096001
,77.000000=65.970001
,78.000000=84.257004
,79.000000=73.473999
,80.000000=74.000000
,110.000000=72.955002
,111.000000=74.000000
;
#STOPS:
;
#BGCHANGES:-0.250=[Round 1 Singles] - Swimming Pools (Drank).avi=1.000=0=0=0=StretchNoLoop====,
99999=-nosongbg-=1.000=0=0=0 // don't automatically add -songbackground-
;
#KEYSOUNDS:;
#ATTACKS:;

//---------------dance-single - ----------------
#NOTES:
     dance-single:
     :
     Easy:
     2:
     0.087870,0.107304,0.023066,0.007689,0.000000,76.000000,3.000000,1.000000,0.000000,0.000000,0.000000,0.087870,0.107304,0.023066,0.007689,0.000000,76.000000,3.000000,1.000000,0.000000,0.000000,0.000000:
0000
0000
0000
0000
,
0000
0000
0000
0000
,
0001
0000
0001
0000
,
0100
0000
0100
0000
,
0010
0000
0010
0000
,
1000
0000
1000
0000
,
0001
0000
0001
0000
,
0010
0000
0010
0000
,
0100
0000
0100
0000
,
1000
0000
1000
0000
,
0001
0000
0000
0001
0000
0000
0000
0000
,
1000
0000
0000
1000
0000
0000
0000
0000
,
0010
0000
0000
0010
0000
0000
0000
0000
,
0100
0000
0000
0100
0000
0000
0000
0000
,
0010
0000
0000
0010
0000
0000
0000
0000
,
1000
0000
0000
1000
0000
0000
0000
0000
,
0001
0000
0000
0001
0000
0000
0000
0000
,
0100
0000
0000
0100
0000
0000
0000
0000
,
0000
0110
0000
0110
,
0000
1001
0000
1000
,
1000
0000
0100
0000
,
1000
0000
0001
0000
,
0100
0000
0001
0000
,
0100
0000
0010
0000
,
1000
0000
0010
0000
,
0001
0000
0010
0000
,
1000
0000
0100
0000
,
0001
0000
0100
0000
,
0010
0000
0000
0010
0000
0000
0000
0000
,
0001
0000
0000
0001
0000
0000
0000
0000
,
0100
0000
0000
0100
0000
0000
0000
0000
,
1000
0000
0000
1000
0000
0000
0000
0000
,
0100
0000
0000
0100
0000
0000
0000
0000
,
0010
0000
0000
0010
0000
0000
0000
0000
,
1000
0000
0000
1000
0000
0000
0000
0000
,
0001
0000
0000
0001
0000
0000
0000
0000
,
0000
0100
0000
0100
,
0000
0010
0000
0010
,
0000
1000
0000
1000
,
0000
0000
0001
0000
0000
0000
0002
0003
;

//---------------dance-single - ----------------
#NOTES:
     dance-single:
     :
     Beginner:
     1:
     0.064804,0.061316,0.000000,0.130706,0.000000,42.000000,0.000000,17.000000,0.000000,0.000000,0.000000,0.064804,0.061316,0.000000,0.130706,0.000000,42.000000,0.000000,17.000000,0.000000,0.000000,0.000000:
0000
0000
0000
0000
,
0000
0000
0000
0000
,
1000
0000
0000
0000
,
1000
0000
0000
0000
,
0001
0000
0000
0000
,
0001
0000
0000
0000
,
0010
0000
0000
0000
,
0010
0000
0000
0000
,
0100
0000
0000
0000
,
0100
0000
0000
0000
,
2000
0000
0000
3000
0000
0000
0000
0000
,
2000
0000
0000
3000
0000
0000
0000
0000
,
0002
0000
0000
0003
0000
0000
0000
0000
,
0002
0000
0000
0003
0000
0000
0000
0000
,
0200
0000
0000
0300
0000
0000
0000
0000
,
0200
0000
0000
0300
0000
0000
0000
0000
,
0020
0000
0000
0030
0000
0000
0000
0000
,
0020
0000
0000
0030
0000
0000
0000
0000
,
0000
1000
0000
0000
,
0000
0001
0000
0000
,
0010
0000
0000
0000
,
0010
0000
0000
0000
,
0001
0000
0000
0000
,
1000
0000
0000
0000
,
0100
0000
0100
0000
,
0100
0000
0100
0000
,
1000
0000
1000
0000
,
0001
0000
0001
0000
,
0200
0000
0000
0300
0000
0000
0000
0000
,
0200
0000
0000
0300
0000
0000
0000
0000
,
0020
0000
0000
0030
0000
0000
0000
0000
,
0020
0000
0000
0030
0000
0000
0000
0000
,
2000
0000
0000
3000
0000
0000
0000
0000
,
2000
0000
0000
3000
0000
0000
0000
0000
,
0002
0000
0000
0003
0000
0000
0000
0000
,
0002
0000
0000
0003
0000
0000
0000
0000
,
0000
0010
0000
0000
,
0000
0010
0000
0000
,
0000
0100
0000
0000
,
0000
0000
0200
0000
0000
0000
0000
0300
;

//---------------dance-single - ----------------
#NOTES:
     dance-single:
     :
     Hard:
     9:
     0.628267,0.691972,0.115329,0.130706,1.000000,540.000000,15.000000,17.000000,0.000000,0.000000,0.000000,0.628267,0.691972,0.115329,0.130706,1.000000,540.000000,15.000000,17.000000,0.000000,0.000000,0.000000:
// measure 0
0000
0000
0000
0000
,  // measure 1
0000
0000
0000
0000
0000
0000
0000
0000
0000
0000
0000
0000
0000
0001
1000
0001
,  // measure 2
0100
0000
0010
0000
1000
0000
0100
0000
0010
0000
0100
0000
1000
0001
1000
0000
0010
0000
0010
0000
1000
0000
0001
0000
0010
0000
0100
0010
0100
0000
1000
0000
,  // measure 3
0001
0000
0001
0000
0100
0000
0000
0000
0010
0000
0100
0000
0010
1000
0010
0000
1000
0000
0100
0000
0010
0000
0100
0000
1000
0000
0100
1000
0001
0000
0100
0000
,  // measure 4
0010
0000
1000
0000
0001
0000
0000
0000
0010
0000
0001
0010
0001
0000
1000
0000
0010
0000
1000
0000
0100
0000
0001
0000
0100
0000
0010
0100
0010
0000
0001
0000
,  // measure 5
1000
0010
0100
0010
1000
1000
0001
0010
0100
0010
0001
1000
0010
0100
0010
0100
,  // measure 6
0001
0000
0001
0000
1000
0000
0000
0000
0001
0000
0001
0000
0100
0000
0000
0000
0001
0000
1000
0001
1000
0000
0100
0000
1000
0000
1000
0000
0001
0000
0000
0000
,  // measure 7
0100
0000
0010
0100
0020
0000
0000
0000
1030
0000
0010
0100
0001
0000
1000
0000
0100
0000
0010
0000
0010
0000
0001
0000
1000
0000
1000
0000
0010
0000
0000
0000
,  // measure 8
1000
0000
0001
0000
1000
0000
0100
0000
0010
0000
0100
0000
0000
0000
1000
0100
0001
0000
1000
0000
0010
0000
0100
0000
1000
0000
0000
0000
0001
0000
0001
0000
,  // measure 9
0100
0000
0010
1000
0100
0000
0010
0000
0100
0000
0000
0000
1000
0000
1000
0000
0001
0000
0100
0000
1000
0000
0100
0000
0002
0000
0010
0000
0010
0000
0000
0000
,  // measure 10
1003
1000
0001
0100
0010
0010
1000
0001
0010
0010
0100
0000
0110
0000
0100
1000
,  // measure 11
0010
0010
0100
0001
1000
1000
0100
0010
0100
0000
0010
0010
0100
0010
0001
1000
,  // measure 12
0010
0000
0100
0100
0001
0100
0010
1000
0002
0000
0000
0000
1003
0000
0011
0000
,  // measure 13
0001
0000
0010
0010
0100
1000
0001
0100
2000
0000
0000
0000
3100
0000
0100
0100
,  // measure 14
0010
0000
0000
0010
0000
0000
1000
0000
0000
0000
0000
0000
0010
0000
0000
0010
0000
0000
1000
0000
0000
0001
0000
0000
0010
0000
0000
0100
0000
0000
0010
0000
0000
0000
0000
0000
0011
0000
0000
0000
0000
0000
0000
0000
0001
0000
1000
0000
,  // measure 15
0100
0000
0000
0000
0000
0000
0010
0000
0000
0100
0000
0000
0010
0000
0000
0000
0000
0000
0001
0000
0000
0000
0000
0000
1001
0000
0000
0000
0000
0000
0001
0000
0000
0000
0100
0000
0001
0000
0000
1000
0000
0000
0100
0000
0000
1000
0000
0000
,  // measure 16
0010
0000
0100
0100
0010
0100
0001
1000
0000
0200
0000
0000
0310
0000
1001
0001
,  // measure 17
0001
0000
0100
0100
0001
0100
0010
1000
0200
0000
0000
0000
0310
0000
1001
0000
,  // measure 18
1000
0100
0000
0000
0110
0000
0000
0000
0010
0001
0000
0000
1001
0000
0000
0000
,  // measure 19
1000
0010
0000
0000
0110
0000
0000
0000
0100
0001
0000
0000
1000
0000
0000
0000
,  // measure 20
0100
0000
0000
0000
0000
0000
1000
0000
0000
1000
0000
0000
0001
0000
0000
0000
0000
0000
0100
0000
0000
0000
0010
0000
0100
0000
0010
0000
1000
0000
0001
0000
0010
0000
0100
0000
0010
0000
0001
0000
0010
0000
0001
0000
1000
0000
0000
0000
,  // measure 21
0010
0000
0000
0100
0000
0010
0100
0001
1000
0100
1000
0001
0010
0001
0100
0010
1000
0100
0010
0100
0010
0001
1000
0000
,  // measure 22
0010
0000
0100
0010
1000
0001
0010
0100
0010
0001
1000
0010
0100
0010
1000
0001
0010
1000
0001
0100
1000
0010
0100
0000
,  // measure 23
0010
0000
1000
0010
1000
0001
0100
0001
0100
0010
1000
0001
0010
0001
0010
0100
1000
0001
0100
0010
1000
0100
0010
0100
,  // measure 24
1000
0001
0100
0001
1000
0100
1000
0000
0000
0001
0100
0001
1000
0100
1000
0001
0000
0000
1000
0010
1000
0001
0010
0001
,  // measure 25
1000
0010
0100
0001
0010
0100
1000
0100
0001
1000
0010
0001
1000
0010
1000
0001
0000
0000
0100
0001
0010
1000
0001
0100
,  // measure 26
1000
0000
0000
0010
1000
0001
0100
1000
0001
0010
0000
0100
0010
1000
0001
0010
0000
0100
0010
0100
1000
0001
1000
0001
,  // measure 27
0100
0000
0010
0000
1000
0000
0001
0000
1000
0000
0100
0000
1000
0000
0100
0000
0010
0000
0001
0000
1000
0000
0001
0000
0100
0000
0010
0000
0100
0000
0001
0000
0010
0000
0100
0000
1000
0000
0000
0001
0000
0000
0001
0000
0000
0000
0000
0000
,  // measure 28
0100
0100
0001
0100
0010
0010
1000
0001
0010
0010
0100
0000
0110
0000
0100
0100
,  // measure 29
1000
0001
0100
0001
1000
0010
0100
0001
1000
0000
0100
0100
0010
0100
1000
0010
,  // measure 30
0100
0000
0001
0001
0100
0001
1000
0100
0020
0000
0000
0000
0130
0000
1001
0000
,  // measure 31
0001
0000
0100
0100
0001
0100
0010
1000
0002
0000
0000
0000
0013
0000
0001
0100
,  // measure 32
1000
0000
0000
1000
0000
0000
0100
0000
0000
0000
0000
0000
0010
0000
0000
0010
0000
0000
0100
0000
0000
0001
0000
0000
1000
0000
0000
0100
0000
0000
0010
0000
0000
0000
0000
0000
0110
0000
0000
0000
0000
0000
0000
0000
0100
0000
1000
0000
,  // measure 33
0100
0000
0000
0000
0000
0000
1000
0000
0000
1000
0000
0000
0010
0000
0000
0000
0000
0000
0100
0000
0000
0000
0000
0000
0110
0000
0000
0000
0000
0000
0100
0000
0000
0000
0001
0000
1000
0000
0000
1000
0000
0000
0100
0000
0000
0001
0000
0000
,  // measure 34
0100
0000
0010
0010
0100
1000
0010
0100
0000
0002
0000
0000
1003
0000
0001
0100
,  // measure 35
0100
0000
0010
0100
0001
1000
0100
0010
0200
0000
0000
0000
0310
0000
1001
0000
,  // measure 36
1000
0100
0000
0000
0100
0010
0100
2000
0001
0000
0001
0000
3010
0000
0000
0000
,  // measure 37
1000
0010
0000
0010
0100
0100
0001
1000
0002
1000
0000
0000
0013
0000
0000
0000
,  // measure 38
0001
0010
0200
0000
0310
0100
1000
0002
1000
1000
0000
0000
0103
0000
0000
0000
,  // measure 39
0001
0100
0000
0100
0010
1000
0001
1000
0200
0010
0000
0000
0310
0000
2002
0000
,  // measure 40
3003
0000
0000
0000
;

//---------------dance-single - ----------------
#NOTES:
     dance-single:
     :
     Medium:
     5:
     0.331707,0.322920,0.322920,0.038443,0.049976,255.000000,42.000000,5.000000,0.000000,0.000000,0.000000,0.331707,0.322920,0.322920,0.038443,0.049976,255.000000,42.000000,5.000000,0.000000,0.000000,0.000000:
0000
0000
0000
0000
,
0000
0000
0000
0000
0000
0000
0000
0000
0000
0000
0000
0000
0000
0001
1000
0000
,
0100
0000
0100
0000
1000
0000
1000
0000
0010
0100
0010
0000
0100
0000
0100
0000
,
0001
0000
0001
0000
1000
0000
1000
0000
0100
0010
0100
0000
1000
0000
1000
0000
,
0010
0000
0010
0000
0100
0000
0100
0000
0001
1000
0001
0000
0010
0000
0010
0000
,
0100
0000
0100
0000
1000
0000
1000
0000
0010
0100
0010
0000
0100
0000
0100
0000
,
0001
0000
0001
0000
1000
0000
1000
0000
0001
1000
0001
1000
0001
0000
0001
0000
,
0010
0000
0020
0000
0130
0000
0010
0000
0001
0100
0001
0100
0001
0000
0100
0000
,
0010
0010
0100
0000
0010
0010
0100
0010
,
1000
0000
1000
0000
0001
0000
0000
0000
1000
0001
1000
0001
2000
0000
0000
0000
,
3100
1000
0010
0110
0000
0100
0001
0000
,
0011
0010
0100
1100
0000
1000
0001
0000
,
0101
0100
0010
1010
0000
1000
0001
0000
,
0011
0010
0100
0101
0000
0100
1000
0000
,
1010
0010
0100
1100
0000
0100
0010
0000
,
1010
1000
0001
0011
0000
0010
0100
0000
,
0110
0100
1000
1001
0000
0001
0100
0000
,
0110
0010
1000
1001
0000
0001
0020
0000
,
0130
0110
0010
0110
,
0001
1001
1000
0001
,
1000
0000
0000
0000
0000
0000
0100
0000
0000
1000
0000
0000
0000
0000
0000
0000
0000
0000
0000
0000
0000
0000
1000
0000
0001
0000
0000
0000
0000
0000
0010
0000
0000
0000
0000
0000
0100
0000
0000
0000
0000
0000
1000
0000
0000
0000
0000
0000
,
0000
0010
0010
1000
0001
0010
0100
1000
,
0000
0100
0100
1000
0001
0010
0100
1000
,
0000
0010
0010
1000
0010
0100
0001
1000
,
0100
0100
0010
0100
1000
0001
1000
1000
,
0010
0010
0100
0100
0001
1000
0001
0001
,
0010
0010
0001
0010
0100
1000
0100
0100
,
1000
1000
0001
1000
0010
0100
0010
0010
,
1010
1000
0001
1001
0000
0001
0010
0000
,
0011
0010
0100
0110
0000
0100
1000
0000
,
1100
1000
0010
0110
0000
0100
0001
0000
,
0011
0001
1000
1001
0000
1000
0010
0000
,
0110
0100
0001
1001
0000
0001
1000
0000
,
1100
0100
0010
0011
0000
0001
1000
0000
,
1001
1000
0010
0110
0000
0100
0001
0000
,
0011
0010
0100
1100
0000
1000
0002
0000
,
0103
0101
0001
0101
,
1000
1001
0001
1001
,
0100
1100
1000
1100
,
0010
0000
0110
0000
0100
0000
0110
0002
,
0003
0000
0000
0000
;
