#VERSION:0.81;
#TITLE:Superior;
#SUBTITLE:;
#ARTIST:Sienis;
#TITLETRANSLIT:;
#SUBTITLETRANSLIT:;
#ARTISTTRANSLIT:;
#GENRE:;
#ORIGIN:;
#CREDIT:;
#BANNER:Superior - Sienisbn.png;
#BACKGROUND:Superior - Sienisbg.png;
#PREVIEWVID:;
#JACKET:;
#CDIMAGE:;
#DISCIMAGE:;
#LYRICSPATH:Superior - Sienis.lrc;
#CDTITLE:encorerebirth.png;
#MUSIC:Superior - Sienis.ogg;
#OFFSET:0.000;
#SAMPLESTART:40.464;
#SAMPLELENGTH:13.481;
#SELECTABLE:YES;
#BPMS:0.000=142.000;
#STOPS:;
#DELAYS:;
#WARPS:;
#TIMESIGNATURES:0.000=4=4;
#TICKCOUNTS:0.000=4;
#COMBOS:0.000=1;
#SPEEDS:0.000=1.000=0.000=0;
#SCROLLS:0.000=1.000;
#FAKES:;
#LABELS:0.000=Song Start;
#BGCHANGES:;
#KEYSOUNDS:;
#ATTACKS:
;

//---------------dance-single - Spork!----------------
#NOTEDATA:;
#CHARTNAME:;
#STEPSTYPE:dance-single;
#DESCRIPTION:Spork!;
#CHARTSTYLE:;
#DIFFICULTY:Beginner;
#METER:2;
#RADARVALUES:0.173,0.225,0.133,0.227,0.000,90.000,14.000,24.000,0.000,0.000,0.000,0.000,0.000,0.173,0.225,0.133,0.227,0.000,90.000,14.000,24.000,0.000,0.000,0.000,0.000,0.000;
#CREDIT:Spork!;
#NOTES:
0000
0000
0000
0000
,
0000
0000
0000
0000
,
0000
0000
0000
0000
,
0000
0000
0000
0000
,
0000
0000
0000
0000
,
0000
0000
0000
0000
,
0000
0000
0000
0000
,
0000
0000
0000
0000
,
1001
0000
0000
0000
,
0010
0000
0000
0000
,
1001
0000
0000
0000
,
0100
0000
0000
0000
,
0110
0000
0000
0000
,
1000
0000
0000
0000
,
0110
0000
0000
0000
,
0001
0000
0000
0000
,
0002
0000
1003
0000
,
2000
0000
3100
0000
,
1000
0000
0001
0000
,
0100
0000
0010
0000
,
1000
1000
1000
0000
,
0001
0001
0001
0000
,
0010
0000
0001
0000
,
0100
0000
0010
0000
,
2000
0000
3001
0000
,
0002
0000
0013
0000
,
0001
0000
1000
0000
,
0010
0000
0100
0000
,
0001
0001
0001
0000
,
1000
1000
1000
0000
,
0100
0000
0010
0000
,
0001
0000
1000
0000
,
2002
0000
3003
0000
,
2002
0000
3003
0000
,
0010
0000
0001
0000
,
0100
0000
0010
0000
,
0000
0220
0000
0330
,
0000
0220
0000
0330
,
0000
1000
0000
0001
,
0001
0000
0000
0000
,
1000
0000
0100
0000
,
1000
0000
0010
0000
,
1000
0000
1000
0000
,
0001
0000
0001
0000
,
2002
0000
3003
0000
,
0220
0000
0330
0000
,
1000
0000
0001
0000
,
1000
0000
1000
0000
,
0220
0000
0330
0000
,
2002
0000
3003
0000
,
0001
0000
1000
0000
,
0001
0000
0001
0000
,
1000
0000
0010
0000
,
0001
0000
0010
0000
,
0100
0100
0100
0000
,
0010
0000
0100
0000
,
0001
0000
0010
0000
,
1000
0000
0010
0000
,
0220
0000
0330
0000
,
2002
0000
3003
0000
;

//---------------dance-single - Spork!----------------
#NOTEDATA:;
#CHARTNAME:;
#STEPSTYPE:dance-single;
#DESCRIPTION:Spork!;
#CHARTSTYLE:;
#DIFFICULTY:Easy;
#METER:5;
#RADARVALUES:0.363,0.462,0.332,0.294,0.000,202.000,35.000,31.000,0.000,0.000,0.000,0.000,0.000,0.363,0.462,0.332,0.294,0.000,202.000,35.000,31.000,0.000,0.000,0.000,0.000,0.000;
#CREDIT:Spork!;
#NOTES:
0000
0000
0000
0000
,
0000
0000
0000
0000
,
0000
0000
0000
0000
,
0000
0000
0000
0000
,
1100
0000
1001
0000
,
0101
0000
1100
0000
,
0011
0000
1001
0000
,
1010
0000
0011
0000
,
0001
1000
0001
0200
,
0310
0000
0100
0010
,
1000
0001
1000
0200
,
0310
0000
0110
0110
,
1000
0001
1000
0020
,
0130
0000
0010
0100
,
0001
1000
0001
0020
,
0130
0000
1001
1001
,
0001
0010
0100
0100
,
1000
0010
0100
0001
,
1000
1000
0001
0010
,
0001
0001
1000
0010
,
0100
0100
0010
0010
,
1000
0100
1000
0001
,
0100
0001
0010
0100
,
1000
0010
1000
0001
,
2001
3100
0010
0010
,
0001
0100
0010
1000
,
0001
0001
1000
0100
,
1000
1000
0001
0100
,
0010
0010
0100
0100
,
0001
0010
0001
1000
,
0010
1000
0100
0010
,
0001
0100
0001
1000
,
2002
0003
3020
0130
,
0202
0300
2003
3001
,
0010
0001
0100
0100
,
0010
1000
0100
0100
,
0020
0200
0300
0002
,
0003
2000
3000
0002
,
0033
1000
0000
0010
,
2002
0000
0000
3003
,
0010
1001
0010
1001
,
0100
1010
0001
0110
,
2000
0000
0000
3000
0200
0000
0000
0300
2000
0000
0000
3000
0002
0000
0000
0003
,
2000
0000
0000
3000
0200
0000
0000
0300
0020
0000
0000
0030
0002
0000
0000
0003
,
1000
1100
0001
0110
,
1000
0101
0010
1001
,
0001
0100
1000
0100
,
0001
0010
1000
0010
,
0001
0011
1000
0110
,
0001
1010
0100
1001
,
1000
0010
0001
0010
,
1000
0100
0001
0100
,
1200
1300
0001
0001
,
0010
0001
0100
0010
,
1000
1000
0010
1000
,
0001
0001
0010
0100
,
0021
0031
1000
1000
,
0010
1000
0200
0310
,
0100
1001
0010
1100
,
0001
0101
0110
2002
,
0000
0000
0000
0000
,
3003
0000
0000
0000
;

//---------------dance-single - Spork!----------------
#NOTEDATA:;
#CHARTNAME:;
#STEPSTYPE:dance-single;
#DESCRIPTION:Spork!;
#CHARTSTYLE:;
#DIFFICULTY:Medium;
#METER:6;
#RADARVALUES:0.392,0.433,0.256,0.189,0.000,243.000,27.000,20.000,0.000,0.000,0.000,0.000,0.000,0.392,0.433,0.256,0.189,0.000,243.000,27.000,20.000,0.000,0.000,0.000,0.000,0.000;
#CREDIT:Spork!;
#NOTES:
0000
0000
0000
0000
,
0000
0000
0000
0000
,
0000
0000
0000
0000
,
0000
0000
0000
0000
,
0001
0010
0000
0000
0010
0100
0000
0000
,
0100
1000
0000
0000
1000
0001
0000
0000
,
1000
0010
0000
0000
0010
0100
0000
0000
,
0100
0001
0000
0000
0001
1000
0000
0000
,
0001
0000
0001
0100
0001
0000
0020
0000
,
0230
0000
0300
1000
0000
1000
0001
0000
,
1000
0000
1000
0010
1000
0000
0200
0000
,
0320
0031
2000
3002
,
1003
0000
1000
0100
1000
0000
0020
0000
,
0230
0000
0300
0001
0000
0001
1000
0000
,
0001
0000
0001
0010
0001
0000
0200
0000
,
0320
0000
0030
1000
0001
0000
1000
0000
,
0001
0000
0001
0010
0001
0000
0100
0000
,
0010
0010
1000
0100
,
1000
0010
1000
0000
0001
0000
1001
0000
,
1000
0001
0100
0001
,
2000
3200
0320
0032
,
1003
0010
1000
0001
,
1000
0100
1000
0000
0001
0100
0001
0000
,
0010
0001
0100
0010
,
1001
0000
0010
1000
0100
0000
1000
0000
,
0001
0000
0100
0010
0000
0010
1000
0000
,
0001
0000
1000
0000
0100
0010
0000
0010
,
0001
0000
0001
1000
0000
0000
0100
0000
,
1000
0010
1010
0011
,
0001
0100
0101
1100
,
1000
0000
0001
0000
0100
0010
0100
0000
,
0001
0100
0001
0000
1000
0000
1001
0000
,
1000
0100
0000
0000
0100
0010
0000
0000
,
0010
0001
0000
0000
0001
1000
0000
0000
,
0001
0100
0010
0020
,
1030
0001
0100
0200
,
0300
0000
0001
0010
0000
0000
0010
0100
,
0000
0000
0100
1000
0000
0000
1000
0001
,
0000
1000
0100
0010
,
0220
0000
0000
0330
,
0010
1100
0010
0101
,
0001
1100
1000
0101
,
0001
0010
0001
0000
0010
0100
0010
0000
,
0100
1000
0100
0000
1000
0001
1000
0000
,
0010
1001
0010
1100
,
0001
0110
1000
0101
,
1000
0000
0100
0000
0001
0000
0010
0100
,
0010
0001
0100
1000
,
0010
1001
0100
0011
,
1000
0110
0001
1010
,
0001
0000
0010
0000
1000
0000
0100
0010
,
0100
1000
0010
0001
,
1001
0000
0100
0001
0010
0000
0001
0000
,
1000
0000
0010
0100
0000
0100
0001
0000
,
1000
0000
0001
0000
0010
0100
0000
0100
,
1000
0000
1000
0001
0000
0000
0010
0000
,
1001
0100
0001
1000
,
0100
0000
0010
0001
0000
0001
1000
0000
,
0010
0101
0010
1100
,
0001
0110
0011
2002
,
0000
0000
0000
0000
,
3003
0000
0000
0000
;

//---------------dance-single - Spork!----------------
#NOTEDATA:;
#CHARTNAME:;
#STEPSTYPE:dance-single;
#DESCRIPTION:Spork!;
#CHARTSTYLE:;
#DIFFICULTY:Hard;
#METER:9;
#RADARVALUES:0.549,0.520,0.246,0.322,0.024,346.000,26.000,34.000,0.000,0.000,0.000,0.000,0.000,0.549,0.520,0.246,0.322,0.024,346.000,26.000,34.000,0.000,0.000,0.000,0.000,0.000;
#CREDIT:Spork!;
#NOTES:
0000
0000
0000
0000
,
0000
0000
0000
0000
,
0000
0000
0000
0000
,
0000
0000
0000
0000
,
1000
0000
0200
0000
0000
0300
0000
0000
0100
0000
0002
0000
0000
0003
0000
0000
,
0001
0000
0020
0000
0000
0030
0000
0000
0010
0000
2000
0000
0000
3000
0000
0000
,
0001
0000
0200
0000
0000
0300
0000
0000
0100
0000
2000
0000
0000
3000
0000
0000
,
1000
0000
0020
0000
0000
0030
0000
0000
0010
0000
0002
0000
0000
0003
0000
0000
,
0101
0000
0001
0010
0100
0000
0120
0000
,
1000
0000
0030
0001
0000
0001
0100
0000
,
1010
0000
1000
0100
0010
0000
0210
0000
,
0001
0000
0300
1000
0010
0000
1000
0000
,
1100
0000
1000
0010
0100
0000
0120
0000
,
0001
0000
0030
1000
0000
1000
0100
0000
,
0011
0000
0001
0100
0010
0000
0210
0000
,
1000
0000
0300
0001
0010
0000
0001
0000
,
1000
0000
0000
0000
0100
0010
0100
0000
0110
0000
0000
0000
1001
0000
0000
0000
,
1000
0010
0100
0001
1000
0010
1000
0001
,
0010
0001
0100
0010
1000
0100
1000
0001
,
0010
0100
0001
0100
0010
1000
0010
0001
,
0100
0100
0010
1000
0100
1000
0001
0000
,
0110
0000
1000
0001
0000
0001
0010
0000
,
0010
0001
0100
0010
1000
0100
1000
0001
,
0100
0010
0001
0010
0100
1000
0100
0001
,
1001
0000
1000
0000
0020
0000
0100
0030
0000
0000
0010
0000
0200
0000
0001
0300
,
0000
0000
0100
0000
0002
0000
1000
0003
0000
0000
0001
0000
2000
0000
0100
3000
,
0010
0000
0001
0000
0100
0000
0100
0010
0000
0000
0100
0000
0020
0000
1000
0030
,
0000
0000
0010
0000
2000
0000
0001
3000
0000
0000
1000
0000
0002
0000
0010
0003
,
0001
0100
0000
0100
0010
1000
0001
0000
,
1000
0010
1000
0100
0010
0001
1000
0000
,
0110
0000
0010
0001
1000
0001
0100
1000
,
0100
0010
1000
0100
0001
0100
0010
0000
,
0001
0000
0020
0000
0000
0030
0000
0000
0010
0000
2000
0000
0000
3000
0000
0000
,
1000
0000
0200
0000
0000
0300
0000
0000
0100
0000
0002
0000
0000
0003
0000
0000
,
1020
0000
1030
0100
0010
0001
0101
0000
,
0021
0000
0031
0100
0010
1000
1100
0000
,
1001
0000
0000
0000
1000
0000
0020
0000
0000
0030
0000
0000
0010
0000
0002
0000
,
0000
0003
0000
0000
0001
0000
0200
0000
0000
0300
0000
0000
0100
0000
2000
0000
,
0000
3000
0001
0000
0000
0000
0001
1000
0000
0000
0001
0000
0100
0000
0000
0000
,
2002
0000
0000
3003
,
0001
0100
0001
0100
1000
0100
1000
0100
,
0001
0010
0001
0010
1000
0010
1000
0010
,
0100
1000
0010
0010
0100
0001
0010
0010
,
0001
1000
0100
0100
1000
0010
0100
0100
,
0001
0010
0100
0001
1000
0100
0010
0010
,
1000
0100
0010
1000
0001
0010
1000
0001
,
0100
0001
0010
0100
0001
0100
1000
0010
,
0100
0001
1000
0010
0100
1000
0100
0100
,
0001
0100
0010
0001
1000
0010
0100
0100
,
1000
0010
0100
1000
0001
0100
1000
0001
,
0010
0001
0100
0010
0001
0010
1000
0100
,
0010
0001
1000
0100
0010
1000
0010
0001
,
1000
0000
0000
0000
0010
0100
0010
0000
1010
0000
0000
0000
0011
0000
0000
0000
,
2000
0000
0000
3001
0000
1001
0100
0010
,
1000
0100
0001
0100
1000
0001
0000
0001
,
0100
0000
0100
0010
0000
0010
1000
0001
,
1000
0000
0000
0000
0100
0010
0100
0000
1100
0000
0000
0000
0101
0000
0000
0000
,
1000
0010
1000
0100
0000
1001
0110
0000
,
0001
0100
0010
0001
0100
1000
0010
0010
,
1000
0100
0010
1000
0001
0020
0200
0000
,
0000
0000
0000
0000
,
0330
0000
0000
0000
;

//---------------dance-single - Spork!----------------
#NOTEDATA:;
#CHARTNAME:;
#STEPSTYPE:dance-single;
#DESCRIPTION:Spork!;
#CHARTSTYLE:;
#DIFFICULTY:Challenge;
#METER:10;
#RADARVALUES:0.602,0.665,0.208,0.549,0.185,365.000,22.000,58.000,92.000,17.000,1.000,0.000,0.000,0.602,0.665,0.208,0.549,0.185,365.000,22.000,58.000,92.000,17.000,1.000,0.000,0.000;
#CREDIT:Spork!;
#NOTES:
// measure 0
0M00
0000
000M
0000
,  // measure 1
00M0
0000
00M0
0000
,  // measure 2
M000
0000
0M00
0000
,  // measure 3
000M
0000
M000
0000
,  // measure 4
02M2
0000
0000
0000
M020
0303
0000
0000
,  // measure 5
2M02
0030
0000
0000
0M20
3003
0000
0000
,  // measure 6
220M
0030
0000
0000
00M2
3300
0000
0000
,  // measure 7
M220
0003
0000
0000
100M
0330
0000
0000
,  // measure 8
1100
0000
0000
0100
0010
0000
0001
0000
0100
0000
0010
M000
0020
0000
0000
0000
,  // measure 9
0230
0000
0000
0001
0000
1300
0001
0000
,  // measure 10
0101
0000
0000
0100
0010
0000
1000
0000
0100
0000
0010
000M
0020
0000
0000
0000
,  // measure 11
0230
0000
0000
0301
0010
0001
1000
0000
,  // measure 12
0101
0000
0000
0010
0100
0000
0001
0000
0010
0000
0100
M000
0200
0000
0000
0000
,  // measure 13
0320
0000
0000
0001
0000
1030
0001
0000
,  // measure 14
1100
0000
0000
0010
0100
0000
1000
0000
0010
0000
0100
000M
0200
0000
0000
0000
,  // measure 15
0320
0000
0000
0031
1000
0001
0010
0000
,  // measure 16
0110
0000
0010
0000
0100
1000
0001
0000
0101
0000
0000
0000
1100
0000
0000
0000
,  // measure 17
0010
0100
0010
0001
0100
1000
0100
0001
,  // measure 18
0100
M000
0100
0000
0010
0000
0100
0000
1000
0000
0010
0000
0100
0000
0001
0000
,  // measure 19
1000
0010
0001
0010
0100
1000
0100
0001
,  // measure 20
1000
0000
0100
000M
0100
0000
0010
0000
1000
0000
0001
0000
0010
0000
0000
0000
,  // measure 21
1001
0000
0100
0001
0010
0100
1000
0010
,  // measure 22
0100
000M
0100
0000
1000
0000
0001
0000
0010
M000
0010
0000
1000
0000
0100
0000
,  // measure 23
0010
000M
0010
0000
1000
0000
0001
0000
0100
M000
0100
0000
0010
0000
0001
0000
,  // measure 24
1001
0000
1000
0000
0010
1000
0001
0001
1000
0000
0100
0000
0010
0000
0100
0000
,  // measure 25
0001
0100
0010
0001
0100
1000
0100
0001
,  // measure 26
1000
0000
0000
0000
0100
0000
1000
1000
0001
0000
0100
0000
0010
0000
0100
0000
,  // measure 27
1000
0100
0010
1000
0001
0010
1000
0010
,  // measure 28
0100
0000
0100
0000
1000
0000
0001
0001
0100
0000
0001
0000
0010
0000
0000
0000
,  // measure 29
0100
1000
0010
1000
0001
0100
0101
0000
,  // measure 30
1100
0000
0000
0000
0010
0000
1000
1000
0001
0000
0010
0000
0100
0000
0010
0000
,  // measure 31
1000
0010
0100
1000
0001
1000
0100
0000
,  // measure 32
22M0
0000
0000
0000
002M
3300
0000
0000
,  // measure 33
2M02
0030
0000
0000
01M0
3003
0000
0000
,  // measure 34
0001
0000
0100
0000
0010
0000
1000
1000
0001
0000
0010
M000
0020
0000
0000
0000
,  // measure 35
0230
0000
0301
0010
1000
0010
0011
0000
,  // measure 36
1000
0000
02M2
0000
0000
0000
M020
0303
,  // measure 37
0000
0000
2M02
0030
0000
0000
01M0
3003
,  // measure 38
0000
0000
0000
0000
0100
0000
0001
0001
1000
0000
0100
000M
0200
0000
0000
0000
,  // measure 39
0340
0000
0000
0000
0000
0000
0000
0030
,  // measure 40
200M
0000
0000
0000
002M
3000
0000
0000
M200
0000
0000
0000
M001
0330
0000
0000
,  // measure 41
200M
0000
0000
0000
02M0
3000
0000
0000
002M
0000
0000
0000
100M
0330
0000
0000
,  // measure 42
M001
0010
1M00
0010
M001
0100
10M0
0100
,  // measure 43
M001
0000
0000
0010
0000
0000
010M
0000
0000
1000
0001
1000
0M01
0000
0000
1000
0000
0000
010M
0000
0000
0010
0000
0000
,  // measure 44
M001
0000
0100
0001
M010
0000
0100
0000
100M
0000
0200
0000
100M
0300
0010
0000
,  // measure 45
M100
0000
0010
0000
M001
0000
0010
0000
100M
0000
0020
0000
010M
0030
0010
0000
,  // measure 46
100M
0000
0100
0000
00M1
0000
0100
0000
100M
0000
0020
0000
0M01
0030
0010
0000
,  // measure 47
100M
0000
1000
0100
001M
0000
0100
0010
M001
0000
0200
0000
00M1
0300
1000
0000
,  // measure 48
001M
1000
0100
1000
001M
0000
0100
0000
M001
0000
0200
0000
M001
0300
0010
0000
,  // measure 49
M100
0000
0010
1000
0M10
0000
0001
0000
M000
0000
0020
0000
M001
0030
1000
0000
,  // measure 50
00M1
0000
0100
0000
10M0
0000
0100
0000
M001
0000
0020
0000
1M00
0030
0010
0000
,  // measure 51
M001
0000
0100
0010
100M
0000
0010
1000
0M01
0000
0020
0000
010M
0030
0100
0000
,  // measure 52
1001
0000
0001
0000
1000
0010
1000
1000
0001
0000
0020
0000
0100
0030
1000
0000
,  // measure 53
0001
0000
0001
0100
0010
0000
0100
0001
0010
0000
0200
0000
0010
0300
0001
0000
,  // measure 54
1000
0000
0010
0000
0100
0000
0010
0000
0001
0000
2000
0000
0100
3000
0001
0000
,  // measure 55
0010
0000
1000
0000
0010
0000
0001
0000
1000
0000
0200
0000
1000
0300
0010
0000
,  // measure 56
0110
0000
0100
0000
0001
0010
0001
0000
0100
0000
0020
0000
0100
0030
0001
0000
,  // measure 57
1000
0000
0010
0000
1000
0000
0100
0000
0000
0000
0200
0000
0010
0300
0000
0000
,  // measure 58
M002
0000
0000
0000
M020
0003
0000
0000
020M
0000
0000
0000
100M
0330
0000
0000
,  // measure 59
M002
0000
0000
0000
02M0
0003
0000
0000
M020
0000
0000
0000
M001
0030
0000
0000
,  // measure 60
0000
0000
0000
0000
,  // measure 61
0300
0000
0000
0000
;

//---------------dance-double - Spork!----------------
#NOTEDATA:;
#CHARTNAME:;
#STEPSTYPE:dance-double;
#DESCRIPTION:Spork!;
#CHARTSTYLE:;
#DIFFICULTY:Medium;
#METER:6;
#RADARVALUES:0.387,0.462,0.313,0.227,0.000,229.000,33.000,24.000,0.000,0.000,0.000,0.000,0.000,0.387,0.462,0.313,0.227,0.000,229.000,33.000,24.000,0.000,0.000,0.000,0.000,0.000;
#CREDIT:Spork!;
#NOTES:
00000000
00000000
00000000
00000000
,
00000000
00000000
00000000
00000000
,
00000000
00000000
00000000
00000000
,
00000000
00000000
00000000
00000000
,
01000000
01000000
00000000
00000000
00010000
00010000
00000000
00000000
,
00100000
00100000
00000000
00000000
00001000
00001000
00000000
00000000
,
00010000
00010000
00000000
00000000
00000010
00000010
00000000
00000000
,
00001000
00001000
00000000
00000000
00000100
00000100
00000000
00000000
,
00010000
00001000
00011000
01002000
,
00020000
00000000
00033000
00010000
00000000
00001000
00100000
00000000
,
00001000
00010000
00011000
00020100
,
00002000
00033000
00010000
00000010
,
00010000
00001000
00011000
00102000
,
00020000
00000000
00033000
00001000
00000000
00010000
00000100
00000000
,
00010000
00001000
00011000
00020010
,
00002000
00033000
00001000
01000000
,
00001000
00000000
00001000
00010000
00001000
00000000
00010000
00000000
,
01000000
10000000
00010000
01000000
,
00001000
00010000
00001000
00000000
00010000
00000000
00001000
00000000
,
00000100
00000001
00001000
00000100
,
00010000
00001000
00000100
00000110
,
00001000
00010000
01000000
01100000
,
00010000
00001000
00100000
01000000
,
00010000
00001000
00000100
00000010
,
00010000
00001000
00000000
01000000
00000000
00010000
00000000
00100000
,
00000000
00001000
00000000
00010000
00000000
00000100
00010000
00000000
,
00001000
00010000
00000000
00000010
00000000
00001000
00000000
00000100
,
00000000
00010000
00000000
00001000
00000000
00100000
00001000
00000000
,
00010000
00000000
00010100
00000000
00001000
00000100
00000010
00000000
,
00001000
00000000
01001000
00000000
00010000
00100000
01000000
00000000
,
01100000
10000000
01000000
00010000
,
00001000
00000100
00000001
00000110
,
00000001
00000001
00000000
00000000
00000010
00000010
00000000
00000000
,
00000100
00000100
00000000
00000000
00001000
00001000
00000000
00000000
,
00000010
00000000
00020000
00000000
00000000
00001000
00000000
00030000
,
00001000
00000000
02000000
00000000
00000000
00010000
00000000
03000000
,
00010000
00000000
10000000
10000000
00000000
00000000
01000000
01000000
,
00000000
00000000
00100000
00100000
00000000
00000000
00010000
00010000
,
00000000
00000000
02000000
00000000
00000000
00100000
03000000
00000000
,
20020000
00000000
00000000
30030000
,
10000000
10100000
01000000
01010000
,
10000000
11000000
00100000
00110000
,
00020000
02030000
03200000
00320000
,
00032000
00003020
00000230
00002300
,
00003001
00000101
00000010
00001010
,
00000001
00000011
00000100
00001100
,
00001000
00000000
00000001
00000000
00000010
00000000
00001000
00010000
,
00001000
00010000
00100000
10000000
,
00010000
00110000
01000000
11000000
,
00010000
01010000
00100000
10100000
,
00010000
00000000
10000000
00000000
01000000
00000000
00010000
00001000
,
00010000
00001000
00000100
00000001
,
00001001
00000000
00001000
00000100
00001000
00000000
00000010
00000000
,
00000200
00000000
00000000
00000010
00000300
00000010
00001000
00000000
,
00000001
00000000
00000010
00000000
00001000
00010000
00000000
00010000
,
00001000
00000000
01000000
00000000
00100000
10000000
00010000
00000000
,
10010000
00000000
00010000
00100000
00010000
00000000
01000000
00000000
,
00100000
00000000
00100000
01000000
00000000
01000000
00010000
00000000
,
10000000
11000000
01000000
01010000
,
00010000
00011000
00001000
00002200
,
00000000
00000000
00000000
00000000
,
00003300
00000000
00000000
00000000
;

//---------------dance-double - Spork!----------------
#NOTEDATA:;
#CHARTNAME:;
#STEPSTYPE:dance-double;
#DESCRIPTION:Spork!;
#CHARTSTYLE:;
#DIFFICULTY:Easy;
#METER:4;
#RADARVALUES:0.307,0.289,0.180,0.294,0.000,177.000,19.000,31.000,0.000,0.000,0.000,0.000,0.000,0.307,0.289,0.180,0.294,0.000,177.000,19.000,31.000,0.000,0.000,0.000,0.000,0.000;
#CREDIT:Spork!;
#NOTES:
00000000
00000000
00000000
00000000
,
00000000
00000000
00000000
00000000
,
00000000
00000000
00000000
00000000
,
00000000
00000000
00000000
00000000
,
00010000
00000000
00001000
00000000
,
10000000
00000000
00001000
00000000
,
00001000
00000000
00010000
00000000
,
00000001
00000000
00010000
00000000
,
00022000
00003000
00001000
00000100
,
00030200
00000000
00010300
00000000
,
00022000
00030000
00010000
01000000
,
02003000
00000000
03001000
00100000
,
00220000
00030000
00010000
00001000
,
00302000
00000000
00013000
00000000
,
00002020
00003000
00001000
00010000
,
00020030
00000000
00031000
00000000
,
00001000
00010000
00000010
00000010
,
00001000
00000100
00000010
00000001
,
00001000
00000010
00010000
00001000
,
00100000
00010000
10000000
10000000
,
00001000
01000000
00001000
00011000
,
00010000
00000100
00010000
00011000
,
00010000
00000001
00001000
00000100
,
00010000
00001000
01000000
00010000
,
00100000
00001000
01000000
01000000
,
00010000
00100000
01000000
10000000
,
00010000
01000000
00001000
00010000
,
00000010
00001000
00000001
00000001
,
00010000
00000010
00010000
00011000
,
00001000
00100000
00001000
00011000
,
00001000
10000000
00010000
00100000
,
00001000
00010000
00000100
00001000
,
00000201
00000000
00002300
00000000
,
00023000
00000000
02030000
00000000
,
13000000
00010000
00100000
00100000
,
00001000
01000000
00010000
00010000
,
10000000
10200000
00000000
00320000
,
00000000
00032000
00000000
00003020
,
00000000
00000031
00000000
00001000
,
00002002
00000000
00000000
00003003
,
00001100
00000000
00010100
00000000
,
00011000
00000000
01001000
00000000
,
00110000
00000000
00101000
00000000
,
00011000
00000000
00010010
00000000
,
00001000
00000100
00000010
00000100
,
00000001
00000100
00010000
00001000
,
00020000
00000000
00032000
00000000
,
02003000
00000000
03001000
01000000
,
00010000
00100000
01000000
00100000
,
10000000
00100000
00001000
00010000
,
00002000
00000000
00023000
00000000
,
00030020
00000000
00010030
00000010
,
00001000
00001000
00000100
00000100
,
00000020
00000000
00000000
00000001
00000030
00000000
00001000
00000000
,
00000001
00000100
00000010
00010000
,
00001000
01000000
00100000
10000000
,
00010000
00010000
00100000
00100000
,
02000000
00000000
00000000
10000000
03000000
00000000
00010000
00000000
,
00010000
01000000
00100000
01000000
,
10000000
01000000
00001000
00020000
,
00000000
00000000
00000000
00000000
,
00030000
00000000
00000000
00000000
;

//---------------dance-double - Spork!----------------
#NOTEDATA:;
#CHARTNAME:;
#STEPSTYPE:dance-double;
#DESCRIPTION:Spork!;
#CHARTSTYLE:;
#DIFFICULTY:Hard;
#METER:8;
#RADARVALUES:0.479,0.462,0.189,0.180,0.000,315.000,20.000,19.000,0.000,0.000,0.000,0.000,0.000,0.479,0.462,0.189,0.180,0.000,315.000,20.000,19.000,0.000,0.000,0.000,0.000,0.000;
#CREDIT:Spork!;
#NOTES:
00000000
00000000
00000000
00000000
,
00000000
00000000
00000000
00000000
,
00000000
00000000
00000000
00000000
,
00000000
00000000
00000000
00000000
,
00000001
00000100
00000000
00000000
00000100
00010000
00000000
00000000
,
00010000
01000000
00000000
00000000
01000000
00010000
00000000
00000000
,
10000000
01000000
00000000
00000000
01000000
00010000
00000000
00000000
,
00010000
00000100
00000000
00000000
00000100
00001000
00000000
00000000
,
00001001
00000000
00000010
00001000
00000100
00000000
00000020
00000000
,
00002030
00000000
00000000
00013000
00000000
00001000
00100000
00000000
,
10010000
00000000
01000000
00010000
00100000
00000000
02000000
00000000
,
03020000
00000000
00000000
00031000
00010000
00000000
00010010
00000000
,
00001001
00000000
00000100
00001000
00000010
00000000
00000200
00000000
,
00002300
00000000
00000000
00013000
00000000
00001000
01000000
00000000
,
10010000
00000000
00100000
00010000
01000000
00000000
00200000
00000000
,
00320000
00000000
00000000
00031000
00010000
00000000
00101000
00000000
,
00100000
00000000
00100000
00010000
01000000
00000000
01000000
00000000
,
00100000
10000000
01000000
00100000
00001000
00010000
00000010
00000100
,
00000001
00001000
00001000
00000001
00000010
00000100
00010000
00001000
,
00010000
00000010
00010000
00000010
00001000
00000100
00001000
00000100
,
00000010
00000010
00000001
00001000
00000010
00010000
00001000
00000000
,
01001000
00000000
00010000
00001000
00000000
00001000
00100000
00000000
,
00010000
01000000
00100000
10000000
00100000
01000000
00010000
10000000
,
01000000
00100000
00001000
00010000
00000100
00010000
00000010
00001000
,
00000100
00000000
00000100
00001000
00000010
00000000
00000010
00000000
,
00000200
00000000
00000000
00000310
00000000
00000010
00001000
00000001
,
00000010
00000000
00000010
00000001
00001000
00000100
00000000
00000100
,
00010000
00000000
00001000
01000000
00000000
01000000
00010000
10000000
,
00100000
01000000
00000000
01000000
00010000
10000000
01000000
00000000
,
01000000
00000000
10000000
00010000
00100000
00001000
00010000
00000000
,
00011000
00000000
00001000
00010000
00000010
00001000
00000100
00001000
,
00000001
00000010
00000100
00010000
00000010
00001000
00000001
00000000
,
00000001
00000010
00000000
00000000
00000010
00001000
00000000
00000000
,
00001000
00100000
00000000
00000000
00100000
00010000
00000000
00000000
,
10020000
00000000
00130000
01000000
00100000
00010000
01000000
00000000
,
01200000
00000000
10300000
00010000
10000000
01000000
00100000
00000000
,
00010000
00000000
10000000
00100000
00000000
00000000
00100000
00010000
,
00000000
00000000
00010000
00000010
00000000
00000000
00000010
00001000
,
00000000
00000000
00000100
00000000
00000000
00000100
00000010
00000000
,
00002002
00000000
00000000
00003003
,
00000010
00001000
00000100
00000000
00000100
00010000
00001000
00000000
,
00100000
00010000
01000000
00000000
01000000
00001000
00010000
00000000
,
00011000
00010100
00010010
00001001
,
00011000
00101000
01001000
10010000
,
10000000
01000000
00100000
00010000
10000000
00100000
10000000
10000000
,
00010000
01000000
00100000
10000000
00010000
00100000
00010000
00010000
,
10000000
10000000
00010000
01000000
00001000
00001000
01000000
00001000
,
00010000
00010000
00001000
00010000
00000100
00000100
00001000
00001000
,
00000001
00000010
00000100
00001000
00000001
00000100
00000001
00000001
,
00001000
00000010
00000100
00000001
00001000
00000100
00001000
00001000
,
00000001
00000001
00001000
00000010
00010000
00010000
00000010
00010000
,
00001000
00001000
00010000
00001000
00100000
00100000
01000000
00000000
,
11000000
00000000
00010000
00000000
01000000
00002000
00100000
00003000
,
00001000
00000000
00010000
00000000
01000000
00020000
00001000
00030000
,
00010000
00000000
00001000
00000000
00000010
00000001
00000000
00000001
,
00001000
00000000
00000010
00000000
00000100
00000001
00000010
00000000
,
00000001
00000000
00001000
00000000
00000010
00020000
00001000
00030000
,
00010000
00000000
00001000
00000000
00000010
00002000
00010000
00003000
,
01000000
00010000
00100000
00000000
00100000
00001000
00010000
00000000
,
00000100
00001000
00000010
00000000
00000010
00020000
00002000
00000000
,
00000000
00000000
00000000
00000000
,
00033000
00000000
00000000
00000000
;

//---------------dance-double - Spork!----------------
#NOTEDATA:;
#CHARTNAME:;
#STEPSTYPE:dance-double;
#DESCRIPTION:Spork!;
#CHARTSTYLE:;
#DIFFICULTY:Challenge;
#METER:10;
#RADARVALUES:0.591,0.867,0.171,0.445,0.090,372.000,18.000,47.000,166.000,8.000,0.000,0.000,0.000,0.591,0.867,0.171,0.445,0.090,372.000,18.000,47.000,166.000,8.000,0.000,0.000,0.000;
#CREDIT:Spork!;
#NOTES:
00000000
00000000
00000000
00000000
,
00000000
00000000
00000000
00000000
,
00000000
00000000
00000000
00000000
,
00000000
00000000
00000000
00000000
,
00010000
00100000
01000000
00001000
,
00010000
00000100
00000010
00001000
,
00001000
00000100
00000010
00010000
,
00001000
00100000
01000000
00000000
,
1001000M
00000000
10000000
001000M0
020000M0
00000000
0000020M
00000000
,
M0010000
00000000
03000300
M0011000
00000000
00M10000
00M00100
00000000
,
M0001001
00000000
00000001
0M000010
0M000200
00000000
M0200000
00000000
,
0000100M
00000000
00300300
0001000M
0000100M
01000000
000100M0
00000000
,
0110000M
00000000
10000000
00010M00
02000M00
00000000
0000002M
00000000
,
M0010000
00000000
03000030
M0011000
00000000
0M010000
0M000010
00000000
,
M0000110
00000000
00000001
00M01000
00M00200
00000000
M2000000
00000000
,
0000100M
00000000
03000300
M0001000
M0010000
00000010
0M001000
00000000
,
M0002100
00000000
00000000
00000000
00003001
00000010
00M00200
00000000
00M20000
00000000
00000300
00000000
M0032000
00000000
00000000
00000000
,
0M003100
00000001
00000100
00001000
00010000
010000M0
10000000
01000000
,
0010000M
00001000
00010000
M0000010
M0010000
00000100
0001000M
01000000
,
10000M00
00100000
00010000
M0000010
M0001000
00000100
0001000M
01000000
,
000100M0
00001000
00000100
0M000001
0M000010
00000100
M0002000
00000000
,
00M03002
00000000
00000013
00000100
00010000
0M000001
0M001000
00000001
,
M0000100
00010000
01000000
0000100M
0000001M
00010000
M0100000
00001000
,
0000010M
00010000
00100000
M0001000
M0000010
00010000
0100000M
00010000
,
001200M0
00000000
00000000
00000000
10030000
01000000
00200M00
00000000
00002M00
00000000
00300000
00000000
000230M0
00000000
00000000
00000000
,
0013000M
10000000
00100000
01000000
00000000
0100000M
0001000M
10000000
,
01000M00
00000000
01000000
0001000M
0000100M
00000100
M0000000
00000100
,
00M00010
00001000
00000100
M0010000
M0000000
00001000
000100M0
01000000
,
10000M00
00010000
00000000
01000000
0010000M
00010000
000020M0
00000000
,
0M013000
00001000
00010000
00000010
00000100
M0001000
M0020000
00000000
,
00M32000
00000000
00003010
00000001
M0000010
00000100
00M10000
00001000
,
M0000100
00000010
00010000
00001000
0010000M
01000000
00020000
00000000
,
M003200M
00000000
00110000
00000000
0M013000
00000010
M0001000
00000100
,
00M20000
00000000
00001010
00000000
00031000
010000M0
000200M0
00000000
,
10030M00
01000000
00010000
0000100M
0000010M
00000010
M0010000
00001000
,
00M00010
00000100
00000010
M0001000
M0010000
00100000
0001100M
00000000
,
M002000M
00000000
00001100
000300M0
000010M0
01000000
0001000M
00100000
,
00002M00
00000000
01010000
00000000
00013000
0M000100
0M002000
00000000
,
00M03001
00000000
00000100
00000000
00000000
00000000
M0000100
00000010
M0000000
00000000
00010000
00000000
0000000M
00000000
00001000
00000000
,
0MM22MM0
00000000
00000000
00033000
,
M0010000
00001000
00000100
00M00001
00M10000
00001000
M0000010
00000010
,
0000100M
00010000
00100000
10000000
00001000
000100M0
010000M0
01000000
,
00010M00
00001000
00000010
00000010
00001000
00010000
00100000
00100000
,
00010000
00001000
00000100
00000100
00001000
00010000
01000000
01000000
,
1000000M
00000000
00100000
00000000
010000M0
00000000
10000000
00000000
0100000M
00000000
00002000
00000000
00010M00
00003000
01000000
00000000
,
M0010000
00000000
00000100
00000000
00M00010
00000000
00001000
00000000
M0010000
00000000
00002000
00000000
0M000100
00003000
00000001
00000000
,
M0001000
00000000
00000100
00000000
00M00001
00000000
00001000
00000000
M0000010
00000000
00002000
00000000
0M100000
00003000
00010000
00000000
,
0010000M
00000000
01000000
00000000
0001M000
00000000
00000100
00000000
0001000M
00000000
00000020
00000000
M0001000
00000030
00001000
00000000
,
M0000001
00000000
00000100
00000000
0M000010
00000000
00000001
00000000
M0000010
00000000
00020000
00000000
00M01000
00030000
00000100
00000000
,
0000100M
00000000
01000000
00000000
001000M0
00000000
00010000
00000000
0000100M
00000000
00020000
00000000
01000M00
00030000
10000000
00000000
,
0001000M
00000000
01000000
00000000
100000M0
00000000
00010000
00000000
0010000M
00000000
00020000
00000000
00000M10
00030000
00001000
00000000
,
M0000010
00000000
00000100
00000000
000M1000
00000000
01000000
00000000
M0001000
00000000
00200000
00000000
0001000M
00300000
00010000
00000000
,
01020000
00000000
00000000
00000000
10030000
00100000
02000000
00000000
00002000
00000000
03000000
00000000
00023000
00000000
00000000
00000000
,
01030000
00000000
01000000
10000000
00000000
10000000
00100000
00010000
,
00001000
00010000
00000010
00001000
00000001
00000010
00000000
00000010
,
00000001
00000000
00000001
00001000
00000000
00001000
00000100
00010000
,
00002010
00000000
00000000
00000000
00003001
00000100
00000020
00000000
00020000
00000000
00000030
00000000
00032000
00000000
00000000
00000000
,
00003010
00000001
00000010
00000100
00000000
00000110
00001001
00000000
,
M0001000
00000100
00001000
00000100
M0010000
00000100
00010000
00000100
0001000M
00001000
00010000
00001000
0100000M
00001000
01000000
00001000
,
M0010000
00000010
00010000
00000010
M0010000
00001000
00010000
00001000
0010000M
00001000
00100000
00001000
0002000M
00000000
00000000
00000000
,
00000000
00000000
00000000
00000000
,
00030000
00000000
00000000
00000000
;
