#TITLE:Sprintrances;
#SUBTITLE:;
#ARTIST:Taishi;
#TITLETRANSLIT:;
#SUBTITLETRANSLIT:;
#ARTISTTRANSLIT:;
#GENRE:;
#CREDIT:;
#BANNER:[Round 1 Singles] - Sprintrances.png;
#BACKGROUND:[Round 1 Singles] - Sprintrances-bg.png;
#LYRICSPATH:;
#CDTITLE:;
#MUSIC:[Round 1 Singles] - Sprintrances.mp3;
#OFFSET:-0.232;
#SAMPLESTART:33.940;
#SAMPLELENGTH:12.000;
#SELECTABLE:YES;
#BPMS:0.000=178.000;
#STOPS:;
#BGCHANGES:;
#FGCHANGES:0.000=lua=1.000=0=0=1===== ,
;
#KEYSOUNDS:;

//---------------dance-single - ----------------
#NOTES:
     dance-single:
     :
     Challenge:
     9:
     0.672,0.850,0.229,0.816,0.045:
0000
0000
0000
0000
,
0000
0000
0000
0000
,
0000
0000
0000
0000
,
0000
0000
0000
0000
,
1000
0100
0010
0100
0010
0001
1000
0001
,
0100
0010
0100
0001
1000
0010
1000
0100
,
0010
0001
0010
0100
1000
0001
0100
0010
,
0200
0000
0000
0000
,
0301
0000
1010
0000
0000
0100
0010
0000
,
0100
0000
1001
0000
0000
0001
0100
0000
,
1010
1000
0100
0000
0000
1000
0010
0100
,
0001
0000
0001
0040
0000
0031
0100
0004
,
1003
1000
0110
0000
0000
0001
1000
0000
,
0001
0000
0011
0000
0000
0010
0100
0000
,
0110
0010
0001
0000
0000
0001
1001
0100
,
0010
0000
1000
0400
0000
0310
0001
0400
,
0301
0010
1000
0010
0100
1000
0001
0100
,
0010
0100
0001
1000
0100
0010
0100
1000
,
0010
0100
0001
0100
1000
0100
0001
1000
,
0010
1000
0001
0100
0001
0010
0100
0010
,
0001
1000
0010
1000
0001
0100
0010
0100
,
0001
0010
0100
0001
0100
0010
0100
1000
,
0001
1000
0010
0100
0001
1000
0010
1000
,
0001
0010
0100
0010
0001
1000
0100
1000
,
1020
0000
0000
0000
,
0100
0000
0000
0000
,
0031
0000
0000
0000
,
0010
1000
1001
0000
0101
0000
1010
0000
,
0021
0000
0000
0000
,
0100
0000
0000
0030
,
1000
0000
0000
0000
,
0100
0001
1001
0000
0110
0000
1100
0000
,
0101
0001
0000
0001
0100
0010
1000
0100
,
1000
0010
0000
1000
0001
0010
0001
0010
,
0100
1000
0000
0100
0001
0100
0010
0001
,
1000
0010
0000
0100
0001
0100
0010
1000
,
0101
0001
0000
0001
0100
0001
0010
0001
,
1000
0100
0000
0001
0100
1000
0010
1000
,
0001
0100
0010
0100
0001
0100
0010
1000
,
0001
0100
0001
0100
0010
0100
0001
0100
0001
1000
0001
1000
0010
0000
1000
0000
,
0020
0000
0130
0000
0020
0000
1030
0002
,
0000
0023
0100
0230
0000
0302
0100
0003
,
0200
0000
2300
3002
0000
2003
3020
0230
,
0000
0000
1000
0000
0300
0000
0002
0203
,
0302
0000
1003
0000
0002
0000
0023
0032
,
0000
2003
0010
3020
0000
0230
0001
0300
,
0002
0023
2030
3002
0203
2300
3002
0203
,
0000
0000
0010
0000
0300
M00M
0010
1000
,
1020
000M
0030
0000
0M20
0000
2030
3M02
,
0000
M023
0000
0230
000M
0320
0000
M030
,
0002
00M0
0203
0302
M000
0023
0230
230M
,
0000
00M0
0000
0000
300M
0000
0020
M230
,
0320
000M
0030
0000
0M20
0000
0230
230M
,
0000
32M0
0000
0302
M000
0023
0000
0M30
,
0002
02M3
2300
3002
0M23
2030
3002
02M3
,
0000
0000
M000
0000
0000
0000
0310
0000
1M00
0000
0001
0000
0001
0000
10M0
0002
,
2000
0000
0000
0000
,
0000
0000
0000
0000
,
3003
0000
0000
0000
;

//---------------dance-single - ----------------
#NOTES:
     dance-single:
     :
     Hard:
     7:
     0.561,0.776,0.178,1.000,0.000:
0000
0000
0000
0000
,
0000
0000
0000
0000
,
0000
0000
0000
0000
,
0000
0000
0000
0000
,
1000
0100
0000
1000
0010
0000
0100
0001
,
0010
0001
0000
1000
0001
0000
0010
0001
,
0100
0010
0000
1000
0010
0000
1000
0010
,
0200
0000
0000
0300
,
0010
0000
0110
0000
0000
0100
0010
0000
,
1000
0000
1001
0000
0000
1000
0010
0000
,
0100
0100
0000
0000
0000
0000
0001
0010
,
0000
0000
0010
0002
0000
0103
1000
0200
,
0301
0000
1001
0000
0000
1000
0100
0000
,
0010
0000
0110
0000
0000
0100
1000
0000
,
0001
0001
0000
0000
0000
0000
0001
1000
,
0000
0000
0010
0200
0000
0301
1000
0200
,
1300
0010
0000
1000
0001
0000
0001
0010
,
0000
0001
0000
0100
0010
0000
0100
0001
,
0000
1000
0000
0100
0010
0000
0100
1000
,
0000
0001
0000
1000
0010
0000
0100
0001
,
0010
0001
0000
1000
0100
0000
0010
0100
,
0000
1000
0000
0001
1000
0000
0010
0100
,
0000
0001
0000
0010
0001
0000
0100
0010
,
0000
1000
0000
0001
1000
0010
0000
0010
,
2000
0000
0000
0000
,
3200
0000
0000
0000
,
0301
0000
0000
0000
,
0100
1100
0101
0011
,
2010
0000
0000
0000
,
3020
0000
0000
0000
,
0031
0000
0000
0000
,
0010
0110
0101
1100
,
1010
0020
0230
0320
,
0030
2000
0000
3002
0000
0023
0032
0000
,
1003
0000
0000
0000
0000
1000
0000
0000
,
0001
0000
0000
0000
0000
0001
0000
0000
,
0100
0002
2003
3002
,
0013
0200
0000
0320
0000
0032
2003
0000
,
3020
0230
0302
0023
,
0230
0000
2300
0000
3100
0010
0100
0010
,
0002
0000
0003
0000
0002
0000
2003
3020
,
0000
0230
0000
0320
0000
1030
0000
0000
,
0002
0000
0023
0230
0000
0320
0230
2300
,
0000
0000
0000
0000
3000
0000
0002
0203
,
0302
0000
0003
0000
0002
0000
0023
0032
,
0000
0203
0000
0320
0000
1030
0000
0000
,
2000
3200
0320
0230
2300
3002
0203
0320
,
0000
0000
0000
0000
0030
0000
2000
3002
,
2003
0000
3000
0000
2000
0000
3200
0320
,
0000
2030
0000
3020
0000
0031
0000
0000
,
0002
0000
0203
0320
0000
0032
0023
2030
,
0000
0000
0000
0000
3000
0000
0002
0203
,
0302
0000
0003
0000
0020
0000
0230
0320
,
0000
0032
0000
2003
0000
3010
0000
0000
,
0200
0302
0023
0230
0320
0032
1003
1020
,
0000
0000
0030
0000
0102
0000
0003
2000
,
3200
0000
0000
0000
,
0000
0000
0000
0000
,
0300
0000
0000
0000
;

//---------------dance-single - ----------------
#NOTES:
     dance-single:
     :
     Medium:
     5:
     0.368,0.481,0.140,0.625,0.000:
0000
0000
0000
0000
,
0000
0000
0000
0000
,
0000
0000
0000
0000
,
0000
0000
0000
0000
,
1010
0000
0000
0000
,
1001
0000
0000
0000
,
0011
0000
0000
0000
,
0200
0000
0000
0300
,
0020
0001
0000
0001
,
0000
0100
0000
0130
,
0100
1000
0000
0000
0000
0000
1000
0001
,
0000
0000
0000
0200
0000
0300
0010
0000
,
2000
0001
0000
0001
,
0000
0100
0000
3100
,
0100
1000
0000
0000
0000
0000
0100
0010
,
0000
0000
0000
0002
0000
0003
1000
0000
,
0001
0000
0100
0000
0000
0001
0100
0000
,
0010
0000
0100
0000
0000
0010
0100
0000
,
0010
0000
1000
0000
0000
0010
1000
0000
,
1000
0000
0100
0000
0000
1000
0100
0000
,
0010
0000
0100
0000
0000
0010
0100
0000
,
0010
0000
0001
0000
0000
0010
0001
0000
,
1000
0000
0100
0000
0000
0010
0100
0000
,
1000
0000
0001
0000
0000
1000
0000
1000
,
0020
0000
0000
0000
,
0000
0000
0000
0000
,
0130
0000
0000
0000
,
0100
0001
0001
0001
,
0020
0000
0000
0000
,
0000
0000
0000
0000
,
0130
0000
0000
0000
,
0100
1000
1000
1000
,
1001
0001
0100
0001
,
0000
0010
0000
0001
0000
0000
0001
0000
,
0011
0000
0000
0000
,
0101
0000
0000
0000
,
0110
0010
1000
0010
,
0000
0100
0000
0001
0000
0000
0001
0000
,
1000
0100
0010
0100
,
0010
0001
1000
0010
,
0210
0000
0300
0000
0020
0030
0000
0020
,
0000
2030
0000
3002
0000
2003
3000
0000
,
0200
0000
0000
0320
0000
0032
0000
2003
,
0000
0000
3000
0010
,
1020
0000
0030
0000
2000
3000
0000
2000
,
0000
3020
0000
0230
0000
0310
0000
0000
,
0200
0000
0302
0000
2003
0000
3200
0320
,
0000
0000
0030
0010
,
0012
0000
0003
0000
0020
0030
0000
0020
,
0000
0032
0000
0203
0000
0302
0003
0000
,
2000
0000
3000
0200
0000
2300
0000
3002
,
0000
0000
0003
0100
,
0102
0000
0003
0000
0200
0000
0300
0002
,
0000
2003
0000
3020
0000
0230
0300
0000
,
0002
0000
0023
0000
0032
0000
2003
3200
,
0000
0000
0300
0000
0010
0000
0000
0001
,
0200
0000
0000
0000
,
0000
0000
0000
0000
,
0300
0000
0000
0000
;

//---------------dance-single - ----------------
#NOTES:
     dance-single:
     :
     Easy:
     3:
     0.259,0.333,0.013,0.408,0.000:
0000
0000
0000
0000
,
0000
0000
0000
0000
,
0000
0000
0000
0000
,
0000
0000
0000
0000
,
1000
0000
0000
0000
,
0001
0000
0000
0000
,
0100
0000
0000
0000
,
0020
0000
0000
0030
,
0100
1000
0000
1000
,
0100
0001
0000
0001
,
0010
0000
0000
0100
,
1000
0000
0000
2000
0000
3000
0000
0000
,
1000
0001
0000
0001
,
0010
0100
0000
1000
,
0100
0010
0000
0010
,
0001
0000
0000
0002
0000
0003
0000
0000
,
0100
1000
0100
0000
,
0000
0100
0001
1000
,
0000
1000
0010
0001
,
0000
0001
0010
1000
,
0000
1000
0100
0001
,
0000
1000
0010
0001
,
0000
1000
0010
1000
,
0000
0000
0010
0000
0000
0100
0000
0100
,
0002
0000
0000
0000
,
0000
0000
0000
0000
,
0003
0000
0000
0000
,
0000
0010
0010
0010
,
0200
0000
0000
0000
,
0000
0000
0000
0000
,
0300
0000
0000
0000
,
0000
1000
1000
1000
,
1000
0000
0000
0000
0000
1000
0000
0000
,
0010
0000
0000
0000
0000
0010
0000
0000
,
1000
0000
0000
0000
0000
1000
0000
0000
,
0001
0000
0000
0000
0000
0001
0000
0000
,
0011
0000
0000
0000
0000
0010
0000
0000
,
0010
0000
0000
0000
0000
0010
0000
0000
,
0100
0000
0100
0000
,
1000
0001
1000
0001
,
2000
0000
3000
0000
1000
0000
0000
2000
,
0000
3000
0000
0020
0000
0030
0000
0000
,
0200
0000
0300
0020
0000
0030
0000
0200
,
0000
0000
0300
1000
,
2000
0000
3000
0000
0100
0000
0000
0200
,
0000
0300
0000
0002
0000
0003
0000
0000
,
0020
0000
0030
0000
0200
0000
0300
2000
,
0000
0000
3000
0001
,
0002
0000
0003
0000
0001
0000
0000
0002
,
0000
0003
0000
0200
0000
0300
0000
0000
,
0020
0000
0030
2000
0000
3000
0000
0200
,
0000
0300
0000
0000
0000
0000
0001
0000
,
0002
0000
0003
0000
0200
0000
0300
0020
,
0000
0030
0000
0002
0000
0003
0000
0000
,
2000
0000
3000
0000
0020
0000
0030
0200
,
0000
0000
0300
0000
0200
0300
0000
0100
,
0020
0000
0000
0000
,
0000
0000
0000
0000
,
0030
0000
0000
0000
;

//---------------dance-single - ----------------
#NOTES:
     dance-single:
     :
     Beginner:
     1:
     0.109,0.214,0.013,0.025,0.000:
0000
0000
0000
0000
,
0000
0000
0000
0000
,
0000
0000
0000
0000
,
0000
0000
0000
0000
,
1000
0000
0000
0000
,
1000
0000
0000
0000
,
1000
0000
0000
0000
,
0001
0000
0000
0000
,
0010
0000
0000
0000
,
0100
0000
0000
0000
,
0010
0000
0000
0010
,
0000
0000
0000
0000
,
0001
0000
0000
0000
,
0100
0000
0000
0000
,
0010
0000
0000
1000
,
0000
0000
0000
0000
,
0100
0000
0000
0000
,
1000
0000
0000
0000
,
0010
0000
0000
0000
,
0001
0000
0000
0000
,
0010
0000
0000
0000
,
1000
0000
0000
0000
,
0100
0000
0000
0000
,
0010
0000
0000
0000
,
0002
0000
0000
0000
,
0000
0000
0000
0000
,
0003
0000
0000
0000
,
0000
1000
1000
1000
,
2000
0000
0000
0000
,
0000
0000
0000
0000
,
3000
0000
0000
0000
,
0000
0001
0001
0001
,
0001
0000
0000
0000
,
0100
0000
0000
0000
,
1000
0000
0000
0000
,
0100
0000
0000
0000
,
0010
0000
0000
0000
,
1000
0000
0000
0000
,
0001
0000
0001
0000
,
0010
0010
0010
0010
,
0010
0000
0000
0000
,
0100
0000
0000
0000
,
0010
0000
0000
0000
,
0001
0000
0000
0000
,
1000
0000
0000
0000
,
0010
0000
0000
0000
,
0100
0000
0000
0000
,
1000
0000
0000
0000
,
0100
0000
0000
0000
,
0001
0000
0000
0000
,
0010
0000
0000
0000
,
0100
0000
0000
0000
,
1000
0000
0000
0000
,
0010
0000
0000
0000
,
1000
0000
0000
0000
,
0001
0000
0000
0000
,
1001
0000
0000
0000
;
