#TITLE:Snakes and Ladders;
#SUBTITLE:;
#ARTIST:kors k;
#TITLETRANSLIT:;
#SUBTITLETRANSLIT:;
#ARTISTTRANSLIT:;
#CREDIT:;
#BANNER:kors k - Snakes and Ladders.jpg;
#BACKGROUND:kors k - Snakes and Ladders-bg.jpg;
#LYRICSPATH:;
#CDTITLE:;
#MUSIC:kors k - Snakes and Ladders.mp3;
#OFFSET:-0.019;
#SAMPLESTART:33.334;
#SAMPLELENGTH:12.000;
#SELECTABLE:YES;
#BPMS:0.000=108.000;
#STOPS:;
#BGCHANGES:;

//---------------dance-single - Adamn----------------
#NOTES:
     dance-single:
     Adamn:
     Hard:
     10:
     0.699,0.660,0.356,0.131,0.796:
0000
0000
0000
0000
,
0000
0000
0000
0000
,
1000
0000
0000
0100
0000
0100
0010
0000
0000
0001
0000
0000
0100
0000
0000
0010
0000
0010
1000
0000
0000
0100
0000
0000
,
0010
0000
0001
0010
0000
1000
0010
0001
0100
0010
0000
0010
1000
0000
0100
1000
0000
0100
0010
0000
0001
0100
0000
0100
,
0002
0100
0000
0100
0023
0100
0000
0001
,
0230
1000
0000
0010
0000
0001
0000
0010
,
2300
0100
0000
0100
3020
0100
0000
0001
,
0230
0001
0000
0010
0000
1000
0000
0301
,
1001
0000
0000
0000
0000
1001
0000
0000
0000
0100
0000
0010
0100
0000
0000
0000
0000
0110
0000
0000
0000
1000
0000
0000
,
1100
0000
0000
0000
0000
1100
0000
0000
0000
0001
0000
0100
0010
0000
0000
0000
0000
0110
0000
0000
0000
0010
0000
0100
,
0001
0000
0000
0000
0000
0101
0000
0000
0000
0010
0000
0100
1000
0000
0000
0000
0000
1100
0000
0000
0000
1000
0000
0000
,
0101
0000
0000
0000
0000
0010
1000
0000
0000
0001
0000
0000
0101
0000
0000
1100
0000
1000
0001
0000
0000
0000
0000
0000
,
1001
0000
0000
1000
0000
0100
0010
0000
0100
0010
0000
0100
0010
0000
0100
1000
0000
0000
0010
0000
0100
0010
0000
0100
,
0001
0000
0000
0010
0000
0001
0010
0000
0001
1000
0001
1000
0001
0000
0010
0100
0000
0000
0110
0000
0000
0000
0000
0000
,
1100
0000
0000
1000
0000
0100
0010
0000
0001
1000
0000
0000
0101
0000
0000
0100
0000
0001
1000
0000
0010
1000
0000
0000
,
1100
0000
1000
0001
0000
0000
0101
0000
0001
1000
0000
0000
0001
0000
0001
0100
0000
0100
0010
0000
0010
1000
0000
1000
,
0100
0000
0000
0110
0000
0000
0011
0000
0000
1000
0000
0001
0010
0000
0001
1000
0000
0001
0010
0000
0000
0001
0100
0001
,
0010
0000
0010
0001
1000
0100
0010
0001
0010
0001
0000
0000
0100
0000
0001
1000
0000
0000
0100
0000
1000
0001
0000
0000
,
0110
0000
0000
0010
0000
1000
0001
0000
0010
0100
0000
0000
0110
0000
0000
0010
0000
0001
1000
0000
0010
0100
0000
0000
,
0100
0000
0001
1000
0000
0100
1000
0000
0001
0100
0000
0010
1000
0000
0001
0010
0000
0100
1000
0000
0001
0100
0000
0001
,
2000
0001
0000
0001
3020
0100
0000
1000
,
0230
0001
0000
0010
0000
1000
0000
0010
,
0302
0010
0000
0100
0023
0100
0000
0001
,
0230
1000
0000
0010
0000
0001
0000
0010
,
1300
0000
1000
0001
0000
0000
0001
0000
0001
0100
0000
0000
0100
0000
0100
0010
0000
0000
0010
0000
0010
1000
0000
0000
,
1000
0000
1000
0001
0000
0000
0001
0000
0001
0010
0000
0000
0010
0000
0010
0100
0000
0000
0100
0000
0100
1000
0000
0000
,
0010
0000
0010
0100
0000
0000
0001
0000
0001
1000
0000
0000
0100
0000
0100
0010
0000
0000
0001
0000
0001
0100
0000
0000
,
0010
0000
1000
0100
0000
0000
0010
0000
0001
0100
0000
0000
1000
0000
0100
0001
0000
0000
2002
0000
0000
0000
3003
0000
,
0100
0000
0000
0010
0000
1000
0100
0000
0010
0100
0000
0001
0100
0000
0010
0100
0000
0000
1000
0000
0010
0001
0000
0010
,
1000
0000
0000
0100
0000
0010
0001
0000
0100
0010
0001
0010
0100
0000
0100
0010
0000
0000
0110
0000
0000
0000
0000
0000
,
1001
0000
0000
0001
0000
0010
1000
0000
0010
0001
0000
0000
1001
0000
0000
1000
0000
0010
0001
0000
0010
1000
0000
0000
,
0001
0000
0010
0001
0000
0000
0100
0000
0010
1000
0000
0000
0001
0000
0001
0100
0000
0100
1000
0000
1000
0010
0000
0010
,
0001
0000
0000
1000
0000
0001
1000
0000
0000
0100
0000
0000
0010
0000
0001
0100
0000
0010
1000
0000
0000
0100
1000
0100
,
0010
0000
0010
0001
0100
0010
1000
0010
1000
0001
0000
0000
0010
0000
0001
1000
0000
0000
0010
0000
1000
0001
0000
0000
,
0100
0000
0000
0001
0000
1000
0100
0000
0010
0100
0000
0000
0110
0000
0000
1000
0000
0001
0100
0000
0010
0100
0000
0000
,
0110
0000
0001
1000
0000
0000
0100
0000
0010
0001
0000
0100
0010
0000
0100
1000
0000
0100
0010
0000
0100
0001
0000
1000
,
0100
0000
0000
0010
0000
0001
0100
0000
0001
1000
0000
0001
0010
0000
0001
1000
0000
0000
0001
0000
0100
0010
0000
1000
,
0100
0000
0000
1000
0000
0001
0100
0000
1000
0100
0001
0100
0010
0000
1000
0100
0000
0000
0110
0000
0000
0001
0000
0000
,
1001
0000
0000
1000
0000
0100
0001
0000
0100
1000
0000
0000
1001
0000
0000
0001
0000
0100
1000
0000
0100
0001
0000
0000
,
1100
0000
0001
0010
0000
0000
0101
0000
1000
0010
0000
0000
0100
0000
0010
0100
0000
0001
0010
0000
1000
0010
0000
0001
,
0100
0000
0000
0011
0000
0000
1001
0000
0000
1100
0000
0000
1000
0000
0100
0001
0000
0100
0010
0000
0000
0100
0001
0100
,
1000
0000
0010
0100
0001
0010
1000
0010
0100
1000
0000
0000
0010
0000
0100
0001
0000
0000
0010
0000
0100
1000
0000
0000
,
0101
0000
0000
0010
0000
0001
0010
0000
0100
1000
0000
0000
1100
0000
0000
0010
0000
1000
0010
0000
0100
0001
0000
0000
,
0011
0000
0010
0100
0000
0000
1000
0000
0010
0100
0000
0001
0010
0000
0100
1000
0000
0010
0100
0000
0001
1000
0000
0100
,
0010
0000
0000
0000
;

//---------------dance-single - Adamn----------------
#NOTES:
     dance-single:
     Adamn:
     Medium:
     7:
     0.451,0.495,0.150,0.272,0.192:
0000
0000
0000
0000
,
0000
0000
0000
0000
,
1000
0000
0000
0000
0000
0010
0100
0000
0000
0001
0000
0000
0001
0000
0000
0000
0000
0010
0100
0000
0000
1000
0000
0000
,
0010
0100
0001
1000
0100
0001
0100
1000
,
0002
0000
0203
0000
,
0320
0000
0000
0000
,
2030
0000
3200
0000
,
0320
0000
0000
0000
,
0031
1000
0000
1000
0100
1000
0000
1000
,
0010
1000
0000
1000
0001
1000
0000
1000
,
0002
0100
0000
0100
2003
0100
0000
0100
,
3010
0000
0000
0000
0010
0000
0100
0000
0000
0001
0000
0000
1001
0000
0000
1001
0000
0000
1001
0000
0000
0000
0000
0000
,
0200
0010
0010
0010
0310
0200
0010
0310
,
0200
0010
0010
0010
0310
0200
0010
0300
,
0001
0000
0000
1000
0000
0001
1000
0000
0001
0000
0000
0000
0010
0000
0000
0100
0000
0010
0100
0000
0010
0000
0000
0000
,
0001
1000
0100
0010
0001
0100
0010
1000
,
0002
1000
1003
0002
1000
1000
1003
0001
,
0100
0000
0010
1000
0000
0000
0100
0000
0010
0001
0000
0000
0100
0000
0001
1000
0000
0000
0100
0000
1000
0001
0000
0000
,
0200
0010
0010
0310
0200
0010
0010
0310
,
0200
0010
0010
0301
1000
0100
0010
0001
,
2000
0000
0000
0000
3200
0000
0000
0320
,
0000
0000
0000
0032
,
0203
0000
0000
0000
0320
0000
0000
2030
,
0000
0000
0000
3200
,
0310
0000
0010
0001
0000
0000
0000
0000
0000
0100
0000
0000
0010
0000
0010
1000
0000
0000
0000
0000
0000
0100
0000
0000
,
1000
0000
1000
0001
0000
0000
0000
0000
0000
0100
0000
0000
0001
0000
0001
1000
0000
0000
0000
0000
0000
0100
0000
0000
,
0010
0000
0100
1000
0000
0000
0000
0000
0000
1000
0000
0000
0010
0000
0100
0001
0000
0000
0000
0000
0000
0001
0000
0000
,
0010
0000
0010
0100
0000
0000
0100
0000
0100
0010
0000
0000
0001
0000
0000
1000
0000
0000
1001
0000
0000
0000
0000
0000
,
0001
0000
0000
0000
0000
0010
0100
0000
0000
1000
0000
0000
1000
0000
0000
0000
0000
0010
0100
0000
0000
0001
0000
0000
,
1000
0000
0000
0000
0000
0100
0010
0000
0000
0001
0000
0000
1000
0000
0000
0001
0000
0000
1001
0000
0000
0000
0000
0000
,
0100
0000
0000
0000
0000
0100
1000
0000
0000
0001
0000
0000
0100
0000
0000
0000
0000
0100
0001
0000
0000
1000
0000
0000
,
0100
0000
0010
0100
0000
0000
1000
0000
0001
1000
0000
0000
0100
0000
0000
0010
0000
0000
0001
0000
0000
0100
0000
0000
,
0001
0011
1001
0001
1001
0011
1001
0001
,
1000
0000
0010
1000
0000
0000
0001
0000
0010
0001
0000
0000
0100
0000
0000
0010
0000
0000
1000
0000
0000
0001
0000
0000
,
0200
0000
0000
0010
0000
0000
0010
0000
0310
0000
0000
0000
0020
0000
0000
0100
0000
0000
0100
0000
0130
0000
0000
0000
,
0100
0001
1000
0100
0010
0001
0100
0010
,
1000
0000
0000
0000
0000
0100
0010
0000
0000
0001
0000
0000
0001
0000
0000
0000
0000
0100
0010
0000
0000
1000
0000
0000
,
0001
0000
0000
0000
0000
0010
0100
0000
0000
1000
0000
0000
0001
0000
0000
1000
0000
0000
1001
0000
0000
0000
0000
0000
,
0010
0000
0000
0000
0000
0010
0001
0000
0000
1000
0000
0000
0010
0000
0000
0000
0000
0010
1000
0000
0000
0001
0000
0000
,
0010
0000
0100
0010
0000
0000
0001
0000
1000
0001
0000
0000
0010
0000
0000
0100
0000
0000
1000
0000
0000
0010
0000
0000
,
1000
1100
1001
1000
1001
1100
1001
1000
,
0001
0000
0100
0001
0000
0000
1000
0000
0100
1000
0000
0000
0010
0000
0000
0100
0000
0000
0001
0000
0000
1000
0000
0000
,
0020
0000
0000
0100
0000
0000
0100
0000
0130
0000
0000
0000
0200
0000
0000
0010
0000
0000
0010
0000
0310
0000
0000
0000
,
0010
1000
0001
0010
0100
1000
0010
0100
,
0001
0000
0000
0000
;

//---------------dance-single - Adamn----------------
#NOTES:
     dance-single:
     Adamn:
     Easy:
     3:
     0.234,0.247,0.131,0.000,0.000:
0000
0000
0000
0000
,
0000
0000
0000
0000
,
1000
0001
0100
0010
,
1000
0100
0010
0001
,
0000
0100
0000
0100
0000
0010
0000
0010
,
0000
1000
0000
1000
0000
1000
0000
1000
,
0000
0100
0000
0100
0000
0010
0000
0010
,
0000
0001
0000
0001
0000
0001
0000
0001
,
0100
0000
0101
0000
,
0010
0000
1010
0000
,
0100
0000
1100
0000
,
0010
0000
0001
0000
0100
0100
0100
0000
,
1000
0010
0001
0100
,
1000
0010
0001
0100
,
1000
0001
1000
0001
,
1000
0010
0100
0001
,
1000
0100
0001
0010
,
1000
0100
0001
0010
,
1000
0001
1000
0001
,
1000
0010
0100
0001
,
1000
0001
0000
0010
0000
0100
0000
1000
,
0000
0001
0000
0100
0000
0010
0000
1000
,
0000
0100
0000
0001
0000
0010
0000
1000
,
0000
0100
0000
0001
0000
0010
0000
1000
,
1001
0000
0110
0000
,
0101
0000
1010
0000
,
1100
0000
0011
0000
,
1100
0000
0101
0000
0010
0010
0010
0000
,
1000
0001
0001
0001
,
1000
0001
0001
0001
,
0100
0010
0100
0010
,
1000
0100
0001
0100
,
1000
0010
0010
0010
,
1000
0010
0010
0010
,
0100
0001
0010
0100
,
1000
0000
0010
0000
0100
0000
0001
1000
,
0001
0010
0100
1000
,
0010
0100
0001
1000
,
0100
0001
0100
1000
,
0010
0100
0001
1000
,
0010
0100
0010
0010
,
0100
0010
0100
0001
,
1000
1100
0001
0101
,
0010
1000
0100
0010
,
1001
0000
0000
0000
;
