#TITLE:Peacock;
#SUBTITLE:;
#ARTIST:7 Minutes Dead;
#TITLETRANSLIT:;
#SUBTITLETRANSLIT:;
#ARTISTTRANSLIT:;
#CREDIT:;
#BANNER:[Round 1 Singles & Doubles] - Peacock.png;
#BACKGROUND:[Round 1 Singles & Doubles] - Peacock-bg.png;
#LYRICSPATH:;
#CDTITLE:;
#MUSIC:[Round 1 Singles & Doubles] - Peacock.ogg;
#OFFSET:-8.001;
#SAMPLESTART:24.000;
#SAMPLELENGTH:12.000;
#SELECTABLE:YES;
#BPMS:0.000=120.000;
#STOPS:78.000=0.500
,125.000=0.500
,128.500=0.500
,135.750=0.250
,143.000=0.500
,145.500=0.250
,146.000=0.250
,149.250=0.250
,152.000=0.500
;
#BGCHANGES:;

//---------------dance-single - ----------------
#NOTES:
     dance-single:
     :
     Hard:
     8:
     0.500,0.579,0.173,0.173,0.367: // measure 1
0001
0000
0000
0001
0000
0000
0001
0000
0100
0000
0010
0000
1000
0000
0100
0000
,  // measure 2
0010
0000
0000
0010
0000
0000
0010
0000
0100
0000
0000
1000
0000
0100
0000
0000
,  // measure 3
1000
0000
0000
1000
0000
0000
1000
0000
0001
0000
0100
0000
0010
0000
0100
0000
,  // measure 4
0001
0010
0100
1000
0100
0001
0100
1000
,  // measure 5
0010
0000
0000
0010
0000
0000
0010
0000
0100
0001
0100
0001
0100
0000
0001
0000
,  // measure 6
1000
0000
0000
1000
0000
0000
1000
0000
0001
0000
0000
0010
0000
0010
0000
0000
,  // measure 7
0100
0000
0000
0100
0000
0000
0100
0000
1000
0010
1000
0010
1000
0000
1000
0000
,  // measure 8
0100
0000
0010
0000
0001
0000
1000
0000
0010
0000
0100
0001
0100
0000
0000
0000
,  // measure 9
0001
0000
0000
1000
0000
0000
0010
0000
0100
0001
0010
0100
1000
0000
0001
0000
,  // measure 10
0100
0000
0000
0001
0000
0000
0010
0000
0100
1000
0000
0001
0000
0001
0000
0000
,  // measure 11
1000
0000
0000
0010
0000
0000
1000
0000
0001
0100
0010
1000
0001
0000
1000
0000
,  // measure 12
0100
0000
0010
0100
0000
0100
0000
0100
1000
0000
0001
0100
0001
0000
0001
1000
,  // measure 13
0010
0000
0000
0100
0000
0000
0010
0000
0100
0010
1000
0100
0010
0000
0001
0000
,  // measure 14
1000
0000
0000
0010
0000
0000
0100
0000
0001
0010
0000
0100
0000
0100
0000
0000
,  // measure 15
0010
0000
0000
0001
0000
0000
1000
0000
0001
0100
0010
0100
0001
0000
1000
0000
,  // measure 16
0100
0000
0010
0001
0000
0010
0000
0000
0100
0000
1000
0001
1000
0000
1000
0001
,  // measure 17
0100
0100
0001
0001
,  // measure 18
1000
1000
0010
0010
,  // measure 19
1000
0100
1000
0010
,  // measure 20
0100
0001
0000
2000
,  // measure 21
3010
0002
0013
2000
,  // measure 22
3100
0002
0103
0001
,  // measure 23
0010
0000
0100
0000
1000
0000
0001
0010
,  // measure 24
0100
0000
1000
0100
0010
0000
0100
0010
0001
0000
1000
0000
0010
0000
0100
0000
,  // measure 25
0001
0000
0000
0010
0000
0000
0100
0000
0000
0010
0000
0000
0001
1000
0001
0100
0000
0000
0100
0000
0000
0001
0000
0000
,  // measure 26
1000
0000
0002
0000
0000
0000
1003
0010
0000
0000
0100
0000
0001
0000
0010
0000
,  // measure 27
0100
1000
0100
0010
0100
1000
0001
0100
,  // measure 28
0010
0000
0100
0001
0010
0000
0100
1000
0010
0000
0100
0000
0001
0000
1000
0000
,  // measure 29
0100
0000
0000
0010
0000
0000
0100
0000
0000
1000
0000
0000
0001
0010
0001
0100
0000
0000
0001
0000
0000
1000
0000
0000
,  // measure 30
0100
0000
0020
0000
0000
0000
0130
0020
0000
0000
0031
0000
1000
0000
0100
0000
,  // measure 31
0010
0001
1000
0010
0100
0001
1000
0001
,  // measure 32
0100
0000
0010
1000
0001
0000
0000
0000
1000
0000
0000
0000
0100
0000
0000
0000
,  // measure 33
0010
0100
0010
0000
0001
0000
1000
0000
,  // measure 34
0001
0000
0000
0000
0100
0000
0000
0000
0001
0000
0000
0000
0010
0000
0000
0100
,  // measure 35
0000
1000
0100
1000
0000
0001
0000
0000
0100
0000
0010
0000
0000
0000
1000
0000
,  // measure 36
0000
0001
0010
0100
0010
0001
0010
0200
,  // measure 37
0300
0010
0000
0001
1001
1000
0000
0101
,  // measure 38
0000
0000
0001
0000
0000
1100
0000
0001
0100
0010
0000
0100
0000
0001
1000
0000
,  // measure 39
0200
0300
2002
3003
0110
0000
1001
0000
,  // measure 40
1000
0000
0010
0000
0100
0000
2000
0000
3100
0001
0010
0100
1000
0000
0001
0000
,  // measure 41
1001
0000
0000
0001
0100
0010
0000
0100
0000
0010
0000
0000
1000
0000
0000
0000
,  // measure 42
0100
0000
1000
0000
0001
0000
1000
0000
0010
0000
0100
0001
0020
0000
0100
0000
,  // measure 43
0000
0130
0110
0000
0011
0000
0110
0000
,  // measure 44
1100
0000
1000
0000
0001
0000
0100
0000
1000
0100
0010
1000
0001
0010
0100
0000
,  // measure 45
1001
0000
0000
0000
1000
0100
0000
1000
0000
0010
0000
0000
1000
0000
0000
0000
,  // measure 46
0100
0000
0010
0000
0100
0000
1000
0000
0001
0000
0100
0010
1000
0000
0001
0000
,  // measure 47
1010
0101
1002
0000
0103
1000
0100
0010
,  // measure 48
1010
0000
0101
0000
0100
0000
0020
0030
0100
0000
0001
1000
0100
1000
0001
0010
,  // measure 49
0100
0000
0000
0000
0010
0001
0000
0010
0000
0100
0000
0000
1100
0000
0000
0000
,  // measure 50
1000
0000
0000
0010
0000
0000
0110
0000
0000
0000
0000
0000
0010
0000
0000
0100
0010
0100
0001
0000
0000
0100
0000
0000
,  // measure 51
0000
0010
1001
0000
0201
0000
0320
0000
,  // measure 52
1030
0000
0100
0000
0001
0000
0200
0300
1000
0000
0001
0100
0010
1000
0100
0000
,  // measure 53
0110
0000
0020
0000
0031
0010
0001
0010
0001
2000
0000
0000
3100
0000
0000
0000
,  // measure 54
1000
0000
0000
0010
0000
0000
0100
0000
0000
0000
0000
0000
0000
0000
0000
0000
0010
0100
0010
0000
0000
2000
0000
0000
,  // measure 55
0000
3002
0000
0000
0100
0000
0000
0000
,  // measure 56
0100
0000
0100
0000
,  // measure 57
0100
0000
0003
0000
;

//---------------dance-single - ----------------
#NOTES:
     dance-single:
     :
     Medium:
     6:
     0.385,0.401,0.252,0.095,0.067:
0001
1000
0010
0000
0000
0100
0010
0000
,
0100
0010
1000
0000
0000
0010
0100
0000
,
0001
0100
0010
0000
0000
0100
0010
0000
,
0100
0001
1000
0000
0100
1000
0010
0000
,
0100
0001
1000
0000
0000
0100
1000
0000
,
0100
1000
0010
0000
0000
0100
0001
0000
,
0010
0100
1000
0000
0000
0100
1000
0000
,
0010
0100
0001
0000
1000
0100
0010
0000
,
1001
0000
0000
1000
0000
0000
0001
0000
1000
0000
0100
0000
0010
0000
0100
0000
,
1000
0000
0000
1000
0000
0000
0001
0000
0100
0000
0000
0010
0000
0010
0000
0000
,
0100
0000
0000
0001
0000
0000
0010
0000
0001
0000
0010
0000
0100
0000
0010
0000
,
0001
0000
1000
0000
0000
1000
0000
0000
0001
0000
0100
0000
0001
0000
0010
0000
,
0100
0000
0000
0100
0000
0000
0100
0000
0010
0000
0100
0000
1000
0000
1000
0000
,
0001
0000
0000
0001
0000
0000
0010
0000
0001
0000
0000
1000
0000
1000
0000
0000
,
0001
0000
0000
0001
0000
0000
0100
0000
0010
0000
0100
0000
0001
0000
0001
0000
,
1000
0000
0010
0000
0000
0100
0000
0000
0010
0000
1000
0000
0001
0000
1000
0000
,
1020
1000
1000
1030
,
0201
0001
0001
0301
,
2100
0100
0100
3100
,
0102
0100
0003
1002
,
0103
2001
3100
1002
,
0103
2001
3100
1002
,
0013
0000
2001
0000
3010
0000
0001
0010
,
0100
1000
0100
0010
0100
1000
1001
1001
,
0000
0000
0001
1000
0001
0100
0000
0010
,
0100
0001
0000
1001
0000
0001
1000
0001
,
0100
1000
0100
0000
0100
0000
0010
1000
,
0100
0010
0001
0010
0100
1000
0011
0011
,
0000
0000
0010
0100
1000
0001
0000
1000
,
0001
0010
0000
1001
0000
0000
0001
0100
,
0001
0010
0001
0000
1000
0000
0001
0010
,
0001
0100
0010
0000
0100
0000
0001
0000
,
0100
0010
1000
0000
0001
0000
0010
0000
,
0100
0000
0000
0000
0010
0000
0000
0000
0001
0000
0000
0000
1000
0000
0000
0001
,
0000
0100
0000
0010
0000
1000
0000
0001
,
0000
1000
0000
0100
0000
0010
0100
0010
,
0000
0001
0000
1000
0001
0100
0000
0001
,
0000
0000
0010
0000
0000
0100
0000
0000
0100
0000
0000
0000
1000
0000
0010
0000
,
0100
1001
0101
1001
,
1000
0100
0010
0000
0100
1000
0010
0100
,
0100
0010
1000
0001
,
0010
0100
1000
0000
0100
0000
1000
0010
,
0100
0001
0101
0000
0110
0000
1001
0000
,
0001
0010
0100
0000
0010
0000
0001
1000
,
1010
0001
0100
0010
,
0100
0001
0010
0000
0100
0000
0010
0001
,
1001
0110
1001
0000
1010
0000
1001
0000
,
0001
0010
0100
0000
0010
0001
0100
0010
,
0010
0000
0000
0000
0100
0000
0000
0010
0000
1000
0000
0000
1000
0000
0000
0000
,
0100
0010
0001
0000
0010
0000
0001
0100
,
0010
1000
1010
0000
0110
0000
1001
0000
,
1000
0100
0010
0000
0100
0000
1000
0001
,
0001
0010
0200
0000
0000
0000
1300
0000
,
1000
0000
0001
0000
0010
0000
0000
0000
0000
0000
0000
0100
1000
0000
0001
0000
,
0000
0200
0000
0000
0010
0000
0000
0000
,
0010
0000
0010
0000
,
0010
0000
0300
0000
;

//---------------dance-single - ----------------
#NOTES:
     dance-single:
     :
     Easy:
     4:
     0.253,0.370,0.221,0.047,0.000:
0001
0000
1000
0000
,
0001
0000
0100
0000
,
0001
0000
1000
0000
,
0001
0000
0100
0000
,
0010
1000
0002
0003
,
1000
0001
0200
0300
,
0001
1000
0020
0030
,
0100
0001
1000
0010
,
1001
0001
1000
0010
,
1000
0001
0100
0100
,
0001
1000
0010
0010
,
1000
0100
0010
0001
,
0100
0010
0001
0001
,
0010
0100
1000
1000
,
0100
0010
1000
1000
,
0001
0010
0100
1000
,
0202
0000
0000
0000
,
0000
0000
0000
0303
,
0001
0010
0100
1000
,
0100
0010
0000
0001
,
0001
0100
0100
0010
,
0010
1000
1000
0001
,
0001
0100
0100
0010
,
0010
0000
1000
0000
0100
0000
0010
0100
,
0000
0010
0001
1000
,
0010
0000
0100
0001
,
0010
0100
0010
0001
,
1000
0000
0110
0000
0110
0000
0010
0100
,
0000
0010
1000
0001
,
1000
0100
0000
1000
,
0100
1000
0010
0100
,
0001
0010
0100
0010
,
0001
1000
0001
0100
,
0000
0001
1000
0010
,
0000
0100
0000
0010
0000
1000
0000
0000
,
0000
0001
0000
0001
0000
0001
0000
1000
,
0000
1000
0000
0010
0100
0010
0000
0010
,
0000
0010
0000
0000
0100
0000
0010
0000
,
1000
1001
0110
1001
,
0110
0100
0001
0010
,
0100
0010
0001
1000
,
0001
0100
0001
1000
,
0100
1001
1100
1001
,
0101
0001
0010
0100
,
0010
0100
1000
0001
,
0100
0001
0000
1000
,
0010
0110
0101
1010
,
1100
0110
0011
1001
,
0101
0001
0100
0010
,
0100
0001
0000
1000
,
0100
1100
0011
0101
,
1010
1001
0110
1001
,
1001
1000
0010
1000
,
0001
0010
0000
0100
,
0000
0020
0000
0000
0000
0000
0000
0000
,
0000
0030
0000
0000
0000
0000
0000
0000
;

//---------------dance-double - ----------------
#NOTES:
     dance-double:
     :
     Hard:
     9:
     0.515,0.512,0.394,0.126,0.319:
00011000
00000000
00000000
00010000
00000000
00000000
00000100
00000000
00001000
00000000
00001000
00000000
00000010
00000000
00000100
00000000
,
00000010
00000000
00000000
00000010
00000000
00000000
00000010
00000000
00000100
00000001
00000000
00001000
00000000
00001000
00000000
00000000
,
00000100
00000000
00000000
00000100
00000000
00000000
00000100
00000000
00010000
00000000
00100000
00000000
10000000
00000000
00100000
00000000
,
01000000
00000000
10000000
00000000
00100000
00000000
00010000
00000000
00100000
00000000
01000000
00001000
00100000
00000000
00001000
00010000
,
00001000
00000000
00000000
00001000
00000000
00000000
00010000
00000000
00100000
01000000
00100000
01000000
00100000
00000000
01000000
00000000
,
11000000
00000000
00000000
10000000
00000000
00000000
10000000
00000000
10000000
00010000
00000000
00100000
00000000
00100000
00000000
00000000
,
00101000
00000000
00000000
00100000
00000000
00000000
00100000
00000000
00001000
01000000
00001000
01000000
00001000
00000000
00010000
00000000
,
00000100
00000000
00000010
00000000
00000001
00000000
00000100
00000000
00000010
00000000
00001000
00000100
00010000
00000000
00000000
00000000
,
00110000
00000000
00000000
00110000
00000000
00000000
00110000
00000000
00010000
00000000
01000000
00000000
00001000
00000000
00010000
00000000
,
00001100
00000000
00000000
00001100
00000000
00000000
00001100
00000000
00000100
00000010
00000000
00000001
00000000
00000001
00000000
00000000
,
00001010
00000000
00000000
00001010
00000000
00000000
00001010
00000000
00000010
00000000
00001000
00000000
00000100
00000000
00010000
00000000
,
00001000
00100000
00001000
00000000
00100000
00000000
01000000
00000000
10000000
00000000
00010000
01000000
00100000
00000000
01000000
00001000
,
00010000
00000000
00000000
00000100
00000000
00000000
00001000
00000000
00000010
00000100
00000010
00000100
00000001
00000000
00000010
00000000
,
00000100
00000000
00000000
00010000
00000000
00000000
00001000
00000000
00010000
00100000
00000000
00010000
00000000
00010000
00000000
00000000
,
00100000
00000000
00000000
00001000
00000000
00000000
00010000
00000000
00000100
00001000
00000100
00001000
00000100
00000000
00000010
00000000
,
00000001
00000000
00000100
00000000
00000010
00000000
00001000
00000000
00000100
00000000
00010000
00001000
00010000
00000000
00001000
00010000
,
00000200
00001000
00010000
00001300
,
00002000
00000100
00010000
00003100
,
00000200
00001000
00010000
00001000
,
00010000
00010000
00000300
00200000
,
00010000
00001000
00310000
00020000
,
00100000
00001000
00130000
00200000
,
00010000
00000000
00001000
00000000
00010000
00000000
00001000
00001000
,
00301000
00001000
00100000
10000000
00100000
01000000
11000000
11000000
,
00000000
00000000
00000000
00000000
01000000
00000000
00100000
00000000
00001000
00100000
00001000
00000000
00010000
00000000
00000010
00000000
,
00000100
00000000
00000200
00000000
00000000
00000000
00000010
00000310
00000000
00000000
00000100
00000000
00000001
00000000
00000010
00000000
,
00000100
00001000
00000100
00010000
01000000
01000000
10000000
00010000
,
01000000
00000000
00100000
10000000
01000000
00000000
00100000
00010000
01000000
00000000
00100000
00000000
10100000
00000000
10100000
00000000
,
00000000
00000000
00000000
00000000
10000000
00000000
00010000
00000000
00100000
00001000
00010000
00000000
00000100
00000000
00001000
00000000
,
00000010
00000000
00000200
00000000
00000000
00000000
00000001
00000301
00000000
00000000
00000002
00000000
00000103
00000000
00000001
00000000
,
00000010
00000100
00001000
00000100
00010000
01000000
00100000
00100000
,
01000000
01000000
10010000
00000000
00010000
00000000
00100000
00000000
,
00010000
01000000
00001000
00000000
00100000
00000000
00101000
00000000
,
00001001
00000000
00000000
00000000
00000001
00000000
00000000
00000000
00000100
00000000
00000000
00000000
00000010
00000000
00000000
00001010
,
00000000
00000010
00001000
00000100
00000000
00000000
00000100
00000000
00010000
00000000
00001000
00000000
00001000
00000000
00100000
00000000
,
00100000
00001000
00100000
00001000
00010000
00000100
00010000
00021000
,
00000000
00030100
00010000
00011000
00100010
00011000
00000000
00011000
,
00000000
00000000
00011000
00000000
00000000
00101000
00000000
00100000
00010000
10000000
00000000
00100000
01000000
00000000
00010000
00000000
,
10010000
10010000
00011000
00001001
,
00000110
00000000
00000010
00000000
00000100
00000000
00000010
00000000
00001000
00000000
00000100
00000000
00010000
00001000
00010000
00000000
,
00011000
00000000
00000000
00000000
00010000
00100000
00000000
01000000
00000000
10000000
00000000
00000000
00100000
00000000
00000000
00000000
,
01000000
00000000
00000000
00010000
00000000
00000000
10010000
00000000
00000000
00000000
00000000
00000000
00010000
00000000
00000000
10000000
00100000
10000000
00100000
00000000
00000000
01000000
00000000
00000000
,
00000000
00010000
00110000
00000000
00001010
00000000
00110000
00000000
,
00001010
00000000
00000010
00000000
00000100
00000000
00000001
00000000
00000010
00000000
00000100
00000010
00000001
00001000
00000010
00000000
,
00000101
00000000
00000000
00000000
00000100
00000001
00000000
00001000
00000000
00000010
00000000
00000000
00001010
00000000
00000000
00000000
,
00000010
00000000
00001000
00000000
00000200
00000000
00000000
00000000
00010300
00000000
00001000
00010000
00001000
00000000
00100000
00000000
,
00110000
11000000
10020000
00000000
00130000
00000000
20010000
00000000
,
00100000
00000000
00100000
00000000
30010000
00000000
00100000
00000000
00001000
00000000
00010000
00000100
00001000
00000010
00000100
00000000
,
00000101
00000000
00000000
00000000
00000001
00000100
00000001
00000010
00000000
00000100
00000000
00000000
00000110
00000000
00000000
00000000
,
00000100
00000000
00000000
00001000
00000000
00000000
00000100
00000000
00000000
00000000
00000000
00000000
00001000
00000000
00000000
00000100
00001000
00000100
00001000
00000000
00000000
00000100
00000000
00000000
,
00010000
00001000
00011000
00000000
00100010
00000000
00011000
00000000
,
01000100
00000000
00000100
00000000
00010000
00000000
00001000
00000000
00010000
00000000
00100000
01000000
10000000
00100000
01000000
00010000
,
10000000
00000000
00000000
00020000
01030000
00010000
01000000
00010000
01000000
00200000
00000000
00000000
01300000
00000000
00000000
00000000
,
00100000
00000000
00000000
10000000
00000000
00000000
00010000
00000000
00000000
00000000
00000000
00000000
00000000
00000000
00000000
00000000
10000000
01000000
10000000
00000000
00000000
01000000
00000000
00000000
,
00000000
00200000
00000000
00000000
00010000
00000000
00000000
00000000
,
00001000
00000000
00010000
00000000
,
00001000
00000000
00310000
00000000
;

//---------------dance-double - ----------------
#NOTES:
     dance-double:
     :
     Medium:
     6:
     0.389,0.446,0.371,0.110,0.055:
10000000
00000000
10010000
00000000
00010000
01000000
00010000
00000000
,
00100000
00000000
00101000
00000000
00001000
00010000
00001000
00000000
,
00010000
00000000
00001010
00000000
00000010
00000100
00000010
00000000
,
00000100
00000001
00000010
00000000
00000100
00001000
00000100
00000000
,
00000100
00000000
00010100
00000000
00000100
00010000
00100000
01000000
,
10000000
00000000
11000000
00000000
10000000
00010000
01000000
00000000
,
00100000
00000000
10100000
00000000
10000000
00010000
00100000
01000000
,
00100000
00001000
00010000
00000100
00010000
00001000
00100000
00000000
,
00010000
00000000
00000000
01000000
00000000
00000000
00010000
00000000
01000000
00000000
00100000
00000000
01000000
00000000
00100000
00000000
,
10000000
00000000
00000000
00100000
00000000
00000000
10000000
00000000
00100000
00000000
00000000
01000000
00000000
00010000
00000000
00000000
,
00100000
00000000
00000000
00001000
00000000
00000000
00100000
00000000
00001000
00000000
00010000
00000000
00001000
00000000
00010000
00000000
,
00000100
00001000
00000100
00000010
00000001
00001000
00000001
00001000
,
00000010
00000000
00000000
00000010
00000000
00000000
00000010
00000000
00001000
00000000
00000100
00000000
00010000
00000000
00001000
00000000
,
00100000
00000000
00000000
00100000
00000000
00000000
00100000
00000000
01000000
00000000
00000000
10000000
00000000
10000000
00000000
00000000
,
01000000
00000000
00000000
01000000
00000000
00000000
01000000
00000000
00100000
00000000
00010000
00000000
00100000
00000000
00010000
00000000
,
01000000
00100000
10000000
00010000
00100000
00001000
00010000
00000100
,
00002200
00000000
00000000
00003300
,
00020200
00000000
00000000
00030300
,
00202000
00303000
00220000
00330000
,
22000000
33000000
00000000
10000000
,
01000000
00100000
00010000
00001000
,
00000100
00000010
00000001
00000001
,
00000010
00000000
00000100
00000000
00001000
00000000
00010000
01000000
,
10000000
01000000
00100000
10000000
00010000
00100000
01100000
01100000
,
00000000
00000000
00100000
01000000
10000000
00100000
00000000
01000000
,
00010000
00100000
00000000
01000000
00000000
00100000
01000000
00001000
,
00010000
00000100
00001000
00000000
00000010
00000000
00000100
00000001
,
00000100
00000000
00000010
00001000
00000010
00000000
00001010
00001010
,
00000000
00000000
00000010
00001000
00000100
00010000
00000000
00001000
,
00010000
00001000
00000000
00100000
00000000
01000000
10000000
01000000
,
00100000
00000000
00010000
00000000
00100000
00000000
00000000
00010000
00000000
00000000
01000000
00000000
00100000
00000000
10000000
00000000
,
00010000
00100000
01000000
00000000
00100000
00000000
00010000
00000000
,
01000000
00100000
01000000
00000000
00010000
00000000
10000000
00000000
,
10010000
00000000
00000000
00000000
00010000
00000000
00000000
00000000
00100000
00000000
00000000
00000000
00010000
00000000
00000000
00100000
,
00000000
01000000
00000000
00100000
00000000
00001000
00010000
00000010
,
00000100
00000001
00000000
00001000
00000000
00000010
00000100
00000001
,
00000000
00001000
00000000
00001001
00000110
00001001
00000000
00000001
,
00000000
00000000
00000100
00000000
00000000
00000010
00000000
00000000
00000100
00000000
00000000
00000000
00000010
00000000
00001000
00000000
,
00000100
00010100
00011000
01001000
,
00011000
00000000
00001000
00010000
00000100
00010000
00001000
00100000
,
00001000
00110000
11000000
00110000
,
11000000
00000000
10000000
00010000
01000000
00000000
01000000
00010000
,
00100000
00011000
00010100
00011000
,
01001000
00000000
00001000
00100000
00010000
00000000
00100000
00001000
,
00010000
00001100
00000101
00001100
,
00000101
00000000
00000001
00000000
00000100
00000000
00000010
00000100
,
00000101
00001010
00001100
00000000
01010000
00000000
00001100
00000000
,
01010000
00000000
00001100
00001000
00000100
00000010
00000001
00000010
,
00000001
00000001
00000010
00000100
,
00001000
00000100
00010000
01000000
,
00100000
00110000
00001010
00110000
,
00001010
00000000
00110000
00010000
00100000
01000000
00100000
00100000
,
01000000
00200000
00000000
00300000
,
00010000
00000000
10000000
00000000
00100000
00000000
00000000
00000000
00000000
00000000
00000000
02000000
03000000
00000000
00200000
00000000
,
00000000
20000000
00000000
00000000
00000000
00000000
00000000
00000000
,
00000000
00000000
00000000
00000000
,
00000000
00000000
30300000
00000000
;

//---------------dance-double - ----------------
#NOTES:
     dance-double:
     :
     Easy:
     3:
     0.238,0.309,0.205,0.087,0.000:
10000000
00000000
00000000
00000000
,
10000000
00000000
00000000
00000000
,
00010000
00000000
00000000
00000000
,
00010000
00000000
01000000
00000000
,
00100000
00000000
01000000
01000000
,
00010000
00000000
00100000
00100000
,
00001000
00000000
00010000
00010000
,
00000100
00000010
00000002
00000103
,
00000010
00001000
00000010
00001010
,
00001000
00000100
00010000
00011000
,
00001000
00100000
00001000
00101000
,
00001000
01000000
00100000
10000000
,
00010000
00100000
00010000
00110000
,
00100000
01000000
10000000
10010000
,
00010000
01000000
00010000
01010000
,
01000000
00001000
00010000
00000100
,
00002000
00000000
00000000
00000000
,
00003020
00000000
00000000
00000000
,
00000230
00000300
00000002
00000003
,
00002000
00003000
00000000
00000001
,
00000000
00000100
00000000
00000010
,
00000000
00001000
00000000
00000100
,
00000000
00010000
00000000
00001000
,
00000000
00100000
01000000
11000000
,
00000000
01000000
00000000
10000000
,
00010000
01000000
00000000
00010000
,
00100000
01000000
10000000
00010000
,
01000000
00010000
00110000
00011000
,
00000000
00010000
00000100
00001000
,
00000000
00000010
00000000
00001000
,
00000100
00000010
00000001
00001000
,
00001000
00001000
00000001
00000001
,
00000010
00000100
00000100
00001000
,
00000100
00010000
00001000
00100000
,
00000000
00010000
00000000
01000000
00000000
00100000
00000000
00100000
,
00000000
01000000
00000000
00010000
00000000
01000000
00000000
00200000
,
00000000
02000000
00000000
03000000
00300000
01000000
00000000
00100000
,
00000000
10000000
00000000
00000000
10000000
00000000
01000000
00000000
,
00100000
10010000
01100000
10010000
,
01100000
01000000
00010000
00100000
,
00001000
00010000
00010000
00000100
,
00000100
00001000
00000010
00000100
,
00000001
00000011
00000011
00001100
,
00001100
00001000
00000010
00000100
,
00000001
00001000
00000100
00010000
,
00001000
00010000
00100000
10000000
,
10010000
00110000
11000000
00110000
,
11000000
10000000
00100000
01000000
,
00010000
00100000
00001000
00010000
,
00000100
00001000
00000010
00000100
,
00000001
00001001
00000110
00001001
,
00000110
00000001
00000100
00000010
,
00001000
00000200
00000000
00000000
,
00000300
00000000
00010000
00000000
00000000
00000000
00000000
00002000
,
00000000
00020000
00000000
00000000
00000000
00000000
00000000
00000000
,
00000000
00000000
00000000
00000000
,
00033000
00000000
00000000
00000000
;

//---------------dance-single - ----------------
#NOTES:
     dance-single:
     :
     Beginner:
     1:
     0.097,0.128,0.103,0.000,0.000:
0010
0000
0000
0000
,
0010
0000
0000
0000
,
0010
0000
0000
0000
,
0010
0000
0000
0000
,
0100
0000
0000
0000
,
0100
0000
0000
0000
,
0100
0000
0000
0000
,
0100
0000
0000
0000
,
0001
0000
0000
0000
,
1000
0000
0000
0000
,
0001
0000
0000
0000
,
1000
0000
1000
0000
,
0010
0000
0000
0000
,
0100
0000
0000
0000
,
0010
0000
0000
0000
,
0100
0000
0010
0000
,
1001
0000
0000
0000
,
0000
0000
0000
0000
,
0001
0000
0000
0000
,
0000
0000
0000
1000
,
0000
0000
0000
0010
,
0000
0000
0000
0100
,
0000
0000
0000
0001
,
0001
0001
0000
1001
,
0000
0000
0010
0000
,
0000
0000
0000
0100
,
0000
0001
0000
1000
,
0000
0000
0000
0110
,
0000
0000
0100
0000
,
0000
0000
0000
0001
,
0000
0100
0000
0001
,
0000
0000
1000
0000
,
0000
0001
0000
0000
,
0000
1000
0000
0000
,
0000
0010
0000
0000
0000
0000
0000
0000
,
0000
0100
0000
0000
0000
0000
0000
0010
,
0000
0000
0000
0000
0000
0010
0000
0000
,
0000
0000
0100
0000
,
0000
1001
0000
1001
,
0000
1001
0000
0000
,
0000
0010
0000
0000
,
0100
0100
0000
0001
,
0000
1001
0000
0110
,
0000
1001
0000
0000
,
0000
1000
0000
0000
,
0010
0010
0000
0100
,
0000
1001
0000
1001
,
0000
0110
0000
0000
,
0000
0100
0000
0000
,
0001
0001
0000
1000
,
0000
0010
0000
0100
,
0000
0001
0000
1000
,
1000
0010
0000
0000
,
0000
0100
0000
0000
,
0000
1001
0000
0000
0000
0000
0000
0000
;
