#TITLE:Move That Body;
#SUBTITLE:;
#ARTIST:Expander;
#CREDIT:;
#MUSIC:[Round 1 Singles] - Move That Body.mp3;
#SELECTABLE:YES;
#BACKGROUND:[Round 1 Singles] - Move That Body-bg.png;
#BANNER:[Round 1 Singles] - Move That Body.png;
#CDTITLE:cdtitle.png;
#DISPLAYBPM:196;
#OFFSET:-0.89576;
#SAMPLESTART:82.784;
#SAMPLELENGTH:22.041;
#BPMS:0=196;
#STOPS:;

//---------------dance-single - ----------------
#NOTES:
     dance-single:
     :
     Beginner:
     2:
     0.000,0.000,0.000,0.000,0.000:
0000
0000
0000
0000
,
0000
0000
0000
0000
,
0000
0000
0000
0000
,
0000
0000
0000
0000
,
0000
0000
0000
0000
,
0000
0000
0000
0000
,
0000
0000
0000
0000
,
0000
0000
0000
0000
,
1000
0000
0000
0000
,
0001
0000
0000
0000
,
0000
0000
0100
0000
,
0010
0000
0000
0000
,
1000
0000
0000
0000
,
0001
0000
0000
0000
,
0000
0000
0010
0000
,
0100
0000
0000
0000
,
1000
0000
0000
0000
,
0001
0000
0000
0000
,
0000
0000
0100
0000
,
0010
0000
0000
0000
,
1000
0000
0000
0000
,
0001
0000
0000
0010
,
0000
0000
0100
0000
,
1000
0000
0000
0000
,
0001
0000
0000
0000
,
1000
0000
0000
0000
,
0010
0000
0010
0000
,
0100
0000
0000
0000
,
0001
0000
0000
0000
,
1000
0000
0000
0000
,
0100
0000
0100
0000
,
0010
0000
0000
0000
,
1001
0000
0000
0000
,
1001
0000
0000
0000
,
0100
0000
0100
0000
,
0000
0000
0010
0000
,
1001
0000
0000
0000
,
1001
0000
0000
0000
,
0010
0000
0010
0000
,
0100
0000
0000
0000
,
1000
0000
0000
0000
,
0010
0000
0000
0000
,
0100
0000
0000
0000
,
0001
0000
0000
0000
,
1000
0000
0000
0000
,
0100
0000
0000
0000
,
0010
0000
0000
0000
,
0001
0000
0000
0000
,
1000
0000
0000
0000
,
0100
0000
0000
0000
,
0001
0000
0000
0000
,
0010
0000
0000
0000
,
1000
0000
0000
0000
,
0100
0000
0000
0000
,
0001
0000
0000
0000
,
0100
0000
0000
0000
,
1000
0000
0010
0000
,
0000
0000
0100
0000
,
0001
0000
0000
0000
,
1000
0000
0001
0000
,
1000
0000
0000
0000
,
0010
0000
0100
0000
,
0001
0000
0000
0000
,
1000
0000
1000
0000
,
0001
0000
0000
1000
,
0000
0000
0000
0001
,
0000
0000
0000
1000
,
0000
0000
0000
0000
,
0010
0000
0000
0000
,
0100
0000
0100
0000
,
0001
0000
0000
0000
,
0010
0000
0000
0000
,
0100
0000
0000
0000
,
1000
0000
0001
0000
,
1000
0000
0000
0000
,
0010
0000
0100
0000
,
0001
0000
0000
0000
,
1000
0000
0001
0000
,
0100
0000
0000
0000
,
0010
0000
0010
0000
,
1000
0000
0000
0000
,
0001
0000
0000
0000
,
1000
0000
0000
0000
,
0100
0000
0010
0000
,
0001
0000
0000
0000
,
1000
0000
0000
0000
,
0001
0000
0000
0000
,
1000
0000
0010
0000
,
0100
0001
1001
0000
,
0000
0000
0000
0000
,
0000
0000
0000
0000
,
0000
0000
0000
0000
;

//---------------dance-single - ----------------
#NOTES:
     dance-single:
     :
     Easy:
     3:
     0.000,0.000,0.000,0.000,0.000:
0000
0000
0000
0000
,
0000
0000
0000
0000
,
0000
0000
0000
0000
,
0000
0000
0000
0000
,
0000
0000
0000
0000
,
0000
0000
0000
0000
,
0000
0000
0000
0000
,
0000
0000
0000
0000
,
1001
0000
0010
0000
,
0100
0000
0000
1000
0000
0000
0001
0000
,
0000
0000
1000
0000
,
0010
0000
0100
0000
,
1001
0000
0100
0000
,
0010
0000
0000
0001
0000
0000
1000
0000
,
0000
0000
0001
0000
,
0010
0000
0100
0000
,
1001
0000
0010
0000
,
0100
0000
0000
1000
0000
0000
0001
0000
,
0000
0000
1000
0000
,
0010
0000
0100
0000
,
1001
0000
0100
0000
,
0010
0000
0000
0001
0000
0000
1000
0000
,
0000
0000
0001
0000
,
0010
0000
0100
0000
,
1001
0000
0000
0000
,
0101
0000
0000
0000
,
1000
0000
1000
0000
,
0001
0000
0000
0000
,
1001
0000
0000
0000
,
1100
0000
0000
0000
,
0001
0000
0001
0000
,
0010
0000
0100
0000
,
1001
0000
0000
0000
,
0110
0000
0000
0000
,
1000
1000
0001
0000
,
0100
0000
0010
0000
,
1001
0000
0000
0000
,
0110
0000
0000
0000
,
1000
1000
0100
0000
,
0001
0000
0001
0000
,
1000
0000
0010
0000
,
0100
0000
0001
1000
,
0100
0000
0010
0000
,
0001
1000
0001
0000
,
0010
0000
0010
0000
,
0100
1000
0001
0000
,
0100
0000
0010
0000
,
1000
0000
0001
0000
,
1000
0000
1000
0000
,
0100
0010
0001
0000
,
1000
0000
0010
0000
,
0100
0001
1000
0000
,
0001
0000
0010
0000
,
0100
1000
0001
0000
,
0100
0000
0010
0000
,
1000
1000
0001
0000
,
0100
0000
0001
0000
,
1000
0100
0001
0000
,
0010
0000
0100
0000
,
1000
1000
0001
0001
,
0100
0000
0010
0000
,
1000
0010
0001
0000
,
0010
0000
0100
0000
,
1000
1000
0001
0001
,
0100
0000
0000
1001
,
0000
0000
0000
1001
,
0000
0000
0000
1001
,
0000
0000
0000
0000
,
0100
0000
0010
0000
,
1000
0001
1000
0000
,
0100
0000
0100
0000
,
0010
0001
1000
0000
,
0010
0000
0100
0000
,
0001
0001
1000
1000
,
0100
0000
0010
0000
,
0001
0000
1000
0000
,
0010
0000
0100
0000
,
0001
1000
0001
0000
,
0100
0000
0010
0000
,
1000
0100
0010
0000
,
0001
0000
1000
0000
,
0010
0010
0100
0000
,
0001
0000
1000
0000
,
0001
0100
1000
0000
,
0100
0000
0010
0000
,
0001
0000
1000
0000
,
0010
0000
0100
0000
,
0001
0000
1000
0000
,
0001
0100
1000
0000
,
0000
0000
0000
0000
,
0000
0000
0000
0000
,
0000
0000
0000
0000
;

//---------------dance-single - ----------------
#NOTES:
     dance-single:
     :
     Medium:
     8:
     0.000,0.000,0.000,0.000,0.000:
0000
0000
0000
0000
,
0000
0000
0000
0000
,
0000
0000
0000
0000
,
0000
0000
0000
0000
,
0000
0000
0000
0000
,
0000
0000
0000
0000
,
0000
0000
0000
0000
,
0000
0000
0000
0000
,
1001
0000
1000
0100
0010
0001
1000
0000
,
0010
1000
0010
0100
0000
0001
0020
0000
,
0000
0000
0000
0000
0130
0000
1000
0000
0002
0000
0000
0000
0100
0000
0000
0003
,
0010
1000
0100
0010
0000
0001
0000
1000
,
0001
0000
0001
0010
0100
1000
0001
0000
,
0100
0001
0100
0010
0000
1000
0200
0000
,
0000
0000
0300
1000
0010
0100
0001
0000
,
0100
0001
0010
0100
0000
1000
0000
0001
,
1000
0000
1000
0100
0010
0001
1000
0000
,
0010
1000
0010
0100
0000
0001
0020
0000
,
0000
0000
0000
0000
0130
0000
1000
0000
0002
0000
0000
0000
0100
0000
0000
0003
,
0010
1000
0100
0010
0000
0001
0000
1000
,
0001
0000
0001
0010
0100
1000
0001
0000
,
0100
0001
0100
0010
0000
1000
0200
0000
,
0000
0000
0300
1000
0010
0100
0001
0000
,
0100
0001
0010
0100
0000
1000
0000
0001
,
1000
0000
0000
0100
0000
0000
1001
0000
,
0100
0000
0010
0000
0001
1000
0001
0000
,
0010
0000
0010
0000
0100
1000
0001
0000
,
0100
0000
0000
0000
0000
0000
0010
0000
0000
0000
0000
0000
1000
0000
0001
0000
0010
0000
0100
0000
0000
1000
0000
0000
,
0001
0000
0000
1000
0000
0001
0100
0000
,
0001
0000
0000
1000
0100
1000
0001
0000
,
1000
0100
0010
0001
0010
0000
0100
0000
,
1000
0010
0100
0001
,
1000
0100
1000
0010
0000
0100
0001
0000
,
0001
0100
0001
0010
0000
0100
1000
0000
,
0001
0010
1000
0010
0001
0000
1000
0000
,
0001
0000
0000
0010
0000
0000
0100
0000
0000
1000
0000
0000
0001
0000
0010
0000
0001
0000
1000
0000
0100
0000
1000
0000
,
0001
1000
0010
0100
0000
0010
1000
0000
,
1000
0001
0100
0010
0000
0100
0001
1000
,
0001
0010
0100
1000
0001
0000
1000
0000
,
0002
0203
2300
3020
,
0031
0000
0100
0000
1000
0000
0001
0100
,
0000
1000
0100
0010
0001
0010
0100
1000
,
0000
0001
0010
0001
1000
0100
0000
1000
,
0000
0010
0000
0100
0001
1000
0001
0000
,
1000
0100
0010
0100
1000
0001
0000
1001
,
0000
1000
0010
0100
0001
1000
0100
1000
,
0000
0000
0001
0000
0010
0000
0100
0000
1000
0000
0001
0000
0000
0000
0100
0010
,
0000
1000
0001
0010
0100
1000
0001
0000
,
1000
0000
0010
0000
0001
0000
1000
0010
,
0000
0001
0010
0100
1000
0100
0010
0001
,
0000
1000
0100
1000
0001
0010
0000
0001
,
0000
0100
0000
0010
1000
0001
1000
0000
,
0001
0010
0100
0010
0001
1000
0000
1001
,
0000
0001
0100
0010
1000
0001
0010
0001
,
0000
0000
1000
0000
0100
0000
0010
0000
0001
0000
1000
0000
0000
0000
0010
0100
,
0000
0001
1000
0100
0010
0001
1000
0000
,
0001
0000
0010
0000
0001
0000
1000
0000
0100
1000
0000
0001
,
0100
0010
1000
0100
0020
0000
0032
0000
,
1003
0010
0100
0001
,
2000
3200
0320
0032
,
1003
0000
0100
0000
1000
0000
0001
0000
0010
0001
0000
1000
,
0010
0100
0001
0010
0200
0000
2300
0000
,
3001
0100
0010
1000
,
0002
0023
0230
2300
,
3100
1000
0001
0110
,
0000
1000
0001
1000
0001
0000
1000
0001
,
1000
0100
0010
1001
,
0010
0100
2000
0000
,
3001
0000
0100
0000
0010
0000
1000
0100
,
0010
0001
1000
0000
0001
0010
0100
1000
,
0001
0000
0000
1000
0010
0000
0000
0100
0001
0000
0000
1000
0001
0000
0000
0100
,
0001
0010
0100
1000
0001
0100
0010
1000
,
0100
0000
1000
0000
0001
0010
0100
0010
,
0001
0000
1000
0000
0010
0100
0001
1000
,
0100
0000
0010
0000
0001
0001
1000
0000
,
0200
0310
0002
1003
,
1000
0000
0010
0000
0100
0000
0001
0010
,
0100
1000
0001
0000
1000
0100
0010
0001
,
1000
0000
0000
0001
0100
0000
0000
0010
1000
0000
0000
0001
1000
0000
0000
0010
,
1000
0100
0010
0001
1000
0010
0100
0001
,
0010
0000
0001
0000
1000
0100
0010
0100
,
2000
0000
3001
0000
0100
0010
1000
0001
,
0010
0000
0100
0000
1000
1000
0001
0000
,
0200
0310
2000
3001
,
0000
0100
0100
0100
0000
0100
0001
0000
,
1000
0000
0100
0001
0100
1000
0001
0000
,
1000
0010
0100
0000
0100
0001
0010
0000
,
0100
0000
1100
0000
0001
1000
1001
0000
,
0010
0100
0010
0100
0010
0000
0000
0000
,
0000
0000
0000
0000
,
0000
0000
0000
0000
,
0000
0000
0000
0000
;

//---------------dance-single - ----------------
#NOTES:
     dance-single:
     :
     Hard:
     9:
     0.000,0.000,0.000,0.000,0.000:
0000
0000
0000
0000
,
0000
0000
0000
0000
,
0000
0000
0000
0000
,
0000
0000
0000
0000
,
0000
0000
0000
0000
,
0000
0000
0000
0000
,
0000
0000
0000
0000
,
0000
0000
0000
0000
,
1001
0000
0000
0000
0100
0000
0001
0000
0010
0100
1000
0000
0002
0000
0000
0003
,
0100
1000
0100
0001
0000
0001
2000
0000
,
0100
0000
0000
3000
0010
0000
1000
0000
0002
0000
0000
0000
0100
0000
0000
0003
,
1000
0000
0100
0000
0010
0000
2000
0000
0000
0000
0010
3000
0000
0000
0001
0000
,
0200
0000
0000
0300
0010
0000
1000
0000
0100
0010
0001
0000
2000
0000
0000
3000
,
0010
0001
0010
1000
0000
1000
0002
0000
,
0100
0000
0000
0003
0010
0000
0200
0300
0002
0003
2000
3000
0020
0000
0000
0030
,
0001
0000
1000
0000
0010
0000
0100
0001
0010
0000
0200
0000
0000
0300
1000
0000
,
0020
0000
0000
0030
0100
0000
0001
0000
0010
0100
1000
0000
0002
0000
0000
0003
,
0100
1000
0100
0001
0000
0001
2000
0000
,
0100
0000
0000
3000
0010
0000
1000
0000
0002
0000
0000
0000
0100
0000
0000
0003
,
1000
0000
0100
0000
0010
0000
2000
0000
0000
0000
0010
3000
0000
0000
0001
0000
,
0200
0000
0000
0300
0010
0000
1000
0000
0100
0010
0001
0000
2000
0000
0000
3000
,
0010
0001
0010
1000
0000
1000
2002
0000
,
0000
0000
0000
0000
3003
0000
0002
0003
0020
0030
0200
0300
2000
0000
0000
3000
,
0001
0000
1000
0000
0010
0000
0100
0001
0010
0000
0200
0000
0000
0300
1000
0000
,
0002
0000
0000
0003
0000
0000
0200
0000
0000
0300
0000
0000
1001
0000
0000
0000
,
1000
0000
0001
0000
0100
0000
0010
0000
0000
1000
0000
0000
0001
0000
0000
0100
0000
0000
0001
0000
0000
0000
0000
0000
,
0000
0020
0000
0000
0000
0000
0000
0000
0000
0000
0000
0000
0000
0000
0000
0030
0000
0000
0000
0000
0000
0000
0000
0000
0000
0000
0000
0000
0000
0000
0000
0000
0000
0000
0000
0000
0000
0000
0000
0000
0000
0000
0000
0000
0000
0000
0000
0000
0000
0020
0000
0000
0000
0000
0000
0000
0000
0000
0000
0000
0000
0000
0000
0000
0000
0000
0000
0000
0000
0000
0000
0000
0000
0000
0000
0000
0000
0000
0000
0000
0000
0000
0030
0000
0000
0000
0000
0000
0000
0000
0000
0000
0000
0000
0000
0000
0200
0000
0000
0000
0000
0000
0000
0000
0000
0000
0000
0000
0300
0000
0000
0000
0000
0000
0000
0000
0000
0000
0000
0000
2000
0000
0000
0000
0000
0000
0000
0000
0000
0000
0000
0000
3000
0000
0000
0000
0000
0000
0000
0000
0000
0000
0000
0000
0002
0000
0000
0000
0000
0000
0000
0000
0000
0000
0000
0000
0003
0000
0000
0000
0000
0000
0000
0000
0000
0000
0000
0000
0000
0000
0000
0000
0000
0000
0000
0000
0000
0000
0000
0000
0000
0000
0000
0000
0000
0000
0000
0000
0000
0000
0000
0000
,
0100
0000
0000
0001
0000
0000
1000
0000
0000
0010
0000
0000
0001
0000
0010
0000
1000
0000
0001
0000
0000
0010
0000
0000
,
2200
0000
0300
0000
3000
0000
0020
0000
0000
0030
0100
0000
0100
0000
0000
0000
,
0022
0000
0030
0000
0003
0000
2000
3000
0200
0300
2000
3000
0002
0003
0000
0000
,
0100
0000
0100
0000
0100
0000
0100
0000
0020
0000
0000
0030
1000
0100
0001
0100
,
0010
0000
0010
0000
0001
0000
0001
0000
2000
0000
0000
3000
0020
0000
0030
0000
,
0110
0100
0001
0020
0030
0100
1001
0000
,
0110
0100
1000
0020
0030
0100
1001
0000
,
0002
0003
0000
0000
0020
0030
0000
0000
2000
3000
0000
0000
0020
0030
0000
0000
0002
0003
0000
0000
2000
0000
3000
0000
0002
0000
0000
0003
1000
0000
0000
0000
,
0010
0000
0000
0010
0000
0000
0100
0000
0000
0100
0000
0000
0001
0000
0010
0000
1000
0000
0001
0000
0100
0000
1000
0000
,
0001
1000
0010
0200
0300
0010
1001
0000
,
1000
0100
0010
0001
2000
3100
0002
1003
,
0010
0000
0010
0000
0010
0000
0010
0000
0002
0000
0000
0003
1000
0010
0100
0001
,
2000
0000
0000
3000
0020
0000
0000
0030
0002
0003
1000
0100
0001
0000
0000
0000
,
1001
0000
0001
0000
0100
0000
0010
0000
1000
0000
0001
0010
0001
0000
0100
0000
,
0010
1000
0100
0001
1000
0001
0100
1000
,
0010
0000
0100
0000
0001
0010
0001
0000
1000
0000
1000
0000
0010
0000
0100
0000
,
0000
0000
0002
0000
0000
0003
1000
0000
0100
0000
0010
0000
1001
0000
0000
0000
,
0101
0001
0010
0110
0100
1000
0000
1001
,
0000
0100
0010
1000
0100
0001
0100
2000
,
0000
3000
0010
0000
0001
0000
1000
0000
0100
0000
0001
0000
1000
0000
0100
0010
,
0001
0100
1000
0001
0010
1000
0100
0010
,
1001
0000
1000
0000
0010
0000
0100
0000
0001
0000
0001
0010
0100
0000
0001
0000
,
0100
1000
0001
0100
1000
0100
0001
1000
,
2000
0000
3001
0000
0001
0010
0100
0000
1000
0000
0010
0000
0001
0000
1000
0000
,
0000
0000
0000
0000
0000
0000
0200
0000
0000
0000
0000
0000
0000
0000
0000
0300
0000
0000
0001
0000
0000
0000
0000
0000
1000
0000
0000
0000
0100
0000
0000
0000
0010
0000
0000
0000
0001
0000
0000
0000
0000
0000
0000
0000
0000
0000
0000
0000
,
0101
0001
1000
0100
0010
1001
0000
1010
,
0000
0011
0100
1000
0010
0001
1000
0200
,
0300
0000
0001
0000
1000
0000
0001
0000
0010
0000
0010
0000
0100
0000
1000
0010
,
0001
0000
1000
0000
0100
0000
0001
0000
1000
0000
1000
0100
0010
0000
0001
0000
,
1001
0000
1000
0000
1000
0000
0100
0000
0100
0001
0000
0010
,
0001
1000
0001
0100
0020
0000
0032
0000
,
2003
0000
0000
3000
1000
0100
0001
0000
0020
0000
0000
0030
0020
0000
0000
0000
,
0230
0300
0000
0000
0000
0000
2002
0000
3003
0000
0000
0000
0220
0000
0000
0330
0000
0000
2002
0000
0000
0000
3003
0000
,
1001
0000
0001
0000
0001
0000
0010
0000
0010
1000
0000
0100
,
1000
0001
1000
0010
0200
0000
2300
0000
,
3002
0000
0000
0003
0001
0010
1000
0000
0200
0000
0000
0300
0200
0000
0000
0000
,
0320
0030
0000
0000
0000
0000
2002
0000
3003
0000
0000
0000
0220
0000
0000
0330
0000
0000
2002
0000
0000
0000
3003
0000
,
0100
1000
0001
0110
,
0000
1000
0001
1000
0001
0010
1000
0001
,
1000
0100
0010
1001
,
0200
0300
0002
0003
2200
3000
0000
0000
,
0310
0001
1000
0001
0010
0100
1000
0010
,
0010
0000
0000
0000
0100
0000
0000
0000
0001
0000
0000
0000
2000
3000
0000
0000
0200
0300
0000
0000
0200
0300
0000
0000
0002
0003
0000
0000
0010
0000
0000
0000
,
0100
0000
1000
0100
0010
0000
1000
0100
0001
0000
0100
0010
0001
0000
1000
0010
,
0100
0001
0010
0100
1000
1000
0010
0010
,
0100
0001
1000
0001
0010
0100
1000
0100
,
0002
0000
0000
0003
0100
0000
1000
0000
0010
0000
0001
0000
1000
0000
0100
0000
,
0001
0001
0100
0010
1000
1000
0010
0100
,
0002
0000
0100
0000
1000
0000
0000
0003
2000
0000
0010
0000
0001
0000
0000
3000
,
0100
1000
0001
1000
0100
0010
0001
0100
,
0100
0000
0000
0000
0010
0000
0000
0000
1000
0000
0000
0000
0002
0003
0000
0000
0020
0030
0000
0000
0020
0030
0000
0000
2000
3000
0000
0000
0100
0000
0000
0000
,
0010
0000
0001
0010
0100
0000
0001
0010
1000
0000
0010
0100
1000
0000
0001
0100
,
0010
0000
0000
1000
0000
0000
0100
0000
0000
0010
0000
0000
0001
0000
0100
0000
0010
0000
1000
0000
0000
0100
0000
0000
,
0001
0100
1000
0010
0100
0001
0001
1000
,
0200
0000
0000
0300
0001
0000
1000
0000
0001
0000
0100
0000
1000
0000
0010
0000
,
0001
0000
1000
0000
0100
0000
0001
0000
0010
0000
0100
0000
1000
0000
0001
0010
,
0001
0000
0100
0000
0010
0000
1000
0100
1000
0000
0010
1000
0001
0000
0000
0000
,
0000
0000
0000
0000
0200
0300
0000
0000
0200
0300
0000
0000
0200
0300
0000
0000
0000
0000
0000
0000
0100
0000
0000
0000
2002
0000
0000
0000
3003
0000
0000
0000
,
0020
0000
0000
0000
0000
0000
0000
0000
0030
0000
0000
0000
0100
0000
0000
0000
0000
0000
0100
0000
0000
0000
0000
0000
0001
0000
0000
0000
0000
0000
0001
0000
0000
0000
0000
0000
1000
0000
0000
0100
0000
0000
0001
0000
0000
0100
0000
0000
,
1000
1000
0010
0010
0001
0001
1000
0100
,
0022
0000
0000
0030
2000
0000
0000
3003
0210
0000
0001
0000
2000
0000
0000
3300
,
0012
0000
1000
0003
1000
0000
0010
0000
0220
0000
0000
0000
0000
0000
0000
0330
,
0000
0000
0000
0000
,
0000
0000
0000
0000
,
0000
0000
0000
0000
;
