#TITLE:Les Sex;
#SUBTITLE:;
#ARTIST:Kylie Minogue;
#TITLETRANSLIT:;
#SUBTITLETRANSLIT:;
#ARTISTTRANSLIT:;
#GENRE:;
#CREDIT:;
#BANNER:;
#BACKGROUND:;
#LYRICSPATH:;
#CDTITLE:cdtitle.png;
#MUSIC:Les Sex.mp3;
#OFFSET:-0.250000;
#SAMPLESTART:68.248032;
#SAMPLELENGTH:13.000000;
#SELECTABLE:YES;
#DISPLAYBPM:112.000000;
#BPMS:0.000000=112.005997
;
#STOPS:
;
#BGCHANGES:;
#KEYSOUNDS:;
#ATTACKS:;

//---------------dance-single - ----------------
#NOTES:
     dance-single:
     :
     Hard:
     8:
     0.436630,0.427523,0.440648,0.112506,0.112506,267.000000,47.000000,12.000000,0.000000,0.000000,0.000000,0.436630,0.427523,0.440648,0.112506,0.112506,267.000000,47.000000,12.000000,0.000000,0.000000,0.000000:
0000
0000
0000
0000
,
0000
0000
0000
0000
,
0000
0000
0000
0000
,
0000
0000
0000
0000
,
0001
0100
0010
1000
0010
0000
0010
0000
,
0001
0100
0010
1000
0010
0000
0010
0000
,
0001
0100
0010
1000
0010
0000
0010
0000
,
1000
0001
0100
0001
0010
0001
0200
0000
,
0301
0000
1000
1000
0001
0001
0100
0000
,
0010
0000
0010
0000
1000
0000
0000
0000
0001
0000
0001
0000
1000
0100
0010
0001
,
2000
0000
3100
0000
0010
0010
0100
0100
,
1001
0000
1001
0000
0000
0000
0000
0000
1100
0000
1100
0000
1000
0010
0100
0001
,
2000
0000
3100
0000
1000
1000
0000
0000
,
0001
0000
0001
0000
0000
0000
0000
0000
0100
0000
0100
0000
0001
0100
0010
1000
,
0002
0000
0000
0000
0003
0000
0000
0000
0010
0000
0010
0000
0100
1000
0001
0010
,
0001
0001
1100
1100
0010
0010
0000
0000
,
1000
0100
1000
0000
0001
0100
0001
0000
,
0010
0100
0010
0000
0001
0010
0001
0100
,
0010
0000
1000
0000
0001
0010
0001
0000
,
1000
0010
1000
0001
0100
0001
2000
0000
,
3010
0000
0100
0001
0100
0000
0001
0010
,
0100
0000
1000
0010
1000
0001
0100
0001
,
0100
0000
0001
0000
0000
0000
0001
0010
,
0011
1010
1100
0002
,
1003
0000
0101
0000
0010
0001
1000
0000
,
1010
0011
1001
0010
,
1010
0000
0011
0000
0010
0001
1000
0000
,
0101
1010
1100
1000
,
0011
0000
1001
0000
0100
1000
0010
0000
,
1010
0110
1001
0000
,
1100
0000
0101
0000
0001
1000
0001
0000
,
1000
0010
0100
0001
0000
0000
0020
0000
,
0130
0000
1001
0000
0100
1000
0010
0000
,
0100
0000
0000
0000
0101
0000
0000
0000
0010
0000
0000
0000
1000
0100
0010
0001
,
2000
0000
3001
0000
0001
0010
0100
1000
,
1001
0000
1001
0000
0000
0000
0000
0000
0101
0000
0101
0000
0001
0010
0100
1000
,
0001
0000
1100
0000
0010
0100
0001
0000
,
1000
0000
0000
1000
0000
0000
0100
0000
1000
0000
0000
0000
1000
0100
0010
0001
,
2000
0000
0000
0000
3100
0000
0000
0000
1100
0000
1100
0000
0001
0100
0010
1000
,
0010
0010
0101
0101
1000
1000
0000
0000
,
1001
0000
0101
0000
0010
1000
0100
0000
,
0001
0000
0001
0000
1000
0000
0000
0000
0001
0000
0001
0000
1000
0010
0100
0001
,
2000
0000
3000
0000
0010
1000
0100
0000
,
0110
0000
0110
0000
0000
0000
0000
0000
1001
0000
1001
0000
0001
0010
0100
1000
,
0002
0000
0103
0000
0001
1000
0100
0000
,
0010
0000
0010
0000
0001
0000
0000
0000
0001
0000
0001
0000
1000
0100
0010
0001
,
2000
0000
0000
0000
3100
0000
0000
0000
0011
0000
0011
0000
0000
0000
0001
1000
,
0100
0100
0011
0011
1000
1000
0000
0000
,
1001
0000
0000
0000
;

//---------------dance-single - ----------------
#NOTES:
     dance-single:
     :
     Medium:
     6:
     0.336179,0.315017,0.131257,0.131257,0.000000,223.000000,14.000000,14.000000,0.000000,0.000000,0.000000,0.336179,0.315017,0.131257,0.131257,0.000000,223.000000,14.000000,14.000000,0.000000,0.000000,0.000000:
0000
0000
0000
0000
,
0000
0000
0000
0000
,
0000
0000
0000
0000
,
0000
0000
0000
0000
,
0001
1000
0100
0000
0000
0000
0000
0000
,
0001
1000
0100
0000
0000
0000
0000
0000
,
0001
1000
0100
0000
0000
0000
0000
0000
,
0010
0001
0010
0100
1000
0100
0020
0000
,
0031
0000
1001
0000
0010
1000
0100
0000
,
0010
0001
0010
0100
1000
1000
0002
0000
,
0103
0000
1001
0000
0010
1000
0100
0000
,
1000
1000
0001
0010
0100
0100
2000
0000
,
3010
0000
0100
0001
0010
0000
0100
0100
,
1000
0010
1000
0001
0100
0100
0002
0000
,
0013
0000
0100
0000
1000
1000
0002
0000
,
0103
0100
0000
0000
1010
1010
0000
0000
,
0001
0100
1000
0100
,
0001
0010
0100
1000
,
0010
1000
0100
0010
,
0011
0000
0000
1100
0000
0000
0010
0000
,
0100
0001
0010
0100
,
1000
0100
0001
0100
,
1000
0010
0000
0100
,
0001
0010
0100
2000
,
3001
0010
0001
0010
0100
1000
0100
0000
,
1000
0010
0100
0001
1000
0000
0000
0000
,
0001
0100
0001
0100
0010
1000
0010
0000
,
1000
0100
0010
0001
1000
0000
0000
0000
,
0001
0100
1000
0100
0001
0010
0100
0000
,
1000
0010
0001
0010
1000
0000
0000
0000
,
0100
1000
0100
0010
0001
0010
0100
0000
,
1000
1000
0010
0100
0000
0000
0002
0000
,
1003
0000
1001
0000
0100
1000
0010
0000
,
0100
0001
0100
0000
0010
1000
0200
0000
,
0310
0000
0001
0000
0100
0001
0010
0000
,
0100
0100
0000
0000
1000
1000
0002
0000
,
0103
0000
0010
0000
1000
0100
0010
0000
,
0001
0010
0100
1000
0100
0010
0002
0000
,
0013
0000
0000
0000
0001
0100
0002
0000
,
1003
1000
0000
0000
1100
1100
0000
0000
,
0001
0000
1100
0000
0010
1000
0100
0000
,
1000
0001
0100
0010
0000
0000
2000
0000
,
3001
0000
0101
0000
0010
1000
0100
0000
,
1000
0100
0010
0001
0000
2000
0000
0000
,
3001
0000
0011
0000
0100
1000
0001
0000
,
0010
0001
0100
1000
0000
0000
0200
0000
,
0301
0000
0011
0000
0100
1000
0010
0000
,
1000
1000
0001
0001
0010
0010
0000
0000
,
1100
0000
0000
0000
;

//---------------dance-single - ----------------
#NOTES:
     dance-single:
     :
     Easy:
     3:
     0.200904,0.225012,0.056253,0.037502,0.000000,140.000000,6.000000,4.000000,0.000000,0.000000,0.000000,0.200904,0.225012,0.056253,0.037502,0.000000,140.000000,6.000000,4.000000,0.000000,0.000000,0.000000:
0000
0000
0000
0000
,
0000
0000
0000
0000
,
0000
0000
0000
0000
,
0000
0000
0000
0000
,
0001
0001
0000
0000
,
0001
0001
0000
0000
,
0001
0001
0000
0000
,
1000
1000
0100
0100
,
1100
0000
0101
0000
,
1000
1000
0010
0010
,
1000
0000
1100
0000
,
0001
0001
0000
0000
0001
0001
0001
0000
,
1000
0000
1100
0000
,
0010
0010
0010
0000
0000
0000
0200
0000
,
0301
0000
0000
0000
0010
0010
0000
0000
,
0001
0001
0000
0000
1000
1000
0000
0000
,
0010
1000
0100
1000
,
0010
0010
0100
0100
,
0001
0001
0010
0010
,
0100
0000
0000
0100
0000
0000
0000
0000
,
1000
1000
0010
0010
,
1000
0001
0100
0100
,
0010
1000
0000
0100
,
1000
0100
0010
0002
,
0103
0010
1000
0000
,
0010
0010
0010
0000
,
1000
1000
0001
0000
,
0010
0001
0001
0000
,
0100
0100
0010
0010
,
1000
0100
1000
0000
,
0001
0001
1000
0100
,
1000
1000
0000
0020
,
0130
0110
0001
0001
,
1000
1000
0100
2000
,
3010
0010
0010
0000
,
1000
1000
0000
0000
0001
0001
0000
0000
,
1000
0100
1000
0000
,
0001
0001
0001
0000
,
0010
0000
0100
0000
,
0100
0100
0000
0000
0100
0100
0000
0000
,
1000
0000
0001
0000
,
0100
0100
0100
0000
0000
0000
0000
0000
,
0001
0000
1000
0000
,
0010
0010
0010
0000
0000
0000
0000
0000
,
1000
0000
0001
0000
,
1000
1000
1000
0000
0000
0000
0000
0000
,
0001
0000
0010
0000
,
0100
0100
0000
0000
0100
0100
0000
0000
,
1001
0000
0000
0000
;

//---------------dance-single - ----------------
#NOTES:
     dance-single:
     :
     Beginner:
     1:
     0.092416,0.180010,0.093755,0.000000,0.000000,59.000000,10.000000,0.000000,0.000000,0.000000,0.000000,0.092416,0.180010,0.093755,0.000000,0.000000,59.000000,10.000000,0.000000,0.000000,0.000000,0.000000:
// measure 0
0000
0000
0000
0000
,  // measure 1
0000
0000
0000
0000
,  // measure 2
0000
0000
0000
0000
,  // measure 3
0000
0000
0000
0000
,  // measure 4
0010
0000
0000
0000
,  // measure 5
0010
0000
0000
0000
,  // measure 6
0010
0000
0000
0000
,  // measure 7
0010
0000
0000
0000
,  // measure 8
1000
0000
1000
0000
,  // measure 9
1000
0000
0000
0000
,  // measure 10
0010
0000
0010
0000
,  // measure 11
0010
0000
0000
0000
,  // measure 12
0001
0000
0001
0000
,  // measure 13
0001
0000
0000
0000
,  // measure 14
0100
0000
0100
0000
,  // measure 15
0000
0000
0000
0000
,  // measure 16
1000
0000
0000
0000
,  // measure 17
1000
0000
0000
0000
,  // measure 18
0001
0000
0000
0000
,  // measure 19
0001
0000
0000
0000
,  // measure 20
0010
0000
0000
0000
,  // measure 21
0100
0000
0000
0000
,  // measure 22
0010
0000
0000
0000
,  // measure 23
1001
0000
0000
0000
,  // measure 24
0010
0000
0010
0000
,  // measure 25
0010
0000
0000
0000
,  // measure 26
0100
0000
0100
0000
,  // measure 27
0100
0000
0000
0000
,  // measure 28
0001
0000
1000
0000
,  // measure 29
0001
0000
0000
0000
,  // measure 30
1000
0000
1000
0000
,  // measure 31
1000
0000
0000
0000
,  // measure 32
1001
0000
1001
0000
,  // measure 33
1001
0000
1001
0000
,  // measure 34
0000
0000
0000
0000
,  // measure 35
0000
0000
0000
0000
,  // measure 36
1001
0000
1001
0000
,  // measure 37
1001
0000
1001
0000
,  // measure 38
0000
0000
0000
0000
,  // measure 39
0100
0000
0000
0000
,  // measure 40
0001
0000
0010
0000
,  // measure 41
0100
0000
0000
0000
,  // measure 42
1000
0000
0010
0000
,  // measure 43
0100
0000
0000
0000
,  // measure 44
1000
0000
0001
0000
,  // measure 45
1000
0000
0000
0000
,  // measure 46
0010
0000
0010
0000
,  // measure 47
0100
0100
0100
0000
,  // measure 48
1001
0000
0000
0000
;
