#TITLE:It's A Small World;
#SUBTITLE:;
#ARTIST:ABeatC All Stars;
#TITLETRANSLIT:;
#SUBTITLETRANSLIT:;
#ARTISTTRANSLIT:;
#GENRE:;
#CREDIT:;
#BANNER:[Round 1 Singles] - It's A Small World.png;
#BACKGROUND:[Round 1 Singles] - It's A Small World-bg.png;
#LYRICSPATH:[Round 1 Singles] - It's A Small World.lrc;
#CDTITLE:cdtitle.png;
#MUSIC:[Round 1 Singles] - It's A Small World.ogg;
#OFFSET:0.000000;
#SAMPLESTART:42.147182;
#SAMPLELENGTH:12.965965;
#SELECTABLE:YES;
#BPMS:0.000000=148.080002
;
#STOPS:
;
#BGCHANGES:;
#KEYSOUNDS:;
#ATTACKS:;

//---------------dance-single - xRGTMx-CSP----------------
#NOTES:
     dance-single:
     xRGTMx-CSP:
     Challenge:
     9:
     0.692012,0.542888,0.165767,0.221023,0.515720,484.000000,18.000000,24.000000,0.000000,0.000000,0.000000,0.692012,0.542888,0.165767,0.221023,0.515720,484.000000,18.000000,24.000000,0.000000,0.000000,0.000000:
// measure 0
0000
0000
0000
0000
,  // measure 1
0000
0000
0000
0000
,  // measure 2
0101
0000
0000
0010
1000
0000
0000
1000
0100
0000
0000
0100
1000
0000
0000
1000
,  // measure 3
0001
0000
0000
0000
0010
0000
0000
0010
0100
0000
0000
0100
0010
0000
0001
0000
,  // measure 4
1000
0000
0000
0000
0001
0000
0000
1000
0100
0000
0000
1000
0001
0000
0000
0001
,  // measure 5
0100
0000
0000
0000
0001
0000
0000
0010
0100
0000
0000
1000
0001
0000
0100
0000
,  // measure 6
0110
0000
0000
0100
0001
0000
0000
0001
0010
0000
0000
0010
0001
0000
0000
0001
,  // measure 7
1000
0000
0000
0000
0100
0000
0000
0100
0010
0000
0000
0010
0100
0000
1000
0000
,  // measure 8
0001
0000
0000
0000
1000
0000
0000
0001
0010
0000
0000
0001
1000
0000
0000
0000
,  // measure 9
0220
0000
0000
0000
0000
0000
0330
0000
0000
0110
0000
0000
1001
0000
1000
0001
,  // measure 10
1000
0000
0001
0000
0010
0000
0010
0100
0000
0100
1000
0000
0000
0001
0100
0000
,  // measure 11
0001
0000
1000
0000
0100
0000
1000
0010
0000
0010
0100
0000
0001
0000
1000
0000
,  // measure 12
0010
0000
0100
0000
0001
0000
0010
0000
1000
0000
0000
0010
0000
0010
0001
0000
,  // measure 13
0100
0000
0000
0010
0000
0000
1000
0000
0010
0100
0010
0000
1000
0000
1000
0000
,  // measure 14
0001
0000
0000
1000
0000
1000
0010
0000
1000
0000
0000
0001
0000
0001
0010
0000
,  // measure 15
0100
0000
0100
1000
0000
0000
0001
0000
0100
0001
0100
0000
0001
0000
0010
0000
,  // measure 16
0100
0000
1000
0000
0001
0000
0100
0010
0000
1000
0000
0100
0000
0100
0010
0000
,  // measure 17
0001
0010
0100
1000
0010
0000
1001
0000
,  // measure 18
1000
0100
0001
0100
1000
0000
0001
0100
,  // measure 19
0010
1000
0001
0010
0001
0000
0100
0100
,  // measure 20
0001
0010
1000
0010
0001
0000
1000
0010
,  // measure 21
0100
0000
0001
0000
1000
0000
0100
0000
1000
0000
0000
0001
0100
0000
0010
0100
,  // measure 22
0010
0000
0000
0010
1000
0000
0100
0000
1000
0000
0000
1000
0001
0000
0100
0000
,  // measure 23
0001
0000
0000
0001
0010
0000
0100
0000
1000
0000
0000
0001
0100
0000
0100
0000
,  // measure 24
0010
0000
0000
0010
1000
0000
0000
1000
0100
0000
0000
0100
0010
0000
0000
0010
,  // measure 25
0100
0000
0000
0000
1000
0000
0001
0100
0001
1000
0001
0000
0010
0000
0100
0000
,  // measure 26
2100
0000
3010
0001
0010
1000
0001
0010
,  // measure 27
0200
0000
0000
0000
0301
0000
0100
0000
2000
0000
0000
0000
3001
0000
0100
0001
,  // measure 28
0200
0000
0310
1000
0001
0010
1000
0010
,  // measure 29
0002
0000
0000
0000
1003
0000
0100
0000
1000
0000
0000
0010
0100
0000
0001
0100
,  // measure 30
0002
0000
0013
1000
0010
0001
1000
0010
,  // measure 31
0200
0000
1300
0100
0002
0000
1003
0100
,  // measure 32
1200
0301
0021
1030
,  // measure 33
2001
0000
0000
0000
3010
0000
0000
0000
0110
0000
0000
0000
0001
1000
0001
1000
,  // measure 34
0001
0000
1000
0000
0100
0000
0010
0100
0000
1000
0001
0000
0000
0100
0001
0000
,  // measure 35
1000
0000
0010
0000
0100
0000
0001
0010
0000
0001
1000
0000
0001
0000
0100
0000
,  // measure 36
0010
0000
0010
0000
0100
0000
0100
0000
0001
0000
0000
1000
0000
1000
0100
0000
,  // measure 37
1000
0000
0000
0010
0000
0000
0001
0000
0010
1000
0010
0000
1000
0000
0100
0000
,  // measure 38
1000
0000
0000
0001
0000
1000
0010
0000
1000
0000
0000
0001
0000
0010
0100
0000
,  // measure 39
1000
0000
0100
0010
0000
0000
0001
0000
0100
0001
0100
0000
0010
0000
1000
0000
,  // measure 40
0100
0000
1000
0000
0001
0000
0010
0100
0000
1000
0000
0001
0000
0100
0010
0000
,  // measure 41
0001
0010
1000
0100
0010
0000
1001
0000
,  // measure 42
0001
0100
1000
0100
0001
0000
1000
0100
,  // measure 43
0010
0001
1000
0010
1000
0000
0100
0100
,  // measure 44
1000
0010
0001
0010
1000
0000
0001
0010
,  // measure 45
0100
0000
1000
0000
0001
0000
0100
0000
0001
0000
0000
1000
0100
0000
0010
0100
,  // measure 46
0010
0000
0000
0001
0100
0000
0001
0000
1000
0000
0000
0100
0010
0000
0100
0000
,  // measure 47
1000
0000
0000
0001
0010
0000
0001
0000
0100
0000
0000
0010
1000
0000
0010
0000
,  // measure 48
0100
0000
0000
0100
0001
0000
0000
0001
0010
0000
0000
0010
0100
0000
0000
0100
,  // measure 49
1000
0000
0000
0000
0001
0000
0100
0001
1000
0001
0100
0000
0001
0000
0010
0000
,  // measure 50
0012
0000
0103
1000
0100
0001
1000
0100
,  // measure 51
0020
0000
0000
0000
1030
0000
0010
0000
0002
0000
0000
0000
1003
0000
0010
1000
,  // measure 52
0020
0000
0130
0001
1000
0100
0001
0100
,  // measure 53
2000
0000
0000
0000
3001
0000
0010
0000
0001
0000
0000
0100
0010
0000
1000
0010
,  // measure 54
2000
0000
3100
0001
0100
1000
0001
0100
,  // measure 55
0020
0000
0031
0010
2000
0000
3001
0010
,  // measure 56
0021
1030
1200
0301
,  // measure 57
1002
0000
0000
0000
0103
0000
0000
0000
0110
0000
0000
0000
1000
0001
1000
0001
,  // measure 58
1000
0000
0001
0000
0100
0000
0010
0100
0000
0010
1000
0000
0000
0001
0010
0000
,  // measure 59
0001
0000
1000
0000
0010
0000
1000
0100
0000
0010
0100
0000
0001
0000
0100
0000
,  // measure 60
1000
0000
0010
0000
0100
0000
0001
0000
0100
0000
0000
0010
0000
1000
0001
0000
,  // measure 61
0010
0000
0000
1000
0000
0000
0010
0000
0001
0100
0001
0000
1000
0000
1000
0000
,  // measure 62
0001
0000
0000
1000
0000
0001
0010
0000
0001
0000
0000
1000
0000
0001
0100
0000
,  // measure 63
0010
0000
0010
1000
0000
0000
0001
0000
0100
0010
0100
0000
0001
0000
0010
0000
,  // measure 64
0100
0000
1000
0000
0001
0000
0100
0010
0000
0001
0000
0010
0000
1000
0001
0000
,  // measure 65
1000
0100
0001
0100
1001
0000
0000
0000
;

//---------------dance-single - xRGTMx-ESP----------------
#NOTES:
     dance-single:
     xRGTMx-ESP:
     Hard:
     8:
     0.628863,0.542888,0.230232,0.442046,0.248651,405.000000,25.000000,48.000000,0.000000,0.000000,0.000000,0.628863,0.542888,0.230232,0.442046,0.248651,405.000000,25.000000,48.000000,0.000000,0.000000,0.000000:
// measure 0
0000
0000
0000
0000
,  // measure 1
0000
0000
0000
0000
,  // measure 2
0101
0000
0000
0100
0010
0000
0000
0000
1000
0000
0000
0000
0100
0000
0000
0000
,  // measure 3
1000
0000
0000
0000
0001
0000
0000
0001
0100
0000
0000
0000
0010
0000
0100
0000
,  // measure 4
0001
0000
1000
0000
0100
0000
0010
0100
,  // measure 5
0010
0000
0000
0000
0001
0000
0000
0001
1000
0000
0000
0000
0010
0000
1000
0000
,  // measure 6
0100
0000
0000
0100
0010
0000
0000
0000
0001
0000
0000
0000
0100
0000
0000
0000
,  // measure 7
0001
0000
0000
0000
1000
0000
0000
1000
0100
0000
0000
0000
0010
0000
0100
0000
,  // measure 8
1000
0000
0001
0000
0100
0010
0100
0000
,  // measure 9
0220
0000
0000
0000
0000
0000
0330
0000
0000
0010
0000
0000
1001
0000
0000
1000
,  // measure 10
0001
0000
0010
0000
0001
0000
0000
0100
0000
0000
0010
0000
0000
0000
1000
0000
,  // measure 11
0100
0000
0001
0000
0100
0000
0000
1000
0000
1000
0001
0000
0100
0000
0010
0000
,  // measure 12
0100
0000
0001
0000
1000
0000
0100
0000
1000
0000
0000
0010
0000
0010
0100
0000
,  // measure 13
0001
0000
0000
0010
0000
0000
1000
0000
0001
0000
0100
0000
1000
0000
0001
0000
,  // measure 14
1000
0000
0000
0010
0000
0000
0010
0000
1000
0000
0000
0001
0000
0000
0010
0000
,  // measure 15
0001
0000
0000
0100
0000
0000
0100
0000
0001
0000
1000
0000
0100
0000
1000
0000
,  // measure 16
0010
0000
0100
0000
0001
0000
0010
0100
0000
0010
0000
0001
0000
0000
2000
0000
,  // measure 17
0000
3100
0010
0100
1000
0000
1001
0000
,  // measure 18
0001
0100
0010
0100
0001
0000
0001
0100
,  // measure 19
1000
0100
0001
0010
0100
0000
1000
0001
,  // measure 20
1000
0100
0010
0100
1000
0000
1000
0100
,  // measure 21
0001
0000
0100
0000
1000
0000
0010
0000
0100
0000
0000
0100
0001
0000
0010
0000
,  // measure 22
0002
0000
0013
0001
0200
0000
0310
1000
,  // measure 23
0200
0000
0310
0100
2000
0000
3001
0100
,  // measure 24
0010
1010
0011
1100
,  // measure 25
0101
0000
0000
0000
1000
0000
0010
0100
0010
0000
1000
0000
0100
0000
0010
0000
,  // measure 26
0012
0000
1003
0010
0200
0000
0302
0000
,  // measure 27
2003
0000
3100
0010
0200
0000
1300
0010
,  // measure 28
2010
0000
3001
0010
0200
0000
2300
0000
,  // measure 29
3002
0000
0000
0000
0103
0000
0010
0000
0200
0000
0000
0000
0301
0000
0010
0100
,  // measure 30
0020
0000
0031
1000
0020
0000
0032
0000
,  // measure 31
0023
0000
1030
0100
0001
0100
1000
0001
,  // measure 32
0102
1003
2100
3001
,  // measure 33
1002
0000
0000
0000
0013
0000
0000
0000
0110
0000
0000
0000
1000
0001
1000
0001
,  // measure 34
1000
0000
0001
0000
0010
0000
0000
0100
0000
0000
0100
0000
0000
0000
0010
0000
,  // measure 35
0001
0000
1000
0000
0010
0000
0000
0100
0000
0010
1000
0000
0001
0000
0010
0000
,  // measure 36
0001
0000
1000
0000
0010
0000
0001
0000
0010
0000
0000
0100
0000
0001
1000
0000
,  // measure 37
0100
0000
0000
0010
0000
0000
0100
0000
1000
0000
0001
0000
0100
0000
0001
0000
,  // measure 38
0010
0000
0000
1000
0000
0000
0001
0000
0100
0000
0000
1000
0000
0000
0001
0000
,  // measure 39
1000
0000
0000
0010
0000
0000
0001
0000
1000
0000
0100
0000
0001
0000
1000
0000
,  // measure 40
0100
0000
0010
0000
0100
0000
1000
0001
0000
0100
0000
0010
0000
0000
0200
0000
,  // measure 41
0000
0310
1000
0100
0010
0000
1001
0000
,  // measure 42
1000
0010
0100
0010
1000
0000
1000
0010
,  // measure 43
0001
0010
1000
0100
0010
0000
0001
1000
,  // measure 44
0001
0010
0100
0010
0001
0000
0001
0010
,  // measure 45
1000
0000
0010
0000
0001
0000
0100
0000
0010
0000
0000
0010
1000
0000
0100
0000
,  // measure 46
2000
0000
3100
0001
0020
0000
0031
0010
,  // measure 47
2000
0000
3010
1000
0200
0000
1300
0100
,  // measure 48
0001
0011
1010
1100
,  // measure 49
0102
0000
0000
0000
1003
0000
0001
0100
0001
0000
0100
0000
0010
0000
1000
0000
,  // measure 50
2100
0000
3001
0100
0020
0000
2030
0000
,  // measure 51
3002
0000
0013
0100
0020
0000
0031
0100
,  // measure 52
0102
0000
1003
0100
0020
0000
0032
0000
,  // measure 53
2003
0000
0000
0000
3010
0000
0100
0000
0020
0000
0000
0000
1030
0000
0100
0010
,  // measure 54
0200
0000
1300
0001
0200
0000
2300
0000
,  // measure 55
3200
0000
0301
0010
1000
0010
0001
1000
,  // measure 56
2010
3001
0012
1003
,  // measure 57
2001
0000
0000
0000
3100
0000
0000
0000
0110
0000
0000
0000
0001
1000
0001
1000
,  // measure 58
0001
0000
1000
0000
0010
0000
0000
0100
0000
0000
0001
0000
0000
0010
0100
0000
,  // measure 59
1000
0000
0100
0000
0010
0000
0000
0001
0000
0001
1000
0000
0010
0000
1000
0000
,  // measure 60
0100
0000
0001
0000
0100
0000
1000
0000
0001
0000
0000
0100
0000
0010
0100
0000
,  // measure 61
0001
0000
0000
0010
0000
0000
0100
0000
1000
0000
0010
0000
0100
0000
0001
0000
,  // measure 62
1000
0000
0000
0100
0000
0000
0001
0000
1000
0000
0000
0001
0000
0000
0100
0000
,  // measure 63
1000
0000
0000
0010
0000
0000
0001
0000
1000
0000
0001
0000
0010
0000
1000
0000
,  // measure 64
0100
0000
0010
0000
0001
0000
1000
0010
0000
0100
0000
0001
0000
0000
0020
0000
,  // measure 65
0000
1030
0010
0001
0100
0000
0000
0000
;

//---------------dance-single - xRGTMx-DSP----------------
#NOTES:
     dance-single:
     xRGTMx-DSP:
     Medium:
     6:
     0.447308,0.361925,0.156558,0.092093,0.004605,313.000000,17.000000,10.000000,0.000000,0.000000,0.000000,0.447308,0.361925,0.156558,0.092093,0.004605,313.000000,17.000000,10.000000,0.000000,0.000000,0.000000:
// measure 0
0000
0000
0000
0000
,  // measure 1
0000
0000
0000
0000
,  // measure 2
0101
0100
0010
0010
,  // measure 3
1000
0000
0100
0000
1000
0000
0001
0100
,  // measure 4
0001
0010
0100
0100
,  // measure 5
0010
0000
0100
0000
1000
0000
0010
0100
,  // measure 6
0010
0010
0100
0100
,  // measure 7
0001
0000
0010
0000
0001
0000
1000
0010
,  // measure 8
1000
0100
0010
0001
,  // measure 9
2002
0000
0000
0000
0003
0000
0000
0000
3000
0010
0000
0000
0010
0000
0010
0000
,  // measure 10
1000
0100
1000
0000
0001
0000
0100
0010
,  // measure 11
0100
0000
0001
0000
1000
0100
1000
0000
,  // measure 12
0001
0000
0010
0001
0100
0000
0010
0000
,  // measure 13
0100
0000
0001
0000
0010
0000
0001
1000
,  // measure 14
0001
0100
0001
0000
1000
0000
0100
0010
,  // measure 15
0100
0000
1000
0000
0001
0100
0001
0000
,  // measure 16
1000
0000
0010
1000
0100
0000
0010
0000
,  // measure 17
0100
0000
1000
0001
0100
0000
0110
0000
,  // measure 18
1001
1000
0100
0100
,  // measure 19
0010
0000
0010
0000
0001
0000
0001
0100
,  // measure 20
0100
0001
0001
1000
,  // measure 21
1000
0000
0100
0000
0100
0000
0010
0100
,  // measure 22
0010
0000
0002
0000
0103
0000
0001
1000
,  // measure 23
0001
0000
2000
0000
3100
0000
1000
0010
,  // measure 24
1000
0010
0100
0001
,  // measure 25
0020
0130
0010
0110
,  // measure 26
1001
0000
0001
1000
0100
0000
0010
0000
,  // measure 27
0001
0000
0010
0100
1000
0000
0001
0100
,  // measure 28
0001
0000
1000
0001
0100
0000
0010
0000
,  // measure 29
1000
0000
0010
0100
0001
0000
1000
0100
,  // measure 30
1000
0000
0100
0010
0001
0000
1000
0000
,  // measure 31
0001
0000
0010
0001
1000
0000
0010
1000
,  // measure 32
0100
0010
0011
0001
,  // measure 33
0201
1000
0310
1001
,  // measure 34
1000
0010
1000
0000
0100
0000
0010
0001
,  // measure 35
0010
0000
0100
0000
1000
0001
0100
0000
,  // measure 36
0001
0000
0010
0100
1000
0000
0001
0000
,  // measure 37
0100
0000
0010
0000
1000
0000
0001
0010
,  // measure 38
0001
0100
0001
0000
0010
0000
0100
1000
,  // measure 39
0100
0000
0010
0000
0001
1000
0010
0000
,  // measure 40
1000
0000
0100
0010
0001
0000
1000
0000
,  // measure 41
0010
0000
0100
0001
1000
0000
0110
0000
,  // measure 42
1001
0001
0100
0100
,  // measure 43
1000
0000
1000
0000
0100
0000
0100
0001
,  // measure 44
0001
0010
0010
1000
,  // measure 45
1000
0000
0010
0000
0010
0000
0001
1000
,  // measure 46
0001
0000
2000
0000
3010
0000
1000
0100
,  // measure 47
1000
0000
0002
0000
0013
0000
0001
0100
,  // measure 48
0001
0100
0010
1000
,  // measure 49
0200
0310
0100
0110
,  // measure 50
1001
0000
1000
0001
0010
0000
0100
0000
,  // measure 51
1000
0000
0100
0010
0001
0000
1000
0010
,  // measure 52
1000
0000
0001
1000
0010
0000
0100
0000
,  // measure 53
0001
0000
0100
0010
1000
0000
0001
0010
,  // measure 54
0001
0000
0010
0100
1000
0000
0001
0000
,  // measure 55
1000
0000
0100
1000
0001
0000
0100
0001
,  // measure 56
0010
0100
1100
1000
,  // measure 57
1020
0001
0130
1001
,  // measure 58
0001
0010
0100
0000
0010
0000
0001
1000
,  // measure 59
0010
0000
0100
0000
0001
1000
0100
0000
,  // measure 60
0010
0000
0100
1000
0001
0000
0100
0000
,  // measure 61
0010
0000
1000
0000
0001
0000
0010
0100
,  // measure 62
1000
0100
0010
0000
0001
0000
0100
0010
,  // measure 63
1000
0000
0001
0000
0100
1000
0100
0000
,  // measure 64
0001
0000
0010
0100
1000
0000
0001
0000
,  // measure 65
0100
0010
1001
0000
;

//---------------dance-single - xRGTMx-BSP----------------
#NOTES:
     dance-single:
     xRGTMx-BSP:
     Easy:
     4:
     0.301275,0.241283,0.248651,0.128930,0.000000,188.000000,27.000000,14.000000,0.000000,0.000000,0.000000,0.301275,0.241283,0.248651,0.128930,0.000000,188.000000,27.000000,14.000000,0.000000,0.000000,0.000000:
// measure 0
0000
0000
0000
0000
,  // measure 1
0000
0000
0000
0000
,  // measure 2
0101
0100
0010
0000
,  // measure 3
1000
0100
0100
0000
,  // measure 4
1000
1000
0001
0000
,  // measure 5
0010
0001
1000
0000
,  // measure 6
1010
0010
0100
0000
,  // measure 7
0001
0010
0010
0000
,  // measure 8
0001
0001
1000
0000
,  // measure 9
0220
0000
0000
0000
0000
0000
0000
0000
0000
0330
0000
0000
0000
0000
0000
0000
,  // measure 10
1001
1000
0001
0000
,  // measure 11
0100
0001
0001
0000
,  // measure 12
0010
0010
0100
0100
,  // measure 13
1000
0100
0010
0000
,  // measure 14
0001
0001
1000
0000
,  // measure 15
0100
1000
1000
0000
,  // measure 16
0010
0010
0100
0100
,  // measure 17
0001
0010
0110
0000
,  // measure 18
1001
1000
0010
0000
,  // measure 19
0010
0000
0100
0000
,  // measure 20
0001
0001
0010
0000
,  // measure 21
0010
0000
0100
0000
,  // measure 22
2000
3000
0200
0300
,  // measure 23
0020
0030
0002
0003
,  // measure 24
1000
1000
0001
0001
,  // measure 25
0100
0000
0110
0000
,  // measure 26
1001
0000
0000
1000
0001
0000
0001
0000
,  // measure 27
0100
0000
0000
0100
0010
0000
0000
0000
,  // measure 28
1001
0000
0000
0001
1000
0000
1000
0000
,  // measure 29
0100
0000
0000
0100
0010
0000
0000
0000
,  // measure 30
1001
0000
0000
1000
0001
0000
1000
0000
,  // measure 31
0010
0000
0000
0010
0100
0000
0000
0000
,  // measure 32
0001
0000
0110
0000
,  // measure 33
2002
0000
3003
0000
,  // measure 34
1001
1000
0001
0000
,  // measure 35
0010
0001
0001
0000
,  // measure 36
0100
0100
0010
0010
,  // measure 37
1000
0010
0100
0000
,  // measure 38
0001
0001
1000
0000
,  // measure 39
0010
1000
1000
0000
,  // measure 40
0100
0100
0010
0010
,  // measure 41
0001
0100
0110
0000
,  // measure 42
1001
0001
0010
0000
,  // measure 43
0010
0000
0100
0000
,  // measure 44
1000
1000
0010
0000
,  // measure 45
0010
0000
0100
0000
,  // measure 46
0002
0003
0020
0030
,  // measure 47
0200
0300
2000
3000
,  // measure 48
0001
0001
1000
1000
,  // measure 49
0100
0000
0110
0000
,  // measure 50
1001
0000
0000
0001
1000
0000
1000
0000
,  // measure 51
0010
0000
0000
0010
0100
0000
0000
0000
,  // measure 52
1001
0000
0000
1000
0001
0000
0001
0000
,  // measure 53
0010
0000
0000
0010
0100
0000
0000
0000
,  // measure 54
1001
0000
0000
0001
1000
0000
0001
0000
,  // measure 55
0100
0000
0000
0100
0010
0000
0000
0000
,  // measure 56
1000
0000
0110
0000
,  // measure 57
2002
0000
3003
0000
,  // measure 58
1001
1000
0100
0000
,  // measure 59
1001
0001
0100
0000
,  // measure 60
0010
1000
0100
0001
,  // measure 61
0010
0100
1001
0000
,  // measure 62
0110
1000
0001
0000
,  // measure 63
0110
0001
1000
0000
,  // measure 64
0001
0100
1000
0010
,  // measure 65
0001
0100
1001
0000
;

//---------------dance-single - xRGTMx-BEG----------------
#NOTES:
     dance-single:
     xRGTMx-BEG:
     Beginner:
     1:
     0.131561,0.150802,0.073674,0.000000,0.000000,92.000000,8.000000,0.000000,0.000000,0.000000,0.000000,0.131561,0.150802,0.073674,0.000000,0.000000,92.000000,8.000000,0.000000,0.000000,0.000000,0.000000:
// measure 0
0000
0000
0000
0000
,  // measure 1
0000
0000
0000
0000
,  // measure 2
1001
0000
0000
0000
,  // measure 3
1000
0000
0000
0000
,  // measure 4
0100
0000
0000
0000
,  // measure 5
0010
0000
0000
0000
,  // measure 6
1001
0000
0000
0000
,  // measure 7
0001
0000
0000
0000
,  // measure 8
0100
0000
0000
0000
,  // measure 9
0010
0000
1001
0000
,  // measure 10
0010
0000
0010
0000
,  // measure 11
1000
0000
0000
0000
,  // measure 12
1000
0000
1000
0000
,  // measure 13
0001
0000
0000
0000
,  // measure 14
0001
0000
0001
0000
,  // measure 15
0010
0000
0000
0000
,  // measure 16
0010
0000
0010
0000
,  // measure 17
0001
0000
1001
0000
,  // measure 18
1000
0000
0000
0000
,  // measure 19
1000
0000
0000
0000
,  // measure 20
0001
0000
0000
0000
,  // measure 21
0001
0000
0000
0000
,  // measure 22
1000
0000
1000
0000
,  // measure 23
0001
0000
0000
0000
,  // measure 24
0001
0000
0001
0000
,  // measure 25
1000
0000
0000
0000
,  // measure 26
0010
0000
0000
0000
,  // measure 27
0010
0000
0100
0000
,  // measure 28
0100
0000
0000
0000
,  // measure 29
0100
0000
0010
0000
,  // measure 30
0010
0000
0000
0000
,  // measure 31
0010
0000
0100
0000
,  // measure 32
0100
0000
0001
0000
,  // measure 33
1001
0000
0000
0000
,  // measure 34
0100
0000
0100
0000
,  // measure 35
1000
0000
0000
0000
,  // measure 36
1000
0000
1000
0000
,  // measure 37
0001
0000
0000
0000
,  // measure 38
0001
0000
0001
0000
,  // measure 39
0100
0000
0000
0000
,  // measure 40
0100
0000
0100
0000
,  // measure 41
0001
0000
1001
0000
,  // measure 42
1000
0000
0000
0000
,  // measure 43
1000
0000
0000
0000
,  // measure 44
0001
0000
0000
0000
,  // measure 45
0001
0000
0000
0000
,  // measure 46
1000
0000
0100
0000
,  // measure 47
0001
0000
0000
0000
,  // measure 48
0001
0000
0010
0000
,  // measure 49
1000
0000
0000
0000
,  // measure 50
0100
0000
0000
0000
,  // measure 51
0100
0000
0010
0000
,  // measure 52
0010
0000
0000
0000
,  // measure 53
0010
0000
0100
0000
,  // measure 54
0100
0000
0000
0000
,  // measure 55
0100
0000
0010
0000
,  // measure 56
0010
0000
1000
0000
,  // measure 57
1001
0000
0000
0000
,  // measure 58
0001
0000
0010
0000
,  // measure 59
0001
0000
0000
0000
,  // measure 60
1000
0000
0010
0000
,  // measure 61
1000
0000
0000
0000
,  // measure 62
0001
0000
0100
0000
,  // measure 63
0001
0000
0000
0000
,  // measure 64
1000
0000
0100
0000
,  // measure 65
1000
0000
1001
0000
;
