#VERSION:0.81;
#TITLE:アイデンティティ;
#SUBTITLE:;
#ARTIST:サカナクション;
#TITLETRANSLIT:Identity;
#SUBTITLETRANSLIT:;
#ARTISTTRANSLIT:sakanaction;
#GENRE:;
#ORIGIN:;
#CREDIT:;
#BANNER:[Round 1 Singles] - Identity.png;
#BACKGROUND:[Round 1 Singles] - Identity-bg.png;
#PREVIEWVID:;
#JACKET:[Round 1 Singles] - Identity-jk.png;
#CDIMAGE:;
#DISCIMAGE:;
#LYRICSPATH:[Round 1 Singles] - Identity-eng.lrc;
#CDTITLE:cdtitle.png;
#MUSIC:[Round 1 Singles] - Identity.mp3;
#OFFSET:-0.892018;
#SAMPLESTART:51.450966;
#SAMPLELENGTH:12.000000;
#SELECTABLE:YES;
#BPMS:0.000=140.000;
#STOPS:;
#DELAYS:;
#WARPS:;
#TIMESIGNATURES:0.000=4=4;
#TICKCOUNTS:0.000=4;
#COMBOS:0.000=1;
#SPEEDS:0.000=1.000=0.000=0;
#SCROLLS:0.000=1.000;
#FAKES:;
#LABELS:0.000=Song Start;
#BGCHANGES:;
#KEYSOUNDS:;
#ATTACKS:
;

//---------------dance-single - ----------------
#NOTEDATA:;
#CHARTNAME:;
#STEPSTYPE:dance-single;
#DESCRIPTION:;
#CHARTSTYLE:;
#DIFFICULTY:Hard;
#METER:8;
#RADARVALUES:0.548168,0.511582,0.310581,0.480899,0.030056,304.000000,31.000000,48.000000,0.000000,0.000000,0.000000,0.000000,0.000000,0.548168,0.511582,0.310581,0.480899,0.030056,304.000000,31.000000,48.000000,0.000000,0.000000,0.000000,0.000000,0.000000;
#CREDIT:GariK+;
#NOTES:
// measure 0
0000
0000
0000
0000
,  // measure 1
0000
0000
0000
0000
,  // measure 2
2001
0000
3001
1000
0020
0000
0230
0000
,  // measure 3
0300
0001
0100
1000
0200
0000
0320
0000
,  // measure 4
2030
3200
0320
0032
,  // measure 5
0003
0010
0100
1000
0002
0000
0103
0000
,  // measure 6
0101
0001
0100
0001
1000
0100
1000
0100
,  // measure 7
0010
0001
0100
0010
1000
0001
1001
0000
,  // measure 8
0002
0203
0320
2030
,  // measure 9
3000
0010
0100
0002
2000
0000
3003
0000
,  // measure 10
1001
0000
0000
1000
0000
0000
0001
0000
0000
0010
0000
0000
0100
0000
1000
0000
,  // measure 11
0001
0000
0000
0001
0000
0000
0010
0000
0001
0000
0010
0000
0100
0000
1000
0000
,  // measure 12
0010
0000
0000
0010
0000
0000
1000
0000
0010
0000
0001
0000
1000
0000
0100
0000
,  // measure 13
0101
1010
1001
0110
,  // measure 14
0000
0001
0100
0001
1000
0001
0010
0100
,  // measure 15
0000
0100
0000
0100
0000
1000
0100
1000
,  // measure 16
0002
0000
0103
0001
2000
0100
0000
0001
,  // measure 17
0000
0010
0000
0001
0000
0100
0000
3001
,  // measure 18
1000
0010
0110
0000
0002
0000
1003
0002
,  // measure 19
0000
0000
0010
0000
0013
0000
0001
1000
0000
0000
0010
0000
0100
0000
0010
0000
,  // measure 20
1000
0100
0010
1000
0010
0001
0100
0010
,  // measure 21
0000
0100
0000
0110
0000
0001
0100
0010
,  // measure 22
1000
0001
0010
0001
1000
0100
1000
0010
,  // measure 23
0000
0010
0000
0010
0000
0100
0010
1000
,  // measure 24
0100
0010
0001
0100
0020
1000
0000
0100
,  // measure 25
0000
1000
0000
0001
0000
1000
0000
0130
,  // measure 26
0010
0100
0110
0000
0001
1000
0100
0010
,  // measure 27
0000
0010
0000
0010
0000
0001
0010
0001
,  // measure 28
2000
0000
3200
0000
0310
0010
0001
0100
,  // measure 29
0010
0100
0010
0100
0020
0000
0030
0000
,  // measure 30
0101
0100
0001
0100
1000
0100
1000
0100
,  // measure 31
0001
0100
0001
0100
0010
1000
0100
1000
,  // measure 32
0100
0010
0100
0001
0100
0010
0100
1000
,  // measure 33
0010
0100
0010
1000
0100
0010
0001
1000
,  // measure 34
0000
1001
0000
0000
1000
0001
1000
0100
,  // measure 35
0000
1100
0000
1000
0100
0010
0001
0012
,  // measure 36
0000
0000
0103
0000
0001
0100
0000
0110
,  // measure 37
0000
0010
2000
0000
3001
0000
1100
0000
,  // measure 38
0011
0010
0001
0010
1000
0010
1000
0010
,  // measure 39
0001
0010
0001
0010
0100
1000
0010
0100
,  // measure 40
0010
1000
0010
0100
0010
0001
0010
0100
,  // measure 41
0001
1000
0100
0010
0001
0100
0010
1000
,  // measure 42
0000
1010
0000
1000
0001
0010
0100
0110
,  // measure 43
0000
0000
0110
0000
0000
0000
1100
0000
1100
0000
1001
0000
1001
0000
0000
0001
,  // measure 44
1000
0001
1000
0001
0100
0100
0010
0010
,  // measure 45
2010
0000
3001
1000
0020
0000
0230
0000
,  // measure 46
0300
0001
0010
0100
0020
0000
0032
0000
,  // measure 47
2003
3020
0230
0302
,  // measure 48
0003
0010
0100
2000
0002
0000
3003
0000
,  // measure 49
1002
0000
0013
0001
0200
0000
0320
0000
,  // measure 50
0030
1000
0100
0010
0200
0000
0320
0000
,  // measure 51
2030
3020
0032
0203
,  // measure 52
0300
0010
1000
0002
0200
0000
0303
0000
,  // measure 53
0101
1100
1010
1001
;

//---------------dance-single - ----------------
#NOTEDATA:;
#CHARTNAME:;
#STEPSTYPE:dance-single;
#DESCRIPTION:;
#CHARTSTYLE:;
#DIFFICULTY:Medium;
#METER:6;
#RADARVALUES:0.409337,0.403880,0.180337,0.250468,0.000000,243.000000,18.000000,25.000000,0.000000,0.000000,0.000000,0.000000,0.000000,0.409337,0.403880,0.180337,0.250468,0.000000,243.000000,18.000000,25.000000,0.000000,0.000000,0.000000,0.000000,0.000000;
#CREDIT:GariK+;
#NOTES:
// measure 0
0000
0000
0000
0000
,  // measure 1
0000
0000
0000
0000
,  // measure 2
1002
0100
0100
0100
,  // measure 3
0000
1000
1000
2003
,  // measure 4
0100
0100
0100
0100
,  // measure 5
0000
0001
3001
1001
,  // measure 6
0001
1000
0001
1000
0001
1000
0001
1000
,  // measure 7
0010
0100
0010
0100
0010
0100
0010
0000
,  // measure 8
1000
0100
0010
0001
,  // measure 9
0000
1000
0001
1000
0002
0000
0003
0000
,  // measure 10
0100
0000
0001
0000
0010
0001
0100
0000
,  // measure 11
0010
0000
1000
0000
0010
1000
0100
0000
,  // measure 12
1000
0000
0001
0000
0100
0010
0100
0000
,  // measure 13
1001
0110
1001
0110
,  // measure 14
0001
0000
1000
0000
0001
0100
0001
0000
,  // measure 15
1000
0001
0010
0100
,  // measure 16
2000
0100
3002
0000
,  // measure 17
0100
1000
0010
1000
,  // measure 18
0103
0101
0001
0000
,  // measure 19
1000
0000
0100
0000
1000
0001
0100
0000
,  // measure 20
0010
0000
0010
0000
0100
0010
0100
0001
,  // measure 21
0000
1000
0000
1001
0000
0000
0000
0000
,  // measure 22
1000
0000
0001
0000
0010
0001
0010
0000
,  // measure 23
0001
1000
0100
0010
,  // measure 24
0002
0010
2003
0000
,  // measure 25
0010
0001
0100
0001
,  // measure 26
3010
1010
1000
0001
,  // measure 27
0010
0010
0010
0001
,  // measure 28
0100
0010
0100
0000
0001
1000
0001
1000
,  // measure 29
0000
0000
0220
0330
,  // measure 30
1000
0100
1000
0100
1000
0100
1000
0000
,  // measure 31
0001
0100
0001
0100
0001
0100
0010
0000
,  // measure 32
0010
1000
0100
0000
0100
1000
0001
0000
,  // measure 33
0001
0100
0010
0000
0100
0010
0100
0000
,  // measure 34
2001
0100
3001
0100
,  // measure 35
0010
0000
1000
0000
0001
0001
0001
0000
,  // measure 36
0020
0032
0203
0320
,  // measure 37
2030
3002
0103
0110
,  // measure 38
0001
0100
0001
0100
0001
0100
0001
0000
,  // measure 39
1000
0100
1000
0100
1000
0100
0010
0000
,  // measure 40
0010
0001
0100
0000
0100
0001
1000
0000
,  // measure 41
1000
0010
0100
0000
0010
0100
0010
0000
,  // measure 42
1001
0000
1000
0000
0001
0100
0001
1000
,  // measure 43
0000
1000
0000
1000
0010
0010
0010
0000
,  // measure 44
0000
0100
0100
0010
0100
0010
0100
0000
,  // measure 45
0002
0010
1000
0100
,  // measure 46
0000
1000
1000
0000
1000
0000
1003
0000
,  // measure 47
2000
0100
0001
0010
,  // measure 48
0000
0010
0010
0000
0002
0000
3003
0000
,  // measure 49
1001
0000
1000
0100
1000
0000
0002
0000
,  // measure 50
0000
0103
0001
0100
0010
0000
0010
0000
,  // measure 51
2000
3200
0320
0032
,  // measure 52
0003
0100
0010
0100
0020
0000
0030
0000
,  // measure 53
0101
1100
1010
1001
;

//---------------dance-single - ----------------
#NOTEDATA:;
#CHARTNAME:;
#STEPSTYPE:dance-single;
#DESCRIPTION:;
#CHARTSTYLE:;
#DIFFICULTY:Easy;
#METER:4;
#RADARVALUES:0.274800,0.430806,0.210393,0.060112,0.000000,165.000000,21.000000,6.000000,0.000000,0.000000,0.000000,0.000000,0.000000,0.274800,0.430806,0.210393,0.060112,0.000000,165.000000,21.000000,6.000000,0.000000,0.000000,0.000000,0.000000,0.000000;
#CREDIT:GariK+;
#NOTES:
// measure 0
0000
0000
0000
0000
,  // measure 1
0000
0000
0000
0000
,  // measure 2
2002
0000
0000
0000
,  // measure 3
0000
0000
3003
0000
,  // measure 4
1000
0100
0010
0001
,  // measure 5
0000
0100
0100
0000
,  // measure 6
1001
1001
0101
0101
,  // measure 7
1001
1001
1010
1010
,  // measure 8
1000
0010
0100
0001
,  // measure 9
0000
1000
1000
0000
,  // measure 10
0001
0100
0001
0010
,  // measure 11
0100
1000
0001
1000
,  // measure 12
0010
0100
0001
1000
,  // measure 13
1001
0110
1001
0110
,  // measure 14
0000
0001
0000
0001
,  // measure 15
1000
0100
1000
0001
,  // measure 16
0000
1000
0000
1000
,  // measure 17
0001
0001
0001
0001
,  // measure 18
0100
0010
0000
0010
,  // measure 19
1000
0100
1000
0000
,  // measure 20
0001
0010
1000
0100
,  // measure 21
0001
0000
0000
1000
0000
0000
0000
0000
,  // measure 22
0000
0010
0000
0010
,  // measure 23
1000
0100
1000
0001
,  // measure 24
0000
0100
0000
0100
,  // measure 25
0010
0010
0010
0010
,  // measure 26
1000
0001
0000
0001
,  // measure 27
0100
0010
0010
0000
,  // measure 28
1000
0100
0001
0010
,  // measure 29
1000
0000
0001
0000
,  // measure 30
1001
0001
0100
0001
,  // measure 31
1000
0100
1000
0020
,  // measure 32
0000
1000
0000
1030
,  // measure 33
0001
0010
0100
1000
,  // measure 34
0001
0001
0010
0100
,  // measure 35
0001
0001
0100
0010
,  // measure 36
0001
0100
0010
1000
,  // measure 37
0001
1000
0000
0010
,  // measure 38
1001
1000
0100
1000
,  // measure 39
0001
0010
0001
0200
,  // measure 40
0000
0001
0000
0301
,  // measure 41
1000
0100
0001
0010
,  // measure 42
0100
0000
0100
0000
0001
0000
0000
1000
,  // measure 43
0000
1000
0000
1000
0000
0000
0000
0000
,  // measure 44
0000
0100
0100
0100
,  // measure 45
1001
1000
0001
0200
,  // measure 46
0000
0010
0010
0300
,  // measure 47
0100
0001
1000
0100
,  // measure 48
0000
1000
0001
0000
,  // measure 49
1001
0001
1000
0020
,  // measure 50
0000
0100
0100
0030
,  // measure 51
0010
1000
0001
0100
,  // measure 52
0000
0001
1000
0000
,  // measure 53
1001
0110
1001
0110
;

//---------------dance-single - ----------------
#NOTEDATA:;
#CHARTNAME:;
#STEPSTYPE:dance-single;
#DESCRIPTION:;
#CHARTSTYLE:;
#DIFFICULTY:Beginner;
#METER:1;
#RADARVALUES:0.088737,0.161552,0.070131,0.040075,0.000000,51.000000,7.000000,4.000000,0.000000,0.000000,0.000000,0.000000,0.000000,0.088737,0.161552,0.070131,0.040075,0.000000,51.000000,7.000000,4.000000,0.000000,0.000000,0.000000,0.000000,0.000000;
#CREDIT:GariK+;
#NOTES:
// measure 0
0000
0000
0000
0000
,  // measure 1
0000
0000
0000
0000
,  // measure 2
1001
0000
0000
0000
,  // measure 3
0000
0000
0000
0000
,  // measure 4
0000
0000
0000
0000
,  // measure 5
0000
0000
0000
0000
,  // measure 6
1000
0000
0000
0000
,  // measure 7
0000
0000
0000
0000
,  // measure 8
0001
0000
0000
0000
,  // measure 9
0000
0000
0000
0000
,  // measure 10
0100
0000
0000
0000
,  // measure 11
0100
0000
0000
0000
,  // measure 12
0100
0000
0000
0000
,  // measure 13
0100
0000
0000
0000
,  // measure 14
0001
0000
0000
0000
,  // measure 15
1000
0000
0000
0000
,  // measure 16
0010
0000
0000
0000
,  // measure 17
0010
0000
0000
0000
,  // measure 18
1000
0000
0000
0000
,  // measure 19
0001
0000
0000
0000
,  // measure 20
0100
0000
0000
0000
,  // measure 21
0000
0000
0000
0000
,  // measure 22
0001
0000
0000
0000
,  // measure 23
1000
0000
0000
0000
,  // measure 24
0010
0000
0000
0000
,  // measure 25
0100
0000
0000
0000
,  // measure 26
0010
0000
0000
0000
,  // measure 27
1000
0000
0000
0000
,  // measure 28
0001
0000
0001
0000
,  // measure 29
0001
0000
0000
0000
,  // measure 30
1001
0000
0000
0000
,  // measure 31
0110
0000
0000
1001
,  // measure 32
0000
0000
0000
0000
,  // measure 33
1000
0000
0000
0000
,  // measure 34
0001
0000
0000
0000
,  // measure 35
0100
0000
0000
0000
,  // measure 36
0001
0000
0000
0000
,  // measure 37
1000
0000
0000
0000
,  // measure 38
1001
0000
0000
0000
,  // measure 39
0110
0000
0000
1001
,  // measure 40
0000
0000
0000
0000
,  // measure 41
0001
0000
0000
0000
,  // measure 42
1000
0000
0000
0000
,  // measure 43
0010
0000
0000
0000
,  // measure 44
0000
0000
0000
0000
,  // measure 45
0002
0000
0003
0000
,  // measure 46
2000
0000
3000
0000
,  // measure 47
0010
0000
0010
0000
,  // measure 48
0010
0000
0000
0000
,  // measure 49
2000
0000
3000
0000
,  // measure 50
0002
0000
0003
0000
,  // measure 51
0100
0000
0100
0000
,  // measure 52
0100
0000
0000
0000
,  // measure 53
1000
1000
0001
0001
;
