#VERSION:0.81;
#TITLE:Heart of Witch;
#SUBTITLE:;
#ARTIST:ReX;
#TITLETRANSLIT:;
#SUBTITLETRANSLIT:;
#ARTISTTRANSLIT:;
#GENRE:Classical Trance;
#ORIGIN:;
#CREDIT:;
#BANNER:[Round 1 Singles] - Heart of Witch.png;
#BACKGROUND:[Round 1 Singles] - Heart of Witch-bg.png;
#PREVIEWVID:;
#JACKET:[Round 1 Singles] - Heart of Witch-jacket.png;
#CDIMAGE:;
#DISCIMAGE:;
#LYRICSPATH:;
#CDTITLE:;
#MUSIC:[Round 1 Singles] - Heart of Witch.mp3;
#OFFSET:-0.628;
#SAMPLESTART:51.323;
#SAMPLELENGTH:11.294;
#SELECTABLE:YES;
#BPMS:0.000=170.000,
96.000=85.000,
116.000=170.000;
#STOPS:;
#DELAYS:;
#WARPS:;
#TIMESIGNATURES:0.000=4=4,
96.000=2=4,
116.000=4=4;
#TICKCOUNTS:0.000=4;
#COMBOS:0.000=1;
#SPEEDS:0.000=1.000=0.000=0;
#SCROLLS:0.000=1.000;
#FAKES:;
#LABELS:0.000=Song Start;
#BGCHANGES:15.833=[Round 1 Singles] - Heart of Witch.avi=1.000=0=0=1===CrossFade_Faster==,
99999=-nosongbg-=1.000=0=0=0 // don't automatically add -songbackground-
;
#KEYSOUNDS:;
#ATTACKS:
;

//---------------dance-single - ----------------
#NOTEDATA:;
#CHARTNAME:;
#STEPSTYPE:dance-single;
#DESCRIPTION:;
#CHARTSTYLE:;
#DIFFICULTY:Hard;
#METER:8;
#RADARVALUES:0.639,0.824,0.242,0.432,0.200,361.000,23.000,41.000,0.000,0.000,0.000,0.000,0.000,0.639,0.824,0.242,0.432,0.200,361.000,23.000,41.000,0.000,0.000,0.000,0.000,0.000;
#CREDIT:;
#NOTES:
0000
0000
0000
0000
,
0000
0000
0000
0000
,
0000
0000
0000
0000
,
0000
0000
0000
0000
,
1000
0000
1000
0010
0000
0010
0100
0000
,
0100
0001
0000
0001
0010
0001
0010
0100
,
0010
0000
0010
0100
0000
0100
1000
0000
,
1000
0001
0000
0001
0100
0001
0100
0010
,
0100
0010
1000
0001
0001
0001
0001
0000
,
0001
0010
0100
1000
1000
1000
1000
0000
,
1000
0010
0100
0001
0001
0001
0001
0000
,
0002
0023
2030
3200
,
0301
1000
0100
0010
0010
0010
0010
0000
,
0010
0001
0100
0010
0010
0010
0010
0000
,
0010
1000
0100
0010
0010
0010
0010
0000
,
0020
0032
0203
2300
,
3002
0000
0023
0000
1030
0010
1000
0001
,
0010
1000
0001
0100
1000
0010
0001
1000
,
0200
0000
0302
0000
0013
0001
1000
0100
,
0001
1000
0010
0001
0100
1000
0001
0010
,
2000
0000
3020
0000
0130
0001
0100
0001
,
1000
0001
1000
0001
1000
0100
1000
0100
,
0010
0000
0000
0010
0001
0000
0000
0001
0100
0000
0000
0100
0010
0000
0000
0010
,
1000
0100
0010
0001
1000
0001
0100
0010
,
1000
0000
0001
0100
0010
0100
0010
1000
0001
1000
0100
0010
0000
0001
0001
0001
,
0000
0010
0000
0001
0100
0001
0100
0010
0100
0000
0010
1000
0001
1000
0001
0010
,
0100
0000
1000
0100
1000
0001
0100
0001
0100
0010
1000
0001
0000
0010
0010
0010
,
0000
0100
0000
0100
1000
0001
1000
0010
0100
0000
0100
0010
0100
0001
0010
0100
,
1000
0000
1000
0100
0010
0001
0100
0010
1000
0000
1000
0010
0100
0001
1000
0010
,
1010
0000
1001
0000
0011
0000
0110
0100
,
1100
1001
0101
0110
,
0010
1000
0001
0010
0011
0001
0011
0000
,
0010
0100
1000
0010
1010
1000
1010
0000
,
0010
0100
0001
1000
1001
0001
1001
0000
,
2000
3200
0320
0032
,
1003
0010
0100
0001
0101
0100
0101
0000
,
0001
0010
0100
1000
1100
0100
1100
0000
,
1000
0010
0100
0001
1001
1000
1001
0000
,
0002
0203
0320
2030
,
3100
1000
0001
1000
0002
0000
0203
0000
,
0310
0100
0010
1000
0020
0000
2030
0000
,
3100
1000
0100
0010
0002
0000
0203
0000
,
0301
0100
1000
0100
0001
0010
1000
0010
,
0001
0010
0100
0010
0200
0000
2300
0000
,
3001
0100
0010
0100
0020
0000
2030
0000
,
3001
0100
0001
1000
0100
1000
0001
1000
,
0010
0001
1000
0100
0001
0010
0100
1000
,
0002
0000
0103
0001
0100
0010
1000
0010
,
1000
0100
0001
0100
1000
0010
0001
0010
,
2000
0000
3100
1000
0100
0010
0001
0010
,
0001
0100
1000
0100
0001
0010
1000
0010
,
0002
0000
0103
0001
1000
0001
1000
0100
,
1000
0001
0100
0010
1000
0100
0010
0001
,
2002
3003
0220
0330
,
2002
0000
0000
0000
,
0000
0000
0000
0000
,
0000
0000
0000
0000
,
0000
0000
0000
0000
,
3003
0000
0000
0000
;

//---------------dance-single - ----------------
#NOTEDATA:;
#CHARTNAME:;
#STEPSTYPE:dance-single;
#DESCRIPTION:;
#CHARTSTYLE:;
#DIFFICULTY:Challenge;
#METER:10;
#RADARVALUES:0.800,1.000,0.495,0.368,0.658,450.000,47.000,35.000,0.000,0.000,0.000,0.000,0.000,0.800,1.000,0.495,0.368,0.658,450.000,47.000,35.000,0.000,0.000,0.000,0.000,0.000;
#CREDIT:;
#NOTES:
// measure 0
0000
0000
0000
0000
,  // measure 1
0000
0000
0000
0000
,  // measure 2
0000
0000
0000
0000
,  // measure 3
0000
0000
0000
0000
,  // measure 4
1000
0000
0010
1000
0010
0000
1000
0000
0001
1000
0001
0000
1000
0000
0100
1000
,  // measure 5
0100
0000
0010
0000
0001
0100
0010
1000
0001
0000
0000
0000
1001
0000
0000
0000
,  // measure 6
1000
0000
0001
0100
0001
0000
0100
0000
0001
0010
0001
0000
0010
0000
0100
0010
,  // measure 7
0100
0000
1000
0000
0001
0100
0010
1000
0001
0000
0000
0000
1001
0000
0000
0000
,  // measure 8
1000
0100
0010
0001
0011
0010
0011
0000
,  // measure 9
0001
1000
0001
0100
0101
0001
0101
0000
,  // measure 10
0100
0010
1000
0001
1001
1000
1001
0000
,  // measure 11
0002
0023
0230
2300
,  // measure 12
3001
0010
0100
1000
1100
0100
1100
0000
,  // measure 13
1000
0001
1000
0010
1010
1000
1010
0000
,  // measure 14
0010
0100
0001
1000
1001
0001
1001
0000
,  // measure 15
0002
0023
0230
2300
,  // measure 16
3001
0000
0000
0001
0010
0000
0000
0010
0100
0000
1000
0000
0010
0000
0001
0000
,  // measure 17
0010
1000
0100
0001
0100
1000
0001
0100
,  // measure 18
0010
0000
0000
0010
1000
0000
0000
1000
0001
0000
0010
0000
1000
0000
0010
0000
,  // measure 19
0001
0100
1000
0100
0001
0010
0100
1000
,  // measure 20
0010
0000
0000
0010
0100
0000
0000
0100
0001
0000
0010
0001
0010
0000
0001
0000
,  // measure 21
1000
0000
0010
1000
0010
0000
0100
0000
0001
0000
0100
0001
0100
0000
0001
0000
,  // measure 22
1000
0000
0000
1000
0100
0000
0000
0100
0010
0000
0000
0010
0001
0000
0000
0001
,  // measure 23
0100
0000
0010
0000
1000
0000
0001
0000
0010
0100
0010
0100
1000
0001
1000
0001
,  // measure 24
1000
0000
0000
0000
0001
0000
0100
0000
0010
0000
0100
0000
0010
0000
1000
0000
0100
0000
0010
0000
0001
0000
1000
0000
0000
0000
0010
0100
0010
0100
0010
0100
,  // measure 25
0000
0000
0001
0000
0000
0000
0001
0000
0010
0000
0100
0000
1000
0100
1000
0100
1000
0000
0000
0000
0100
0000
1000
0000
0001
0000
0100
0000
0010
0100
0010
0100
,  // measure 26
0010
0000
0000
0000
1000
0000
0100
0000
0010
0000
0100
0000
0010
0000
0001
0000
0100
0000
0010
0000
1000
0000
0001
0000
0000
0000
0010
0100
0010
0100
0010
0100
,  // measure 27
0000
0000
1000
0000
0000
0000
1000
0000
0100
0000
0010
0000
0001
0010
0001
0010
0001
0000
0000
0000
0010
0000
0001
0000
1000
0000
0001
0000
0100
0001
0100
0001
,  // measure 28
0100
0000
0000
0000
0010
0000
0100
0000
0010
0000
1000
0000
0001
1000
0001
1000
0001
0000
0000
0000
0010
0000
0100
0000
1000
0000
0001
0000
0100
0000
0010
0000
,  // measure 29
1010
0000
1001
0000
0011
0000
0110
0100
,  // measure 30
1100
1001
0101
0110
,  // measure 31
1000
0010
1000
0010
1000
0000
1010
0000
1010
0000
1010
0000
1010
0000
0000
0000
,  // measure 32
0100
0001
0100
0001
0100
0000
0101
0000
0101
0000
0101
0000
0101
0000
0000
0000
,  // measure 33
0001
1000
0001
1000
0001
0000
1001
0000
1001
0000
1001
0000
1001
0000
0000
0000
,  // measure 34
2000
3002
0023
0230
,  // measure 35
1300
0100
1000
0100
1000
0000
1100
0000
1100
0000
1100
0000
1100
0000
0000
0000
,  // measure 36
0001
0010
0001
0010
0001
0000
0011
0000
0011
0000
0011
0000
0011
0000
0000
0000
,  // measure 37
1000
0001
1000
0001
1000
0000
1001
0000
1001
0000
1001
0000
1001
0000
0000
0000
,  // measure 38
0002
0203
0320
2030
,  // measure 39
3002
0000
0000
0000
0013
0100
0010
0100
0020
0000
0000
0000
0230
0000
0000
0000
,  // measure 40
2300
0000
0000
0000
3010
0100
0010
0100
0020
0000
0000
0000
0230
0000
0000
0000
,  // measure 41
0302
0000
0000
0000
1003
0100
1000
0100
2000
0000
0000
0000
3020
0000
0000
0000
,  // measure 42
0230
0000
0000
0000
0301
0100
0001
0100
0002
0000
1000
0000
1003
0000
0000
0000
,  // measure 43
1000
0000
0010
0000
1000
0000
0100
1000
0001
0000
1000
0000
0001
0000
1000
0000
,  // measure 44
0001
0000
0010
0000
0001
0000
0100
0001
1000
0000
0001
0000
1000
0000
0001
0000
,  // measure 45
1000
1000
0100
0100
0010
0010
0001
0001
,  // measure 46
1000
0010
0100
0001
1000
0100
0010
0001
,  // measure 47
2000
0000
0000
0000
3020
0000
0000
0000
0130
0001
0100
0001
1000
0001
1000
0001
,  // measure 48
1000
0100
1000
0100
1000
0001
1000
0001
1000
0010
0100
0001
0010
0100
1000
0010
,  // measure 49
0200
0000
0000
0000
0301
0100
0001
0100
0010
1000
0010
1000
0001
1000
0001
1000
,  // measure 50
0001
0010
0001
0010
0100
0010
0100
0010
0100
1000
0010
0100
0001
0010
0100
1000
,  // measure 51
0002
0000
0103
0100
0010
0010
1000
1000
,  // measure 52
0001
0010
1000
0010
0001
0100
1000
0100
,  // measure 53
0002
0003
2000
3000
,  // measure 54
2002
0000
0000
0000
,  // measure 55
0000
0000
0000
0000
,  // measure 56
0000
0000
0000
0000
,  // measure 57
0000
0000
0000
0000
,  // measure 58
3003
0000
0000
0000
;

//---------------dance-single - ----------------
#NOTEDATA:;
#CHARTNAME:;
#STEPSTYPE:dance-single;
#DESCRIPTION:;
#CHARTSTYLE:;
#DIFFICULTY:Medium;
#METER:7;
#RADARVALUES:0.472,0.458,0.389,0.147,0.021,263.000,37.000,14.000,0.000,0.000,0.000,0.000,0.000,0.472,0.458,0.389,0.147,0.021,263.000,37.000,14.000,0.000,0.000,0.000,0.000,0.000;
#CREDIT:;
#NOTES:
0000
0000
0000
0000
,
0000
0000
0000
0000
,
0000
0000
0000
0000
,
0000
0000
0000
0000
,
1000
0000
0000
1010
0000
0000
0001
0000
,
0000
1001
0000
0000
0001
0000
0011
0000
,
0010
0000
0000
0110
0000
0000
0100
0000
,
0000
1100
0000
0000
1000
0000
1001
0000
,
0001
0010
0100
1000
0010
1000
0010
0000
,
0100
0001
1000
0100
0010
0100
0010
0000
,
0001
0100
0010
1000
0001
1000
0001
0000
,
1000
1100
0001
0101
,
0100
0010
1000
0001
0010
0001
0010
0000
,
0100
1000
0010
0100
0001
0100
0001
0000
,
0100
0010
1000
0100
0010
0100
0010
0000
,
0001
0011
1000
1010
,
0001
0000
1001
0000
1000
0100
1000
0100
,
1000
0001
1000
0001
0100
0001
0100
0001
,
0100
0000
0110
0000
0010
0100
0010
0100
,
0001
1000
0001
1000
0100
0010
0100
0010
,
0001
0000
0011
0000
0010
0001
0010
0001
,
1000
0001
1000
0001
1000
0010
1000
0010
,
0100
0110
0001
1001
,
2000
3200
0320
0032
,
0003
0000
1000
0000
0010
0000
0100
0000
0001
0000
0000
0001
0000
0000
1000
0000
,
0000
1000
0000
0000
0001
0000
0010
0000
0100
0000
0000
0000
0100
0000
1000
0000
,
0001
0000
0100
0000
0010
0000
1000
0000
0100
0000
0000
0100
0000
0000
0010
0000
,
0000
0010
0000
0000
0001
0000
0010
0000
0001
0000
1000
0000
0001
0000
1000
0000
,
0001
0100
0001
0100
0010
0100
0010
1000
,
1100
0100
1100
1000
,
1001
0001
1001
1000
,
0001
0100
0001
0100
0000
0000
0101
0000
,
0001
1000
0001
1000
0000
0000
1001
0000
,
1000
0100
1000
0100
0000
0000
1100
0000
,
2000
3200
0320
0032
,
1003
0010
1000
0010
0000
0000
1010
0000
,
1000
0001
1000
0001
0000
0000
1001
0000
,
0001
0010
0001
0010
0000
0000
0011
0000
,
0002
0023
0230
1300
,
0101
0000
0000
0100
0001
0000
0100
0000
,
0110
0000
0000
0010
0100
0000
0010
0000
,
1010
0000
0000
1000
0010
0000
1000
0000
,
1010
0000
0000
1000
0001
0000
0010
0000
,
0110
0000
0000
0100
1000
0000
0001
0000
,
1001
0000
0000
0001
0100
0000
0010
0000
,
1010
0011
1010
0011
,
0010
0100
1000
0001
0100
0010
1000
0001
,
1000
1100
0100
0010
,
0001
0000
0100
0000
0010
0100
0010
1000
,
0001
1001
1000
0001
,
1000
0000
0100
0000
0010
0001
1000
0001
,
0100
0010
1000
0001
,
0010
0100
0010
0100
1000
0001
1000
0001
,
0200
0300
0020
0030
,
0200
0000
0000
0000
,
0000
0000
0000
0000
,
0000
0000
0000
0000
,
0000
0000
0000
0000
,
0300
0000
0000
0000
;

//---------------dance-single - ----------------
#NOTEDATA:;
#CHARTNAME:;
#STEPSTYPE:dance-single;
#DESCRIPTION:;
#CHARTSTYLE:;
#DIFFICULTY:Easy;
#METER:5;
#RADARVALUES:0.292,0.341,0.032,0.000,0.000,191.000,3.000,0.000,0.000,0.000,0.000,0.000,0.000,0.292,0.341,0.032,0.000,0.000,191.000,3.000,0.000,0.000,0.000,0.000,0.000,0.000;
#CREDIT:;
#NOTES:
0000
0000
0000
0000
,
0000
0000
0000
0000
,
0000
0000
0000
0000
,
0000
0000
0000
0000
,
1000
0000
0000
1000
0000
0000
0100
0000
,
0000
0100
0000
0000
0010
0000
0010
0000
,
0010
0000
0000
0010
0000
0000
0001
0000
,
0000
0001
0000
0000
1000
0000
1000
0000
,
1000
0010
1000
0000
,
0001
1000
0001
0000
,
0010
0001
0010
0000
,
0100
0100
0010
0010
,
0100
1000
0100
0000
,
1000
0001
1000
0000
,
0001
0100
0001
0000
,
0100
0100
0010
0010
,
1000
1000
0100
0001
,
0100
1000
0001
0100
,
0010
0010
1000
0010
,
1000
0001
0010
0001
,
1000
1000
0100
0001
,
0100
1000
0001
0100
,
0010
0010
1000
1000
,
0001
0010
0100
1000
,
0000
0001
0100
0010
1000
0000
0010
1000
,
0010
0000
1000
0001
1000
0000
0100
0010
,
0100
0000
0010
0001
1000
0000
0001
1000
,
0001
0000
0100
0001
0100
0000
0010
0100
,
0010
0000
1000
0010
1000
0000
0001
1000
,
0001
0001
0001
1001
,
1000
1000
1000
1001
,
0001
0100
1000
0000
,
1000
0100
0001
0000
,
0001
1000
0001
0000
,
1000
0100
0010
0001
,
1000
0100
0001
0000
,
0001
0100
1000
0000
,
1000
0001
1000
0000
,
0001
0100
0010
1000
,
0001
0010
0001
0001
,
1000
0001
1000
1000
,
0010
1000
0010
0010
,
0100
0001
1000
0100
,
0010
0001
0100
0100
,
0010
1000
0001
0001
,
1000
1000
0100
0100
,
0010
0001
0100
0010
,
1000
0000
0010
1000
,
0001
1000
0001
0010
,
0100
0000
1000
0100
,
1000
0001
0100
0010
,
1000
1000
0001
0001
,
1000
0001
1000
0001
,
0010
0000
0100
0000
,
0110
0000
0000
0000
;

//---------------dance-single - ----------------
#NOTEDATA:;
#CHARTNAME:;
#STEPSTYPE:dance-single;
#DESCRIPTION:;
#CHARTSTYLE:;
#DIFFICULTY:Beginner;
#METER:2;
#RADARVALUES:0.165,0.199,0.000,0.000,0.000,110.000,0.000,0.000,0.000,0.000,0.000,0.000,0.000,0.165,0.199,0.000,0.000,0.000,110.000,0.000,0.000,0.000,0.000,0.000,0.000,0.000;
#CREDIT:;
#NOTES:
0000
0000
0000
0000
,
0000
0000
0000
0000
,
0000
0000
0000
0000
,
0000
0000
0000
0000
,
1000
0000
0000
0000
,
0000
0000
0000
0001
,
0001
0000
0000
0000
,
0000
0000
0000
1000
,
1000
0000
0000
0000
,
0100
0000
0000
0000
,
0010
0000
0000
0000
,
0001
0000
0001
0000
,
0001
0000
0000
0000
,
0100
0000
0000
0000
,
0010
0000
0000
0000
,
1000
0000
1000
0000
,
1000
0000
0000
0000
,
0001
0000
0001
0000
,
0001
0000
0000
0000
,
0100
0000
0100
0000
,
0100
0000
0000
0000
,
0010
0000
0010
0000
,
0010
0000
1000
0000
,
0001
0000
0010
0000
,
0100
0100
0100
0000
,
1000
0000
0001
0000
,
0100
0100
0100
0000
,
0010
0000
1000
0000
,
0001
0000
1000
0000
,
0001
0000
0001
0000
,
0010
0000
0010
0000
,
0100
0100
0100
0000
,
1000
1000
1000
0000
,
0001
0001
0001
0000
,
0100
0000
0100
0000
,
0100
0100
0100
0000
,
0010
0010
0010
0000
,
1000
1000
1000
0000
,
0001
0000
1000
0000
,
0100
0000
0010
0010
,
0010
0000
0001
0001
,
0001
0000
1000
1000
,
1000
0000
0001
0001
,
0001
0000
0100
0100
,
0100
0000
0010
0010
,
0010
0000
1000
0000
,
0001
0001
0001
0001
,
0001
0000
0010
0010
,
0010
0010
0010
0010
,
0010
0000
0100
0100
,
0100
0100
0100
0100
,
0100
0000
1000
0000
,
0001
0000
0100
0000
,
0010
0000
1000
0000
,
0001
0000
0000
0000
;
