#TITLE:HELIX;
#SUBTITLE:;
#ARTIST:ESTi;
#TITLETRANSLIT:;
#SUBTITLETRANSLIT:;
#ARTISTTRANSLIT:;
#GENRE:;
#CREDIT:;
#BANNER:[Round 1 Singles] - HELIX.png;
#BACKGROUND:[Round 1 Singles] - HELIX-bg.png;
#LYRICSPATH:;
#CDTITLE:;
#MUSIC:[Round 1 Singles] - HELIX.mp3;
#OFFSET:-1.443;
#SAMPLESTART:12.397;
#SAMPLELENGTH:13.220;
#SELECTABLE:YES;
#BPMS:0.000=175.000
,280.000=87.500
,312.000=175.000
;
#STOPS:
;
#BGCHANGES:;
#KEYSOUNDS:;
#ATTACKS:;

//---------------dance-single - ----------------
#NOTES:
     dance-single:
     :
     Challenge:
     9:
     0.608,0.764,0.118,0.278,0.108,556.000,17.000,40.000,0.000,0.000,0.000,0.608,0.764,0.118,0.278,0.108,556.000,17.000,40.000,0.000,0.000,0.000: // measure 0
0000
0000
0000
0000
,  // measure 1
0000
0000
0000
0000
,  // measure 2
0000
0000
0000
0000
,  // measure 3
0000
0000
0000
0000
0000
0000
1000
0100
,  // measure 4
0010
0100
1000
0001
,  // measure 5
0100
1000
0100
0010
,  // measure 6
0010
1000
1000
0010
,  // measure 7
0200
0000
0301
0000
,  // measure 8
1000
0100
0010
0001
,  // measure 9
0100
0010
0100
0001
,  // measure 10
0010
0001
0100
0001
,  // measure 11
0010
0000
0100
0000
0100
0000
1000
0001
,  // measure 12
0010
0100
1000
0001
,  // measure 13
0100
0010
0001
0010
,  // measure 14
0100
0010
1000
0001
,  // measure 15
0010
0000
0100
0000
1000
0010
0100
0001
,  // measure 16
0001
0100
0010
0100
0001
0000
1000
0000
,  // measure 17
0100
0010
0100
1000
0010
0000
0100
0000
,  // measure 18
0001
0100
1000
0100
0001
0100
1000
0100
,  // measure 19
0001
0100
1000
0100
0001
0010
0100
1000
,  // measure 20
1000
0100
0001
0100
1000
0100
0001
0100
,  // measure 21
1000
0010
0000
0100
2000
0000
0000
0000
,  // measure 22
3200
0000
0301
0200
0000
0310
0200
0000
,  // measure 23
0310
0100
0100
0010
1000
0010
0100
0010
,  // measure 24
2000
0000
3001
2000
0000
3010
2000
0000
,  // measure 25
3001
0010
0010
0100
0010
0010
0100
1000
,  // measure 26
0020
0000
0130
0020
0000
1030
0020
0000
,  // measure 27
0130
0001
0001
0010
0100
0100
0010
0100
,  // measure 28
0002
0000
0103
0010
0000
0100
1000
0100
,  // measure 29
1000
0000
0010
0000
0100
0000
0010
0000
0100
0000
0001
1000
0001
0000
1000
0000
,  // measure 30
0100
0000
0000
0010
0010
0010
0010
0010
,  // measure 31
0010
0001
1000
0010
0100
0001
0010
0100
,  // measure 32
1000
0000
0000
0000
0000
0000
0010
0000
0010
0000
0010
0000
0010
0000
0100
0010
,  // measure 33
0100
0100
0001
1000
0010
0100
0001
0010
,  // measure 34
0100
0000
0000
0000
0000
0000
0010
0000
0010
0000
0010
0000
0010
0000
0001
0010
,  // measure 35
0001
0001
1000
0010
0010
0100
1000
0100
,  // measure 36
0020
0000
0000
0000
1030
0000
0100
0000
0000
0000
1000
0000
0010
0000
0100
0010
,  // measure 37
0100
0001
0010
0001
0010
0100
0010
0100
,  // measure 38
2000
0000
0000
3010
0000
1000
1010
0000
,  // measure 39
0010
0000
1100
0000
1000
0100
0010
0001
,  // measure 40
0002
0000
0000
0103
0000
0100
0101
0000
,  // measure 41
0100
0000
0110
0000
0010
1000
0001
0010
,  // measure 42
0020
0000
0000
0130
0000
0100
0011
0000
,  // measure 43
0001
0000
1001
0000
1000
0010
0100
0010
,  // measure 44
0020
0000
0000
0130
0000
0100
0110
0000
,  // measure 45
1000
0000
1010
0000
0010
0100
1000
0100
,  // measure 46
0200
0000
0000
0310
0000
0010
0110
0000
,  // measure 47
0100
0000
1001
0000
0010
0001
0010
0100
,  // measure 48
0200
0000
0000
0310
0000
0010
0011
0000
,  // measure 49
0001
0000
1010
0000
1000
0010
0100
0001
,  // measure 50
0002
0000
0000
0103
0000
0100
0110
0000
,  // measure 51
0100
0000
0101
0000
0001
0100
0010
1000
,  // measure 52
2000
0000
0000
3100
0000
0100
0001
0000
,  // measure 53
0100
0000
1000
0100
1000
0000
0010
1000
0010
0000
0100
0010
0100
0000
0001
0000
,  // measure 54
1000
0000
0002
0013
0000
0200
1300
0000
,  // measure 55
0020
0130
0000
0200
0301
0000
0200
1300
,  // measure 56
0000
0000
0200
0301
0000
2000
3010
0000
,  // measure 57
0200
0301
0000
2000
3100
0000
0002
0103
,  // measure 58
0000
0000
2000
3010
0000
0200
0310
0000
,  // measure 59
0200
0301
0000
0002
0013
0000
0020
0130
,  // measure 60
1000
0010
0200
0310
0000
0200
1300
0000
,  // measure 61
0200
0301
0000
0020
0130
0010
0100
0000
,  // measure 62
1000
0010
0100
0001
0010
0100
1000
0010
,  // measure 63
0100
0001
0010
0100
1000
0010
0001
0010
,  // measure 64
1000
1000
0100
0010
0001
0100
0010
1000
,  // measure 65
0010
0100
0001
1000
0001
0010
1000
0010
,  // measure 66
0001
0001
0100
0010
0010
1000
0010
0100
,  // measure 67
0100
0001
0010
0001
1000
0010
0001
0010
,  // measure 68
1000
0100
0010
0100
0010
0001
1000
0010
,  // measure 69
0110
0000
0000
0000
,  // measure 70
1001
0000
0000
0001
0000
0000
0100
0000
0000
0010
1000
0010
0100
0000
0000
0001
0000
0000
0010
0000
0000
0001
0010
0100
,  // measure 71
1000
0000
0000
0000
0000
0000
0001
0000
0000
0000
0000
0000
0100
0000
0000
0000
0000
0000
0010
0000
1000
0000
0001
0000
0010
0000
0000
0000
0000
0000
0000
0000
0000
0001
0000
0000
1000
0000
0000
0000
0000
0000
0100
0000
0010
0000
0100
0000
,  // measure 72
0010
0000
0000
0001
0000
0000
1000
0000
0000
0010
0100
0010
1000
0000
0000
0010
0000
0000
0100
0000
0000
0001
0100
0010
,  // measure 73
1000
0000
0000
0000
0000
0000
0100
0000
0000
0000
0000
0000
0010
0000
0000
0000
0000
0000
0001
0000
0010
0000
0001
0000
0010
0000
0000
0000
0000
0000
0001
0000
0000
0010
0000
0000
0001
0000
0000
0000
0000
0000
0100
0000
0000
0000
0000
0000
,  // measure 74
0010
1000
0100
0010
0100
1000
0010
0001
,  // measure 75
0010
0000
0000
0000
0000
0000
1000
0000
0000
0000
0000
0000
0010
0000
0000
0000
0000
0000
1000
0000
0010
0000
1000
0000
0001
0000
0000
0000
0000
0000
0000
0000
0000
0010
0000
0000
0100
0000
0000
0000
0000
0000
0010
0000
0000
0001
0000
0000
,  // measure 76
0010
0100
1000
0010
0100
1000
0100
0010
,  // measure 77
1000
0000
0100
0000
0010
0000
0001
0000
0010
0000
0001
0010
0100
0000
1000
0000
,  // measure 78
0010
0100
0010
1000
1000
0100
0010
0010
,  // measure 79
0001
0100
0100
0010
1000
0100
0001
0100
,  // measure 80
1000
0000
1000
0000
0001
0000
0100
0000
0100
0000
0010
0000
0100
0000
0010
0100
,  // measure 81
0010
1000
0001
0010
0010
0001
0100
0010
,  // measure 82
1000
0000
1000
0000
0010
0000
0100
0000
0100
0000
0001
0000
0010
0000
0001
0010
,  // measure 83
0001
1000
0001
1000
0010
0001
0010
1000
,  // measure 84
0100
0000
0100
0000
0010
0000
0100
0000
0100
0000
1000
0000
0010
0000
1000
0010
,  // measure 85
1000
0100
0100
0010
0100
1000
0001
0100
,  // measure 86
0010
0010
0100
0001
0001
0010
0100
0100
,  // measure 87
1000
0010
0010
0100
0001
0010
0100
0001
,  // measure 88
0101
0000
0000
0000
;

//---------------dance-single - ----------------
#NOTES:
     dance-single:
     :
     Hard:
     7:
     0.483,0.519,0.035,0.180,0.021,456.000,5.000,26.000,0.000,0.000,0.000,0.483,0.519,0.035,0.180,0.021,456.000,5.000,26.000,0.000,0.000,0.000:
0000
0000
0000
0000
,
0000
0000
0000
0000
,
0000
0000
0000
0000
,
0000
0000
0000
0000
0000
0000
0001
1000
,
0001
0000
0000
0000
,
0010
0000
0000
0100
,
1000
0000
0010
0000
,
0100
0000
0000
0000
,
0001
1000
0010
0100
,
0001
0010
0100
0010
,
0001
1000
1000
0001
,
0010
0000
0100
0000
0100
0000
0010
0001
,
1000
0010
0100
0010
,
0010
0100
0001
1000
,
0100
0010
0001
0010
,
0100
0000
0010
0000
0001
0100
0010
0000
,
0100
0010
0100
0000
1000
0000
0100
0000
,
0010
0100
0010
0000
1000
0000
0100
0000
,
0010
0001
0100
0000
0001
1000
0000
0010
,
1000
0000
0001
0100
0000
0010
0100
0010
,
1000
0001
0100
0000
0001
1000
0000
0000
,
1000
0100
0000
0010
0001
0000
0000
0000
,
2000
0000
0000
3020
0000
0000
0230
0000
,
0301
0010
0001
0010
0001
1000
0010
1000
,
0020
0000
0000
0230
0000
0000
0302
0000
,
1003
0100
1000
0100
0010
0001
0010
0001
,
0200
0000
0000
0320
0000
0000
2030
0000
,
3010
0100
0010
0100
0001
1000
0001
1000
,
0100
0000
0010
0001
0000
1000
0100
0000
,
0010
0001
0000
1000
0010
0000
0100
0000
,
0002
0000
0000
0203
0000
0000
2300
0000
,
3100
0010
0100
0010
1000
0001
1000
0001
,
0020
0000
0000
0230
0000
0000
2300
0000
,
3001
0100
0010
0100
0001
1000
0100
0010
,
0002
0000
0000
0023
0000
0000
2030
0000
,
3010
0001
0010
0001
0100
0010
0100
0010
,
1000
0000
0010
0100
0000
0100
0001
0000
,
0001
0010
0100
1000
0001
0100
0010
1000
,
0020
0000
0000
0130
0000
0100
0010
0000
,
1000
0000
0100
0000
0000
0010
0100
0000
,
0020
0000
0000
0031
0000
0001
0100
0000
,
0010
0000
0100
0010
0000
1000
0010
0100
,
0002
0000
0000
0013
0000
0010
0100
0000
,
0010
0100
0010
0000
0100
1000
0100
0000
,
0020
0000
0000
0031
0000
0001
0100
0000
,
0100
0010
0100
0000
0010
0100
0010
0000
,
2000
0000
0000
3001
0000
1000
0100
0000
,
0000
0001
0100
0000
1000
0000
1000
0000
,
0200
0000
0000
0310
0000
0001
1000
0000
,
0000
0010
0000
0000
0100
0010
0100
0000
,
0002
0000
0000
1003
0000
1000
0100
0000
,
0010
0000
0001
0000
1000
0010
0100
0000
,
0020
0000
0000
0130
0000
0100
0001
0000
,
0010
0000
0100
0010
0001
1000
0010
0100
,
0010
0000
1000
0100
0000
0001
0100
0000
,
1000
0001
0000
0001
1000
0000
1001
0000
,
0001
0000
0100
1000
0000
0100
0001
0000
,
0010
0100
0000
0100
1000
0000
1010
0000
,
0010
0000
0100
1000
0000
0100
0001
0000
,
0100
0010
0000
0010
1000
0000
1100
0000
,
0100
0000
0100
0001
0000
0100
1000
0000
,
1000
0010
0000
0100
0001
0000
1001
0000
,
1000
0001
0010
0000
0010
0100
0000
0100
,
1000
0000
0010
0100
0000
0010
1000
0001
,
0010
0100
0010
0000
0100
1000
0000
0100
,
0010
0000
0100
0001
0000
0100
0010
0001
,
1000
0010
1000
0000
1000
0010
0000
0010
,
0100
0000
0100
0001
0000
0001
1000
0001
,
0010
0100
1000
0010
0100
0001
0100
1000
,
0100
0000
0000
0000
,
0010
1000
0100
0010
0100
1000
0010
0100
,
1000
0000
0100
0000
0010
0000
1000
0000
0001
0000
0000
0010
0100
0000
1000
0100
,
1000
0100
0010
0001
0010
1000
0010
0001
,
1000
0000
0100
0000
0010
0000
0001
0000
1000
0000
0010
0100
0010
0000
0100
0000
,
0010
0100
0001
0010
0100
0001
0100
0010
,
0001
0000
1000
0000
0010
0000
0100
0000
0010
0000
0000
1000
0010
0000
1000
0001
,
0010
0100
1000
0001
0100
1000
0001
0010
,
1000
0000
0100
0000
0010
0000
0001
0000
0010
0000
0001
0010
0001
0000
1000
0000
,
0001
0100
0010
0000
1000
0010
0000
0100
,
0001
0000
0010
0001
1000
0100
0001
0100
,
1000
0010
0100
0000
0010
0100
0000
0010
,
1000
0000
0001
0010
1000
0010
0001
0010
,
0100
0010
0100
0000
0100
1000
0000
1000
,
0010
0000
0100
0001
1000
0010
0001
0010
,
1000
0100
0010
0000
0001
0010
0000
0001
,
1000
0000
0001
1000
0001
0100
1000
0100
,
0001
1000
0010
0000
0100
0010
0000
1000
,
0001
0010
0100
0010
0001
1000
0010
0100
,
0110
0000
0000
0000
;

//---------------dance-single - ----------------
#NOTES:
     dance-single:
     :
     Medium:
     5:
     0.359,0.428,0.174,0.056,0.000,329.000,25.000,8.000,0.000,0.000,0.000,0.359,0.428,0.174,0.056,0.000,329.000,25.000,8.000,0.000,0.000,0.000:
0000
0000
0000
0000
,
0000
0000
0000
0000
,
0000
0000
0000
0000
,
0000
0000
0000
0000
,
1000
0000
0000
0000
,
0100
0000
0000
0000
,
0010
0000
0000
0000
,
0001
0000
0000
0000
,
0001
1000
0001
1000
,
0100
0010
0100
0010
,
0001
0100
0010
0100
,
0001
0010
0100
0010
,
0001
0100
0010
1000
,
0010
0100
0001
0100
,
0010
1000
0100
0010
,
0001
0010
0100
1000
,
0010
0100
0001
0100
,
0010
1000
0010
0100
,
0010
0010
0100
0100
,
0001
0001
0010
0010
,
0100
0100
1000
1000
,
0010
0000
1010
0000
,
1001
0000
0000
1001
0000
0000
1001
0000
,
1000
0010
1000
0010
,
0110
0000
0000
0110
0000
0000
0110
0000
,
0100
0001
0000
0000
0010
0000
0100
0000
,
1100
0000
0000
1100
0000
0000
1100
0000
,
1000
0100
0010
0001
,
0011
0000
0000
0001
0000
0000
0100
0000
,
0001
0100
0010
0100
,
0101
0000
0000
0101
0000
0000
0101
0000
,
0100
0001
0010
0100
,
0110
0000
0000
0110
0000
0000
0110
0000
,
0100
1000
0010
0100
,
1010
0000
0000
1010
0000
0000
1010
0000
,
1000
0010
0100
0001
,
0011
0000
0000
0010
0000
0000
0100
0000
,
1000
0100
0001
0100
,
1000
0000
0000
1000
0000
0000
1000
0000
,
0000
0010
0100
0001
,
0001
0000
0000
0001
0000
0000
0001
0000
,
0010
0000
0100
1000
0000
0000
1000
0000
,
0010
0000
0000
0010
0000
0000
0010
0000
,
0100
0100
0001
0010
,
0100
0000
0000
0100
0000
0000
0100
0000
,
1000
0010
0001
0010
,
1000
0000
0000
1000
0000
0000
1000
0000
,
0001
0100
0001
0001
,
0010
0000
0000
0010
0000
0000
0010
0000
,
0100
1000
0001
0100
,
0001
0000
0000
0001
0000
0000
0001
0000
,
0100
1000
0100
0001
,
0100
0000
0000
0100
0000
0000
0100
0000
,
0010
1000
0001
0100
,
0002
0000
0000
0010
0000
0000
0010
0000
,
0023
0100
0000
0100
,
0230
0000
0000
1000
0000
0000
1000
0000
,
2300
0010
0000
0010
,
3020
0000
0000
0001
0000
0000
0001
0000
,
0230
1000
0000
1000
,
0320
0000
0000
1000
0000
0000
0100
0000
,
0230
0001
0001
0301
,
0101
0001
0010
0100
,
1000
0000
0100
0000
0010
0001
0010
0001
,
0010
0001
1000
0010
,
0100
0000
0010
0000
1000
0001
1000
0001
,
1000
0100
0001
0100
,
1000
0000
0010
0000
0100
0010
0100
0010
,
0100
0000
0010
0000
0100
0000
0001
1000
,
0001
0000
0000
0000
,
1000
0100
0010
0000
0001
0010
0100
1000
,
1000
0010
0100
0001
0010
0000
1001
0000
,
1000
0000
0010
0000
0100
0010
0100
0000
,
0001
0010
0100
0010
0001
0000
0110
0000
,
1000
0010
0100
0100
0001
0100
0010
0000
,
0100
0001
1000
0001
1000
0000
0110
0000
,
0001
0100
1000
0100
0001
0000
0010
0000
,
0001
0100
0010
1000
0100
0000
0010
0000
,
0001
0100
0010
1000
,
0001
0000
0010
0000
0100
0010
0100
0010
,
0100
0010
0001
1000
,
0010
0000
0100
0000
0010
0100
0010
0100
,
0010
1000
0100
0010
,
0001
0000
1000
0000
0100
0010
0100
0010
,
0100
1000
0010
0100
,
0001
0000
1000
0000
0001
1000
0001
1000
,
0001
0100
1000
0100
,
0001
0000
0010
0000
0100
0000
1000
0100
,
0010
0000
0000
0000
;

//---------------dance-single - ----------------
#NOTES:
     dance-single:
     :
     Easy:
     3:
     0.232,0.305,0.014,0.000,0.000,232.000,2.000,0.000,0.000,0.000,0.000,0.232,0.305,0.014,0.000,0.000,232.000,2.000,0.000,0.000,0.000,0.000:
0000
0000
0000
0000
,
0000
0000
0000
0000
,
0000
0000
0000
0000
,
0000
0000
0000
0000
,
0001
0000
0000
0000
,
0100
0000
0000
0000
,
0010
0000
0000
0000
,
1000
0000
0000
0000
,
1000
0100
0000
0100
,
0010
0000
0000
0001
,
0010
0000
0000
0010
,
0100
0000
0000
0000
,
1000
0000
0000
0000
,
0001
0000
0000
0000
,
1000
0000
0000
0000
,
1000
0010
1000
0010
,
0100
0000
0100
0000
,
0010
0000
0100
0010
,
0100
0001
0010
0001
,
0010
0100
0010
0100
,
1000
0010
0100
0001
,
0010
0000
0000
0000
,
0001
0000
0000
0001
0000
0000
0001
0000
,
0100
0010
0100
0100
,
0010
0000
0000
0010
0000
0000
0010
0000
,
0100
0001
0100
0100
,
1000
0000
0000
1000
0000
0000
1000
0000
,
0100
0010
0100
0100
,
0001
0000
0010
0000
,
0100
0000
1000
0000
,
0100
0000
0000
0100
0000
0000
0100
0000
,
0010
0100
0010
0001
,
1000
0000
0000
0010
0000
0000
0100
0000
,
0001
1000
0001
1000
,
0100
0000
0000
0010
0000
0000
0001
0000
,
0100
0010
0100
0010
,
1000
0000
0100
0000
,
0010
0000
0001
0000
,
1000
0000
0000
0010
0000
0000
1000
0000
,
0000
0000
0000
0000
,
1000
0000
0000
0100
0000
0000
1000
0000
,
0000
0000
0000
0000
,
0001
0000
0000
0010
0000
0000
0100
0000
,
0000
0000
0000
0000
,
0001
0000
0000
0010
0000
0000
0100
0000
,
0000
0000
0000
0000
,
0010
0000
0000
0100
0000
0000
1000
0000
,
0000
0000
0000
0000
,
0010
0000
0000
0100
0000
0000
1000
0000
,
0000
0000
0000
0000
,
0001
0000
0000
0010
0000
0000
1000
0000
,
0000
0000
0000
0000
,
0001
0000
0000
0010
0000
0000
1000
0000
,
0000
0000
0000
0000
,
0001
0000
0000
1000
0000
0000
0010
0000
,
0100
0000
0010
0000
,
1000
0000
0000
0100
0000
0000
0010
0000
,
0001
0000
0010
0000
,
0100
0000
0000
1000
0000
0000
0001
0000
,
0100
0000
0010
0000
,
0100
0000
0000
1000
0000
0000
0100
0000
,
0010
1000
0010
0100
,
0001
0000
0010
0000
0000
0010
0000
0000
,
0010
0000
0000
0100
0000
0000
1000
0000
,
0100
0000
0010
0000
0000
0010
0000
0000
,
0010
0001
1000
0010
,
0100
0000
0001
0000
0000
0001
0000
0000
,
0001
0000
0000
0100
0000
0000
0010
0000
,
1000
0100
0000
0010
,
0001
0000
1001
0000
,
1001
0000
0000
0001
0100
0000
0000
0100
,
0010
0000
0000
1000
0100
0000
0000
0001
,
0100
0000
0000
0010
0100
0000
0000
1000
,
0001
0100
0010
1000
,
0100
0000
0000
0001
0100
0000
0000
0010
,
0100
0000
0000
1000
0100
0000
0000
1000
,
0010
0100
0001
1000
,
0010
0100
0010
0100
0001
0000
0010
0000
,
0100
0010
0001
0010
,
0100
0010
0001
1000
,
0010
1000
0100
1000
,
0010
1000
0100
1000
,
0010
0100
0001
0010
,
0001
0010
0100
0010
,
0100
0001
0100
0010
,
0100
1000
0100
0010
,
0001
0100
0010
0100
,
1000
0100
0010
0100
,
0001
0000
0000
0000
;

//---------------dance-single - ----------------
#NOTES:
     dance-single:
     :
     Beginner:
     1:
     0.229,0.244,0.028,0.000,0.000,227.000,4.000,0.000,0.000,0.000,0.000,0.229,0.244,0.028,0.000,0.000,227.000,4.000,0.000,0.000,0.000,0.000:
0000
0000
0000
0000
,
0000
0000
0000
0000
,
0000
0000
0000
0000
,
0000
0000
0000
0000
,
1000
0000
0000
0000
,
0010
0000
0000
0000
,
1000
0000
0000
0000
,
0100
0000
0000
0000
,
0010
0000
0001
0000
,
0100
0000
0001
0000
,
0010
0000
0100
0000
,
1000
0000
0010
0000
,
1000
0000
0001
0000
,
1000
0000
0100
0000
,
0010
0000
0001
0000
,
0100
0000
0010
0000
,
0100
0000
1000
0000
,
0100
0000
0010
0000
,
0100
0001
0100
0001
,
0100
0010
0100
0010
,
1000
0100
1000
0100
,
1000
0000
0000
0000
,
0001
0000
1000
0000
,
0001
0000
0100
0100
,
0001
0000
0010
0000
,
0100
0000
0100
0100
,
1000
0000
1000
0000
,
0010
0000
0100
0100
,
0001
0000
1000
0000
,
0010
0000
0100
0000
,
0010
0000
0010
0000
,
1000
0000
1000
1000
,
0001
0000
0010
0000
,
0100
0000
0010
0010
,
0100
0000
1000
0000
,
0010
0000
0100
0100
,
0001
0000
0010
0000
,
0100
0000
1000
0000
,
0010
0000
0100
0000
,
0001
0000
0100
0001
,
0100
0000
0010
0000
,
1000
0000
0010
1000
,
0010
0000
0100
0000
,
0001
0000
0001
0010
,
0100
0000
0100
0000
,
0010
0000
0001
0010
,
0100
0000
1000
0000
,
0010
0000
1000
0010
,
0100
0000
0100
0000
,
0010
0000
1000
0010
,
0100
0000
0001
0000
,
1000
0000
1000
0100
,
0001
0000
0100
0000
,
1000
0000
0010
0000
,
0100
0001
0100
0010
,
0100
0000
0001
0000
,
1000
0100
1000
0010
,
1000
0000
0001
0000
,
0010
0100
0010
0001
,
1000
0000
0010
0000
,
0100
1000
0100
0010
,
0100
0000
0001
0000
,
0010
0001
0100
0001
,
0010
0001
0100
0001
,
0010
0100
1000
0100
,
1000
0010
1000
0100
,
1000
0010
0100
0001
,
0100
0010
0100
0010
,
0100
0010
0100
0001
,
0010
0000
0000
0000
,
0001
0010
1000
0010
,
0001
0100
1000
0001
,
0100
1000
0010
1000
,
0010
0100
0001
0010
,
0100
1000
0010
0100
,
0001
0100
1000
0001
,
0010
1000
0001
0010
,
0100
0010
0001
1000
,
0010
0100
0010
0000
,
0010
0000
0100
0000
,
0001
1000
0001
0000
,
0001
1000
0001
0000
,
0001
0000
1010
0000
,
1000
0010
1000
0000
,
1000
0010
1000
0000
,
1000
0000
0011
0000
,
0001
0010
0001
0010
,
0001
0000
0101
0000
,
0110
0000
0000
0000
;
