#TITLE:GALGALIM;
#SUBTITLE:;
#ARTIST:L.E.D.;
#TITLETRANSLIT:;
#SUBTITLETRANSLIT:;
#ARTISTTRANSLIT:;
#GENRE:;
#CREDIT:;
#MENUCOLOR:;
#METERTYPE:DDR;
#BANNER:GALGALIM.png;
#BACKGROUND:GALGALIM-bg.png;
#LYRICSPATH:;
#CDTITLE:./CDTITLES/BEATMANIA IIDX.PNG;
#MUSIC:GALGALIM.mp3;
#OFFSET:-0.113;
#SAMPLESTART:69.924;
#SAMPLELENGTH:15.000;
#SELECTABLE:YES;
#LISTSORT:;
#BPMS:0.000=165.000;
#STOPS:;
#BGCHANGES:;
#ATTACKS:;

//---------------dance-single - ----------------
#NOTES:
     dance-single:
     :
     Beginner:
     1:
     0.123,0.159,0.097,0.000,0.000:
0000
0000
0000
0000
,
0000
0000
0000
0000
,
0000
0000
0000
0000
,
0000
0000
0000
0000
,
1000
0000
0000
0000
,
0001
0000
0000
0000
,
0010
0000
0000
0000
,
0100
0000
0000
0000
,
0000
1000
0000
1000
,
0000
1000
0000
0000
,
0000
0001
0000
0001
,
0000
0001
0000
0000
,
0000
0010
0000
0010
,
0000
0010
0000
0000
,
0000
0100
0000
0100
,
0000
0000
1001
0000
,
1000
0000
0000
0000
,
0001
0000
0001
0000
,
1000
0000
0000
0000
,
0010
0000
0010
0000
,
0100
0000
0000
0000
,
0001
0000
0001
0000
,
1000
0000
0000
0000
,
1000
0000
0000
0000
,
1001
0000
1000
0000
,
1000
0000
0000
0000
,
0001
0000
0001
0000
,
0001
0000
0000
0000
,
0010
0000
0010
0000
,
0010
0000
0000
0000
,
0100
0000
0100
0000
,
0100
0000
0000
0000
,
1001
0000
0000
0000
,
1000
0000
0000
0000
,
0001
0000
0000
0000
,
0010
0000
0000
0000
,
1001
0000
0000
0000
,
1000
0000
0000
0000
,
0010
0000
0000
0000
,
0100
0000
0100
0000
,
1001
0000
0000
0000
,
0000
0000
0000
0000
,
0000
0000
0000
0000
,
0000
0000
0000
0000
,
1000
0000
0000
0000
,
0001
0000
0000
0000
,
0010
0000
0000
0000
,
0100
0000
0000
0000
,
1001
0000
0000
0000
,
1000
0000
0000
0000
,
0001
0000
0001
0000
,
0001
0000
0000
0000
,
0110
0000
0000
0000
,
0010
0000
0000
0000
,
0100
0000
0100
0000
,
0010
0000
0000
0000
,
1001
0000
0000
0000
,
1000
0000
0000
0000
,
0001
0000
0000
0000
,
1000
0000
0000
0000
,
0110
0000
0000
0000
,
0010
0000
0000
0000
,
0001
0000
0000
0000
,
1000
0000
0000
0000
,
0100
0000
0000
0000
,
0100
0100
0100
0000
,
0000
0000
0000
0000
,
0010
0010
0010
0000
,
1001
0000
0000
0000
,
1000
1000
1000
0000
,
0000
0000
0000
0000
,
0001
0001
0001
0000
,
1001
0000
0000
0000
;

//---------------dance-single - ----------------
#NOTES:
     dance-single:
     :
     Easy:
     3:
     0.244,0.297,0.186,0.212,0.000:
0000
0000
0000
0000
,
0000
0000
0000
0000
,
0000
0000
0000
0000
,
0000
0000
0000
0000
,
0010
0000
1000
0000
,
0001
0000
0100
0000
,
0001
0001
1000
1000
,
0020
0000
0000
0030
,
1000
0000
0001
0000
,
1000
0000
0100
0100
,
0010
0000
0001
0000
,
1000
0000
0001
0001
,
0100
0000
0010
0000
,
1000
0000
0001
0001
,
1000
0000
0001
0000
,
0110
0000
1001
0000
,
2000
0000
0000
3000
,
0010
0010
0010
0000
,
0200
0000
0000
0300
,
0001
0001
0001
0000
,
2002
0000
0000
3003
,
0010
0010
0010
0000
,
0200
0000
0000
0300
,
1000
0000
0001
0000
,
1001
0000
0020
0030
,
2000
0000
0000
3000
,
1001
0000
0020
0030
,
0002
0000
0000
0003
,
1001
0000
0020
0030
,
0200
0000
0000
0300
,
1001
0000
0200
0300
,
0010
0000
0110
0000
,
1001
0000
0100
0100
,
0001
0000
0001
0000
,
1001
0000
0100
0100
,
1000
0000
1000
0000
,
1001
0000
0010
0010
,
0100
0000
0100
0000
,
1001
0000
0100
0100
,
0010
0000
0010
0000
,
2002
0000
0000
0000
,
0000
0000
0000
0000
,
3003
0000
0000
0000
,
0000
0000
0000
0000
,
0100
0000
0000
0000
,
1010
0000
0000
0000
,
0100
0000
0000
0000
,
0022
0000
0000
0033
,
2000
0000
0000
3000
,
0002
0000
0000
0003
,
0100
0100
0100
0100
,
0010
0000
0010
0000
,
2002
0000
0000
3003
,
2000
0000
0000
3000
,
0001
0001
0001
0001
,
1000
0000
0001
0000
,
1001
0000
0100
0100
,
0010
0000
1000
1000
,
0001
0000
0010
0010
,
0100
0000
1000
0100
,
0110
0000
0010
0001
,
1000
0000
0001
1000
,
0100
0000
1000
0010
,
0100
0100
0010
0100
,
1001
0000
0001
1000
,
0001
0000
1000
0100
,
0010
0000
0001
0100
,
0010
0000
0100
0100
,
1001
0000
0010
1000
,
0001
0000
1000
0100
,
0010
0000
0001
0100
,
0010
0010
0100
0100
,
2002
0000
0000
0000
,
0000
0000
0000
0000
,
0000
0000
0000
3003
;

//---------------dance-single - ----------------
#NOTES:
     dance-single:
     :
     Medium:
     6:
     0.409,0.463,0.212,0.150,0.071:
0000
0000
0000
0000
,
0000
0000
0000
0000
,
0000
0000
0000
0000
,
0000
0000
0000
0000
,
0010
0010
0010
0010
,
0100
0100
0100
0100
,
0001
0000
1000
0000
0001
1000
0001
1000
,
0020
0000
0000
0030
,
1000
0100
0010
0001
,
1000
0000
0000
1000
0000
0000
1000
0000
0100
0000
0000
0000
0100
0000
0000
0000
,
1000
0100
0010
0001
,
1000
0000
0000
1000
0010
0000
0010
0000
,
1001
0010
0100
1000
,
0001
0000
0000
0001
0000
0000
0001
0000
0100
0000
0000
0000
0100
0000
0000
0000
,
0001
0010
0100
1000
,
0001
0000
0000
1000
0000
0000
0001
0000
0010
0000
0000
0000
0000
0000
0000
0000
,
1001
0000
0000
0100
0000
0100
0000
0000
,
0010
0000
1000
0000
0001
1000
0001
0000
,
1001
0000
0000
0100
0000
0100
0000
0000
,
0010
0000
0001
0000
1000
0001
1000
0000
,
1001
0000
0000
0010
0000
1000
0000
0000
,
1000
0000
0001
0000
0010
0001
1000
0000
,
0100
0010
0000
0010
0000
0110
0000
0000
,
2002
0000
0000
3003
,
0110
0000
0001
0100
0001
0000
1000
0100
,
2000
0010
0000
3010
,
1001
0000
1000
0100
1000
0000
0001
0100
,
0002
0010
0000
0013
,
0101
0000
1000
0001
0100
0000
0001
1000
,
0200
1000
0000
0310
,
1100
0000
0001
1000
0100
0000
1000
0001
,
0010
0000
1001
0000
,
0100
0000
0100
0010
0000
0010
1000
0000
,
0001
0000
0010
0001
0000
0001
1000
0000
,
0100
0000
0010
0100
0000
0100
1000
0000
,
0001
0000
0000
0000
0100
0100
0100
0000
,
1001
0000
1000
0100
0000
0010
0001
0000
,
0100
0000
0001
0100
0000
0010
1000
0000
,
0110
0000
0010
1000
0000
0001
0010
0000
,
1001
0000
1000
0000
0010
0010
0010
0000
,
2002
0000
0000
0000
,
0000
0000
0000
0000
,
3003
0000
0000
0000
,
0000
0000
0000
0000
,
0100
0100
0100
0100
,
1001
0010
0010
0010
,
1001
0100
0100
0100
,
0002
0000
0000
1003
,
0020
0100
0000
0130
,
2000
0001
0000
3001
,
0100
0000
0000
0100
0000
0000
0100
0000
0001
0000
0000
0000
0001
0000
0000
0000
,
1000
0000
0000
1000
0000
0000
1000
0000
0010
0000
0000
0000
0010
0000
0000
0000
,
2000
0100
0000
3100
,
0002
0010
0000
0013
,
1000
0000
0000
0001
0000
0000
0100
0000
0010
0000
0000
0000
0010
0000
0000
0000
,
1000
0000
0000
0001
0000
0000
2002
0000
0000
0000
0000
0000
3003
0000
0000
0000
,
1001
0000
0001
0010
0000
0010
0001
0000
,
1000
0000
0010
1000
0000
1000
0001
0000
,
0100
0000
0000
0100
0000
0000
0010
0000
0100
0000
0000
0000
0100
0000
0000
0000
,
0001
0000
0000
0001
0000
0000
1000
0000
0001
0000
0000
0000
1000
0000
0000
0000
,
1001
0000
0010
1000
0000
0001
0010
0000
,
0001
0000
0100
0001
0000
1000
0100
0000
,
0010
0000
0000
0010
0000
0000
0100
0000
1000
0000
0000
0000
1100
0000
0000
0000
,
0001
0000
0000
1000
0000
0000
0001
0000
0000
1001
0000
0000
0001
0000
0100
0000
,
0010
0000
0000
0010
0000
0000
1000
0000
0010
0000
0000
0000
0010
0000
0000
0000
,
1000
0100
0010
0000
0001
0100
0010
0000
,
0100
0000
0000
0100
0000
0000
0001
0000
0100
0000
0000
0000
0100
0000
0000
0000
,
0010
1000
0100
0000
0010
0001
0100
0000
,
1001
0000
0000
0001
0000
0000
1000
0000
0001
0000
0000
0000
0001
0000
0000
0000
,
1000
0010
1000
0000
0001
0010
0001
0000
,
1000
0000
0000
0100
0000
0000
0010
0000
0100
0000
0000
0000
0100
0000
0000
0000
,
1000
0100
0010
0000
0001
0100
0010
0000
,
2002
0000
0000
0000
,
0000
0000
0000
0000
,
0000
0000
0000
3003
;

//---------------dance-single - ----------------
#NOTES:
     dance-single:
     :
     Hard:
     8:
     0.584,0.628,0.221,0.106,0.309: // measure 1
0000
0000
0000
0000
,  // measure 2
0000
0000
0000
0000
,  // measure 3
0000
0000
0000
0000
,  // measure 4
0000
0000
0000
0000
,  // measure 5
0010
0000
0000
1000
0000
0000
0001
0000
0100
0000
0000
0001
0000
0000
0010
0000
,  // measure 6
0001
1000
0000
0000
1001
0000
0000
0000
0100
0000
0000
0100
0000
0000
0100
0000
,  // measure 7
1000
1000
0010
0010
0100
0100
0001
0001
,  // measure 8
1000
0001
0000
0000
1001
0000
0000
0000
0010
0000
0000
0010
0000
0000
0100
0000
,  // measure 9
0001
0000
0000
0010
0000
0000
0100
0000
1000
0000
0000
0010
0000
0000
0010
0000
,  // measure 10
0100
0000
0000
1001
0000
0000
0010
0000
0100
0000
0000
0100
0000
0000
0100
0000
,  // measure 11
0010
0000
0000
1000
0000
0000
0001
0000
0100
0000
0000
0001
0000
0000
0010
0000
,  // measure 12
0001
0000
0000
0001
0000
0000
1000
0000
0100
0000
0100
0000
0010
0000
0000
0000
,  // measure 13
1001
0000
0000
0010
0000
0000
1000
0000
0001
0000
0000
0100
0000
0000
0010
0000
,  // measure 14
1000
0000
0000
1010
0000
0000
0001
0000
1000
0000
0000
1000
0000
0000
1000
0000
,  // measure 15
0100
0000
0000
0010
0000
0000
0001
0000
1000
0000
0000
0010
0000
0000
0100
0000
,  // measure 16
1001
0000
0000
1001
0000
0000
0010
0000
1000
0001
0000
0001
0000
0000
1000
0000
,  // measure 17
1001
0000
1000
0100
0010
0100
1000
0000
,  // measure 18
0001
0000
0100
0000
0100
0000
0100
0000
0010
0000
0000
0100
0000
0000
0001
0000
,  // measure 19
1000
0000
0001
0100
0001
0010
0001
0000
,  // measure 20
1000
0000
0100
0000
0100
0000
0100
0000
0010
0000
0000
0100
0000
0000
1000
0000
,  // measure 21
1001
0000
0010
1000
0001
1000
0010
0000
,  // measure 22
0100
0000
0001
0000
0001
0000
0001
0000
0010
0000
0000
0001
0000
0000
0100
0000
,  // measure 23
0010
1000
0000
0001
1000
0010
0000
0100
,  // measure 24
2002
0000
0000
3003
,  // measure 25
1010
0000
0000
0010
1000
0000
0001
0000
1000
0000
0000
1000
0001
0000
1000
0000
,  // measure 26
0100
0000
0010
0000
0000
0010
0000
0000
0100
0000
0000
0010
0000
0000
0010
0000
,  // measure 27
0001
0000
0000
0001
1000
0000
0001
0000
0100
0000
0000
0100
0010
0000
1000
0000
,  // measure 28
0001
0000
1000
0000
0000
1000
0000
0000
0001
0000
0000
1000
0000
0000
0001
0000
,  // measure 29
1001
0000
0000
0010
0100
0000
0010
0000
1000
0000
0000
0001
0010
0000
0100
0000
,  // measure 30
1000
0000
0001
0000
0000
0010
0000
0000
0001
0000
0000
0001
0000
0000
1000
0000
,  // measure 31
0001
0000
0000
0001
0100
0000
0010
0000
1000
0000
0000
1000
0100
0000
0010
0000
,  // measure 32
0001
0000
0010
0000
0000
1001
0000
0000
0100
0000
0000
0101
0000
0000
1000
0000
,  // measure 33
0001
0000
0010
0001
0100
0001
0010
0000
,  // measure 34
0001
0000
1000
0100
0010
0100
1000
0010
,  // measure 35
1000
0000
0010
1000
0001
0100
0001
0000
,  // measure 36
0100
0100
0001
0010
0100
0100
0010
0001
,  // measure 37
1001
0000
0010
1000
0100
0001
0100
0000
,  // measure 38
1000
0000
0010
0001
0100
1000
0100
0001
,  // measure 39
0010
0000
1000
0100
0010
0001
0100
0000
,  // measure 40
0001
0001
0100
0100
0010
0010
1000
0001
,  // measure 41
2002
0000
0000
0000
,  // measure 42
0000
0000
0000
0000
,  // measure 43
3003
0000
0000
0000
,  // measure 44
0000
0000
0000
0000
,  // measure 45
0110
0000
0000
0010
0000
0000
0010
0000
0000
0010
0000
0000
1000
0000
0001
0000
,  // measure 46
1001
0000
0000
0001
0000
0000
0001
0000
0000
0001
0000
0000
1000
0000
0100
0000
,  // measure 47
0110
0000
0000
0010
0000
0000
0001
0000
0000
1000
0000
0000
0001
0000
0100
0000
,  // measure 48
0020
0000
0000
0100
0000
0000
0100
0000
0000
0130
0000
0000
0001
0000
1000
0000
,  // measure 49
0002
0010
0000
0013
,  // measure 50
0200
0000
1300
0000
0020
0000
1030
0010
,  // measure 51
0100
0000
0000
0100
0010
0000
0100
0000
0001
0000
0000
0001
0100
0000
0001
0000
,  // measure 52
1000
0000
0000
1000
0001
0000
1000
0000
0100
0000
0000
0100
0010
0000
0001
0000
,  // measure 53
2000
0010
0000
3010
,  // measure 54
0200
0000
0301
0000
2000
0000
3001
1000
,  // measure 55
0001
0000
0000
0001
0010
0000
0100
0000
1000
0000
0000
1000
0010
0000
1000
0000
,  // measure 56
0001
0000
0000
0110
0000
0000
1000
0000
0000
1001
0000
0000
1000
0000
0100
0000
,  // measure 57
0010
0000
0001
0100
1000
0100
0001
0000
,  // measure 58
1000
0000
1000
0100
0001
0100
1000
0010
,  // measure 59
0100
0000
0000
0100
0001
0000
0100
0000
0001
0000
0000
0001
0010
0000
0001
0000
,  // measure 60
1000
0000
0000
1000
0001
0000
1000
0000
0010
0000
0100
0000
0010
0000
0100
0000
,  // measure 61
0110
0000
1000
0010
0001
0010
1000
0000
,  // measure 62
0001
0000
0001
0010
1000
0010
0001
1000
,  // measure 63
0010
0000
0000
0010
0100
0000
0001
0000
1000
0000
0000
1000
0001
0000
1000
0000
,  // measure 64
0001
0000
0000
1010
0000
0000
0100
0000
0000
0011
0000
0000
0001
0000
1000
0000
,  // measure 65
0001
0000
0000
0001
0010
0000
0100
0000
0010
0000
0001
0000
0100
0000
0010
0000
,  // measure 66
1000
0100
0010
0100
1000
0001
0100
0010
,  // measure 67
0100
0000
0000
0100
0010
0000
1000
0000
0001
0000
0010
0000
0001
0000
1000
0000
,  // measure 68
0100
0010
0001
0100
0010
0100
0010
1000
,  // measure 69
1001
0000
0000
0010
1000
0000
0001
0000
0100
0000
0001
0000
1000
0000
0010
0000
,  // measure 70
1000
0001
1000
0100
0010
0100
1000
0010
,  // measure 71
0100
0000
0000
0001
0010
0000
0100
0000
0010
0000
0001
0000
1000
0000
0010
0000
,  // measure 72
0100
0000
0100
0000
0010
0000
0010
0000
1000
0000
0001
1000
0001
0000
0100
0010
,  // measure 73
0200
0000
0000
0000
,  // measure 74
0000
0000
0000
0000
,  // measure 75
0000
0000
0000
0300
;
