#TITLE:Flash Back 90's;
#SUBTITLE:;
#ARTIST:kors k as disconation;
#TITLETRANSLIT:;
#SUBTITLETRANSLIT:;
#ARTISTTRANSLIT:;
#GENRE:;
#CREDIT:TaroNuke;
#BANNER:90s.png;
#BACKGROUND:90s-bg.png;
#LYRICSPATH:;
#CDTITLE:;
#MUSIC:90s.ogg;
#OFFSET:-0.396;
#SAMPLESTART:25.171;
#SAMPLELENGTH:12.000;
#SELECTABLE:YES;
#BPMS:0.000=155.000
;
#STOPS:
;
#BGCHANGES:;
#KEYSOUNDS:;
#ATTACKS:;

//---------------dance-single - TaroNuke----------------
#NOTES:
     dance-single:
     TaroNuke:
     Hard:
     9:
     0.696,0.788,0.117,0.415,0.552,554.000,15.000,53.000,0.000,0.000,0.000,0.696,0.788,0.117,0.415,0.552,554.000,15.000,53.000,0.000,0.000,0.000: // measure 0
0000
0000
0000
0000
,  // measure 1
0000
0000
0000
0000
,  // measure 2
0000
0000
0000
0000
,  // measure 3
0000
0000
0000
0000
,  // measure 4
1000
0000
0000
0100
0000
0000
0010
0001
,  // measure 5
1000
0010
0000
0000
0000
0100
0001
1000
,  // measure 6
0100
1000
0001
0100
0010
1000
0001
0010
,  // measure 7
0001
1000
0100
1000
0010
0100
0001
1000
,  // measure 8
0100
1000
1100
0000
0001
0100
0101
0000
,  // measure 9
0001
0000
0010
0000
0011
0000
0000
0000
0001
0000
1000
0000
0000
0100
0000
0000
,  // measure 10
0010
0000
0000
0001
0000
0000
0100
0000
0010
0000
1000
0000
0010
0000
0100
0000
,  // measure 11
0001
0100
0001
1000
0100
1000
0001
0010
0100
1000
0100
0010
,  // measure 12
0001
0100
0000
0000
0100
1000
0000
0000
1000
0010
0000
0000
0010
0001
0000
0000
,  // measure 13
0001
0100
0010
1000
0010
0100
0001
0010
0100
1000
0100
0010
,  // measure 14
0001
0100
0010
1000
0100
0010
0001
0000
0000
0000
0000
0000
,  // measure 15
1000
0100
1000
0100
0000
0000
0010
0001
1000
0001
1000
0001
1000
0020
0000
0000
,  // measure 16
1030
0100
1000
0000
0001
0000
0100
0000
1000
0000
0100
0000
0001
0000
0010
0000
,  // measure 17
0001
0100
0001
0000
1000
0000
0100
0000
0001
0000
0100
0000
0020
0000
0030
0000
,  // measure 18
0001
0100
1000
0001
0010
1000
0200
0300
,  // measure 19
1000
0100
1000
0100
0010
0000
0001
0100
0002
0000
0023
0000
0230
0000
2300
0000
,  // measure 20
3001
0100
0001
0000
1000
0000
0010
0000
0001
0000
0010
0000
0100
0010
0100
0010
,  // measure 21
1000
0001
0000
1000
0000
0100
0010
0001
1000
0000
0010
0100
0000
0100
0001
0000
,  // measure 22
1000
0100
0001
1000
0020
0000
0031
0000
,  // measure 23
1000
0000
0010
0000
0002
0003
0000
0000
0001
0000
0010
0000
2000
3000
0000
0000
,  // measure 24
0100
0010
0000
0100
0010
0000
0001
1000
0000
0001
1000
0000
0110
0000
0000
0000
,  // measure 25
0001
0100
0010
1000
0100
0000
1001
0000
,  // measure 26
1000
0000
0010
0000
0100
0000
0001
0000
0010
0000
0000
0010
0000
0000
1001
0000
,  // measure 27
0001
0100
0001
0000
1000
0000
0010
0000
0100
0001
0000
0010
0000
0000
0100
0000
,  // measure 28
1000
0000
0010
0000
0100
0000
0001
0000
0010
0000
0000
0010
0000
0000
1001
0000
,  // measure 29
0001
0100
0000
0001
0100
0000
0010
0100
0000
0000
1001
0000
1001
0000
0000
0000
,  // measure 30
1000
0000
0010
0000
0001
0000
0010
0000
0100
0000
0000
0100
0000
0000
1001
0000
,  // measure 31
0001
0000
0010
0000
1000
0000
0010
0000
0100
0000
0000
0001
0000
0000
0100
0000
,  // measure 32
1000
0000
0010
0000
0001
0000
0010
0000
0100
0000
0000
0001
0000
0000
1000
0000
,  // measure 33
0100
0000
0100
0000
0100
0000
0010
0100
0000
0000
0000
0000
1001
0000
0000
0000
,  // measure 34
0001
0000
1000
0000
0010
0100
0000
0010
2000
0000
3200
0000
0320
0000
0032
0000
,  // measure 35
0003
0000
0200
0300
0000
0020
0030
0000
0200
0300
0000
0002
0003
0000
0020
0030
,  // measure 36
0001
0000
1000
0000
0100
0010
0000
0100
2000
0000
3020
0000
0230
0000
0302
0000
,  // measure 37
0003
0000
0020
0030
0000
0200
0300
0000
0002
0000
0203
0000
0320
0000
0032
0000
,  // measure 38
1003
0000
0200
0300
0001
0000
0200
0300
1000
0000
0200
0300
0001
0000
0200
0300
,  // measure 39
1000
0000
0020
0030
0001
0000
0020
0030
1000
0000
0020
0030
0001
0000
0020
0030
,  // measure 40
1000
0000
0020
0030
0100
0000
2000
3000
0100
0000
0020
0030
1000
0000
0200
0300
,  // measure 41
0010
0000
0000
0000
0001
1000
0001
0000
0000
0000
0100
0000
0200
0000
0000
0000
,  // measure 42
0301
0000
0010
0000
0000
0100
0000
0000
1000
0000
0010
0100
0010
0000
1000
0000
,  // measure 43
0001
0000
0100
0000
0000
0010
0000
0000
1000
0000
0100
0010
0000
0100
1000
0000
,  // measure 44
0001
0000
0010
0000
0000
0100
0000
0000
1000
0000
0010
0100
0000
0001
0100
0000
,  // measure 45
0001
0000
1000
0000
0000
0010
0000
0000
1000
0100
1000
0100
0010
0001
0010
0001
,  // measure 46
1000
0000
0001
0000
1000
0000
0010
0100
0010
0000
1000
0000
0200
0000
0000
0000
,  // measure 47
1300
0000
0010
0000
2010
3000
0000
0000
0001
0000
0100
0000
0102
0003
0000
0000
,  // measure 48
1000
0100
1000
0000
0001
0000
0010
0000
1000
0000
0020
0030
0200
0300
2000
3000
,  // measure 49
0001
0000
1000
0000
0010
0100
0000
0100
0001
1000
0001
1000
0200
0000
0000
0000
,  // measure 50
0301
1000
0010
0001
0000
1000
0010
0001
,  // measure 51
0000
1000
0100
0010
0000
1000
0100
0010
,  // measure 52
0000
1000
0010
0001
0000
1000
0010
0100
,  // measure 53
0000
1000
0100
0001
0000
1000
0100
0001
,  // measure 54
0000
1000
0010
0100
0000
1000
0010
0100
,  // measure 55
0000
1000
0100
0010
0000
1000
0100
0010
,  // measure 56
0000
0001
0100
0010
0000
1000
0100
0010
,  // measure 57
0000
0001
1000
0010
0000
1000
0001
0010
,  // measure 58
0110
0000
0000
0000
,  // measure 59
2000
0000
3200
0000
0310
0010
0001
0001
,  // measure 60
1001
0000
1000
0000
0000
1000
0000
0000
0010
0000
0000
0010
0000
0000
0010
0000
,  // measure 61
0000
0100
0000
0000
0100
0000
0000
0001
0000
0000
0001
0000
0000
0001
0000
1000
,  // measure 62
0000
0000
1000
0000
0000
1000
0000
0000
0100
0000
0000
0100
0000
0000
0100
0000
,  // measure 63
0000
0010
0000
0000
0010
0000
0000
0001
0000
0000
0001
0000
0000
0100
0000
0010
,  // measure 64
0000
0000
1000
0000
0000
1000
0000
0000
0010
0000
0000
0010
0000
0000
0100
0000
,  // measure 65
0000
0100
0000
0000
1000
0000
0000
1000
0000
0000
0100
0000
0000
0001
0000
0001
,  // measure 66
0000
0000
0010
0000
0000
0010
0000
0000
1000
0000
0000
1000
0000
0000
0010
0000
,  // measure 67
0000
0010
0000
0000
0010
0000
0000
0001
0000
0000
0010
0000
0000
0100
0000
0010
,  // measure 68
0001
0000
0000
1000
0000
0000
0010
0000
1000
0000
0000
0001
0000
0000
0010
0000
,  // measure 69
0001
0000
0000
0100
0000
0000
0010
0000
1000
0000
0000
0100
0000
0000
0010
0000
,  // measure 70
0001
0000
0000
0100
0000
0000
0010
0000
0100
0000
0000
0001
0000
0000
0010
0000
,  // measure 71
0100
0000
0000
1000
0000
0000
0010
0000
1000
0000
0000
0100
0000
0000
0010
0000
,  // measure 72
0001
0000
0000
0100
0000
0000
1000
0000
0001
0000
0000
0010
0000
0000
1000
0000
,  // measure 73
0001
0000
0000
0010
0000
0000
1000
0000
0001
0000
0000
0100
0000
0000
1000
0000
,  // measure 74
0001
0000
0000
0100
0000
0000
1000
0000
0001
0000
0000
0010
0000
0000
0100
0000
,  // measure 75
0002
0000
0000
1000
0000
0000
0010
0000
0100
0000
0000
1000
0000
0000
0013
0000
,  // measure 76
1000
0000
0001
0000
0010
0000
0100
1000
0001
0000
1000
0000
0010
0000
0100
0001
,  // measure 77
0000
1000
0001
0000
0010
0000
0100
1000
0000
0001
1000
0000
0010
0000
0100
0001
,  // measure 78
1000
0000
0010
0000
0001
0000
0010
0100
0001
0000
0010
0000
1000
0000
0010
0100
,  // measure 79
0000
1000
0100
0000
0001
0000
0100
0010
0000
0001
0100
0000
1000
0000
0100
0010
,  // measure 80
2000
0000
3000
0000
;

//---------------dance-single - TaroNuke----------------
#NOTES:
     dance-single:
     TaroNuke:
     Medium:
     7:
     0.500,0.564,0.063,0.211,0.215,412.000,8.000,27.000,0.000,0.000,0.000,0.500,0.564,0.063,0.211,0.215,412.000,8.000,27.000,0.000,0.000,0.000:
0000
0000
0000
0000
,
0000
0000
0000
0000
,
0000
0000
0000
0000
,
0000
0000
0000
0000
,
1000
0000
0000
0100
0000
0000
0010
0000
,
0001
0000
0000
1000
,
0010
0100
1000
0100
,
0010
0001
0010
1000
,
0001
0100
0001
0100
,
0010
0000
1000
0000
0010
1000
0001
0000
,
1000
0100
1000
0000
0001
0100
0001
0000
,
1000
0100
1000
0100
0000
0000
0010
0001
0010
0001
0000
0000
,
1000
0000
0000
1000
0100
0000
0000
0100
0010
0000
0000
0010
0001
0000
0000
0001
,
1000
0010
1000
0010
0000
0000
0100
0001
0100
0001
0000
0000
,
1000
0100
0010
0001
0010
0100
1000
0000
0000
0000
0000
0000
,
0001
0100
0001
0100
0010
0100
0010
0000
,
1000
0100
0010
0001
1000
0010
1000
0000
,
0001
0100
0010
1000
0001
0100
0001
0000
,
1000
0100
1000
0001
0100
0001
1000
0000
,
0001
0100
1000
0100
0001
1000
0100
0000
,
1000
0000
0001
0000
1000
0000
0010
0000
1000
0000
0100
0000
1000
0001
1000
0000
,
0001
0000
1000
0000
0001
0000
0100
0000
0001
0000
0010
0100
0000
0010
0100
0000
,
1000
0100
0001
0100
0020
0000
0031
0000
,
1000
0000
0010
0000
0002
0003
0000
0000
0001
0000
0100
0000
2000
3000
0000
0000
,
0010
0000
0000
0100
0000
0000
0010
0000
0000
0100
0000
0000
0001
0000
0000
0000
,
1000
0100
0010
0001
0100
0000
1001
0000
,
1000
0000
0100
0000
1000
0000
0100
0000
0010
0000
0000
0010
0000
0000
0000
0000
,
0001
0000
0100
0000
0001
0000
0100
0000
0010
0000
0000
0010
0000
0000
0000
0000
,
1000
0000
0001
0000
1000
0000
0001
0000
0100
0000
0000
0100
0000
0000
0000
0000
,
0010
0000
1000
0000
0001
0000
1000
0100
0000
0000
0010
0000
0010
0000
0000
0000
,
0001
0000
0010
0000
0001
0000
0010
0000
0100
0000
0000
0100
0000
0000
0000
0000
,
1000
0000
0010
0000
1000
0000
0010
0000
0100
0000
0000
0100
0000
0000
0000
0000
,
0001
0000
1000
0000
0001
0000
1000
0000
0010
0000
0000
0010
0000
0000
0000
0000
,
0100
0000
0100
0000
0100
0000
0010
0100
0000
0000
0000
0000
1001
0000
0000
0000
,
1000
0100
0010
0100
1000
0001
0010
0100
,
0000
0000
0010
0000
0000
0100
0000
0000
1000
0000
0000
0100
0000
0000
0010
0000
,
0001
0100
0010
0100
0001
1000
0010
0100
,
0000
0000
0010
0000
0000
0100
0000
0000
0001
0000
0100
0000
0010
0000
1000
0000
,
0001
0200
0300
0020
0030
2000
3000
0200
,
0300
0020
0030
0002
0003
0200
0300
0020
,
0030
2000
3000
0200
0300
0020
0030
0200
,
1300
0000
0001
0001
0000
0100
0200
0000
,
0301
1000
0100
1000
0001
0000
0110
0000
,
1000
0001
0100
0001
1000
0000
0110
0000
,
1000
0100
0010
0001
0100
0000
1010
0000
,
0001
0100
0010
1000
0100
0000
0011
0000
,
1000
0001
0001
0100
0100
0000
0020
0000
,
1030
0001
1000
0000
0010
0100
0010
0000
,
1000
1000
0100
0100
0010
0010
0001
0000
,
1000
0010
0100
0001
1000
0100
0001
0000
,
2002
0000
0000
0003
,
0200
0000
0000
3000
,
0020
0000
0000
0300
,
0002
0000
0000
0030
,
0200
0000
0000
0003
,
0020
0000
0000
0300
,
2000
0000
0000
0030
,
0002
0000
0000
3003
,
1001
0000
0000
0000
,
1000
0000
0001
0000
1000
0100
0010
0001
,
0000
0000
1000
0000
0000
1000
0000
0000
0010
0000
0000
0010
0000
0000
0010
0000
,
0000
0100
0000
0000
0100
0000
0000
0001
0000
0000
0001
0000
0000
0001
0000
1000
,
0000
0000
1000
0000
0000
1000
0000
0000
0100
0000
0000
0100
0000
0000
0100
0000
,
0000
0010
0000
0000
0010
0000
0000
0001
0000
0000
0001
0000
0000
0100
0000
0010
,
0000
0000
1000
0000
0000
1000
0000
0000
0010
0000
0000
0010
0000
0000
0100
0000
,
0000
0100
0000
0000
0001
0000
0000
0001
0000
0000
0100
0000
0000
0010
0000
0010
,
0000
0000
1000
0000
0000
1000
0000
0000
0100
0000
0000
0100
0000
0000
0010
0000
,
0000
0010
0000
0000
0010
0000
0000
0001
0000
0000
0010
0000
0000
0100
0000
0000
,
1000
0000
0100
0000
1000
0100
0010
0000
,
0001
0000
0100
0000
0001
0100
0010
0000
,
1000
0000
0001
0000
1000
0010
0100
0000
,
0001
0000
1000
0000
0001
0010
0100
0000
,
0100
0000
0010
0000
0100
0010
0001
1000
,
0010
0000
0100
0000
0010
0100
0001
1000
,
0100
0000
0010
0100
0010
0000
0001
1000
,
0002
0010
0100
1003
,
0001
0010
0100
1000
0001
0100
0010
1000
,
0001
0010
0100
1000
0001
0100
0010
1000
,
0001
0010
0100
1000
0001
0100
0010
1000
,
0001
0010
0100
1000
0001
0100
0010
1000
,
0100
0000
0000
0000
;

//---------------dance-single - TaroNuke----------------
#NOTES:
     dance-single:
     TaroNuke:
     Beginner:
     2:
     0.135,0.157,0.055,0.000,0.000,114.000,7.000,0.000,0.000,0.000,0.000,0.135,0.157,0.055,0.000,0.000,114.000,7.000,0.000,0.000,0.000,0.000:
0000
0000
0000
0000
,
0000
0000
0000
0000
,
0000
0000
0000
0000
,
0000
0000
0000
0000
,
1000
0000
0000
0000
,
1000
0000
0000
0000
,
0001
0000
0000
0000
,
0001
0000
0000
0000
,
0100
0000
0000
0000
,
0010
0000
0000
0000
,
1000
0000
0001
0000
,
1000
0000
0001
0000
,
1000
0000
0010
0000
,
1000
0000
0100
0000
,
1000
0000
0001
0000
,
1001
0000
0000
0000
,
1000
0000
1000
0000
,
0100
0000
0000
0000
,
0001
0000
0001
0000
,
0010
0000
0000
0000
,
0100
0000
0100
0000
,
0001
0000
0000
0000
,
0010
0000
0010
0000
,
1000
0000
0001
0000
,
0100
0100
0100
0000
,
0000
0000
0000
0000
,
1000
0000
0000
0000
,
0001
0000
0000
0000
,
0100
0000
0000
0000
,
0010
0000
0000
0000
,
1000
0000
0000
0000
,
0010
0000
0000
0000
,
0100
0000
0000
0000
,
0001
0001
0001
0000
,
1000
0000
1000
0000
,
0001
0000
0001
0000
,
0100
0000
0100
0000
,
0010
0000
0010
0000
,
1000
0000
0100
0000
,
0001
0000
0010
0000
,
1000
0000
0100
0000
,
0001
0001
0001
0000
,
1000
0000
0100
0000
,
1000
0000
1000
0000
,
0001
0000
0100
0000
,
0001
0000
0001
0000
,
0010
0010
0010
0000
,
0001
0000
1000
0000
,
0000
0000
0000
0000
,
1000
1000
1000
0000
,
1001
0000
0000
0000
,
0100
0000
0000
0000
,
0010
0000
0000
0000
,
0100
0000
0000
0000
,
0001
0000
0000
0000
,
1000
0000
0000
0000
,
0100
0000
0000
0000
,
0001
0000
0000
0000
,
1001
0000
0000
0000
,
0000
0000
0000
0000
,
1001
0000
0000
0000
,
0000
0000
0000
0000
,
1010
0000
0000
0000
,
0000
0000
0000
0000
,
0101
0000
0000
0000
,
0000
0000
0000
0000
,
0011
0000
0000
0000
,
0000
0000
0000
0000
,
1000
0000
1000
0000
,
0001
0000
0001
0000
,
0100
0000
0100
0000
,
0010
0000
0010
0000
,
1000
0000
1000
0000
,
0100
0000
0100
0000
,
0010
0000
0010
0000
,
0001
0000
0001
0000
,
1000
0000
0001
0000
,
1000
0000
0001
0000
,
1000
0000
0001
0000
,
1000
0000
0001
0000
,
1000
0000
0000
0000
;

//---------------dance-single - TaroNuke----------------
#NOTES:
     dance-single:
     TaroNuke:
     Easy:
     4:
     0.227,0.251,0.125,0.063,0.000,179.000,16.000,8.000,0.000,0.000,0.000,0.227,0.251,0.125,0.063,0.000,179.000,16.000,8.000,0.000,0.000,0.000:
0000
0000
0000
0000
,
0000
0000
0000
0000
,
0000
0000
0000
0000
,
0000
0000
0000
0000
,
1000
0000
0100
0000
,
1000
0000
1000
0000
,
0001
0000
0100
0000
,
0001
0000
0001
0000
,
0100
0000
0010
0000
,
0100
0000
0010
0000
,
1000
0100
0001
0100
,
1000
1000
0001
0001
,
1000
0100
0010
0001
,
1000
0000
1000
0000
,
0001
0000
0001
0000
,
0110
0000
0000
0000
,
1000
1000
1000
0000
,
0100
0000
0100
0000
,
0001
0001
0001
0000
,
0010
0000
0010
0000
,
0100
0100
0100
0000
,
0001
0000
0001
0000
,
0010
0010
0010
0000
,
1000
0000
0001
0000
,
0100
0100
0100
0000
,
0000
0000
0000
0000
,
1000
0000
1001
0000
,
0001
0000
1001
0000
,
1000
0000
1001
0000
,
0001
0000
1001
0000
,
0100
0000
0110
0000
,
0010
0000
0110
0000
,
0100
0000
0110
0000
,
0010
0000
0110
0000
,
1000
0100
1000
0100
,
0010
0001
0010
0001
,
1000
0010
1000
0010
,
0100
0001
0100
0001
,
1000
0000
0100
0000
,
0001
0000
0010
0000
,
1000
0000
0100
0000
,
0001
0001
0001
0000
,
1001
0000
0000
1000
,
1100
0000
0000
0001
,
0101
0000
0000
0001
,
0011
0000
0000
0100
,
0110
0000
1000
0000
,
0110
0000
0001
0000
,
1000
0100
0010
0001
,
1000
1000
1000
0000
,
0002
0000
0000
0003
,
0020
0000
0000
0030
,
0200
0000
0000
0300
,
0020
0000
0000
0030
,
0002
0000
0000
0003
,
2000
0000
0000
3000
,
0020
0000
0000
0030
,
0200
0000
0000
0300
,
1001
0000
0000
0000
,
0000
0000
0000
0000
,
1000
0000
0100
0000
,
0010
0000
0001
0000
,
1000
0000
0010
0000
,
0100
0000
0001
0000
,
1000
0000
0100
0000
,
0001
0000
0100
0000
,
1000
0000
0010
0000
,
0001
0000
0010
0000
,
1000
0100
1000
0000
,
0001
0100
0001
0000
,
1000
0010
1000
0000
,
0001
0010
0001
0000
,
1000
0100
0010
0000
,
0001
1000
0100
0000
,
1000
0001
1000
0001
,
0100
0010
0100
0000
,
0001
0100
0010
1000
,
0001
0100
0010
1000
,
0001
0100
0010
1000
,
0001
0100
0010
1000
,
0100
0000
0000
0000
;
