#VERSION:0.81;
#TITLE:Dignity;
#SUBTITLE:;
#ARTIST:Yooh;
#TITLETRANSLIT:;
#SUBTITLETRANSLIT:;
#ARTISTTRANSLIT:;
#GENRE:;
#ORIGIN:;
#CREDIT:;
#BANNER:;
#BACKGROUND:;
#PREVIEWVID:;
#JACKET:[Round 1 Singles] - Dignity-jacket.png;
#CDIMAGE:;
#DISCIMAGE:;
#LYRICSPATH:;
#CDTITLE:;
#MUSIC:[Round 1 Singles] - Dignity.ogg;
#OFFSET:0.311;
#SAMPLESTART:74.312;
#SAMPLELENGTH:13.728;
#SELECTABLE:YES;
#BPMS:0.000=193.000;
#STOPS:;
#DELAYS:;
#WARPS:;
#TIMESIGNATURES:0.000=4=4,
4.000=5=4,
14.000=6=4,
20.000=4=4,
84.000=6=4,
132.000=3=4,
225.000=6=4,
237.000=3=4,
264.000=5=4,
284.000=3=4,
335.000=5=4,
345.000=6=4;
#TICKCOUNTS:0.000=4;
#COMBOS:0.000=1;
#SPEEDS:0.000=1.000=0.000=0;
#SCROLLS:0.000=1.000;
#FAKES:;
#LABELS:0.000=Song Start;
#BGCHANGES:;
#KEYSOUNDS:;
#ATTACKS:
;

//---------------dance-single - ----------------
#NOTEDATA:;
#CHARTNAME:;
#STEPSTYPE:dance-single;
#DESCRIPTION:;
#CHARTSTYLE:;
#DIFFICULTY:Beginner;
#METER:2;
#RADARVALUES:0.125,0.156,0.079,0.000,0.000,91.000,9.000,0.000,0.000,0.000,0.000,0.000,0.000,0.125,0.156,0.079,0.000,0.000,91.000,9.000,0.000,0.000,0.000,0.000,0.000,0.000;
#CREDIT:;
#NOTES:
0000
0000
0000
0000
,
0000
0000
0000
0000
,
0000
0000
0000
0000
,
0000
0000
0000
0000
,
0000
0000
0000
0000
,
1000
0000
0000
0000
,
1000
0000
0000
0000
,
0001
0000
0000
0000
,
0001
0000
0000
0000
,
1000
0000
0000
0000
,
0001
0000
0000
0000
,
1000
0000
0000
0000
,
0001
0000
0000
0000
,
0010
0000
0000
0000
,
0010
0000
0000
0000
,
0100
0000
0000
0000
,
0100
0000
0000
0000
,
0010
0000
0000
0000
,
0100
0000
0000
0000
,
0010
0000
0000
0000
,
0100
0000
0000
0000
,
1000
0000
0000
0000
,
0000
0000
1000
0000
,
0000
0000
0000
0000
,
0001
0000
0000
0000
,
0000
0000
0001
0000
,
0000
0000
0000
0000
,
1000
0000
0000
0000
,
0000
0000
0001
0000
,
0000
0000
0000
0000
,
1000
0000
0000
0000
,
0000
0000
0001
0000
,
0000
0000
0000
0000
,
0000
0000
0000
1000
,
0000
0000
1000
0000
,
0000
0001
0000
0000
,
0001
0000
0000
1000
,
0000
0000
0001
0000
,
0000
0001
0000
0000
,
1000
0000
0000
0001
,
0000
0000
0001
0000
,
0000
1000
0000
0000
,
1000
0000
0000
0001
,
0000
0000
1000
0000
,
0000
1000
0000
0000
,
0001
0000
0000
0100
,
0000
0000
0100
0000
,
0000
0010
0000
0000
,
0010
0000
0000
0100
,
0000
0000
0100
0000
,
0000
0010
0000
0000
,
0000
0000
0000
0110
,
0000
0000
0000
0000
,
0000
1001
0000
0000
,
0000
0000
0000
0001
,
0000
0000
1000
0000
,
0000
1001
0000
0000
,
0000
0000
0000
0110
,
0000
0000
0000
0000
,
0000
0000
0000
0000
,
1000
0000
0000
1000
,
0000
0000
0001
0000
,
0000
0001
0000
0000
,
1000
0000
0000
0001
,
0000
0000
0001
0000
,
0000
1000
0000
0000
,
0100
0000
0000
0010
,
0000
0010
0000
0000
,
0100
0000
0100
0000
,
0000
0010
0000
0010
,
0000
0000
0100
0000
,
0100
0000
0000
0100
,
0000
0000
0010
0000
,
0000
0010
0000
0000
,
0100
0000
0000
0010
,
0000
0000
0010
0000
,
0000
0100
0000
0000
,
1000
0000
0000
1000
,
0000
0000
0001
0000
,
0000
0001
0000
0000
,
1000
0000
0000
0001
,
0000
0000
0001
0000
,
0000
1000
0000
0000
,
0001
0000
0000
1001
,
0000
0000
0000
0000
,
1001
0000
0000
0000
,
0000
0110
0000
0000
,
0000
0000
0000
0110
,
0000
0000
0000
0000
,
0000
1001
0000
0000
;

//---------------dance-single - ----------------
#NOTEDATA:;
#CHARTNAME:;
#STEPSTYPE:dance-single;
#DESCRIPTION:;
#CHARTSTYLE:;
#DIFFICULTY:Easy;
#METER:4;
#RADARVALUES:0.296,0.391,0.140,0.000,0.000,221.000,16.000,0.000,0.000,0.000,0.000,0.000,0.000,0.296,0.391,0.140,0.000,0.000,221.000,16.000,0.000,0.000,0.000,0.000,0.000,0.000;
#CREDIT:;
#NOTES:
0000
0000
0000
0000
,
0000
0000
0000
0000
,
0000
0000
0000
0000
,
0000
0000
0000
0000
,
0000
0000
0000
0000
,
1000
0000
0100
0000
,
0010
0000
0001
0000
,
1000
0000
0010
0000
,
0010
0000
0100
0000
,
0001
0000
0100
0000
,
0010
0000
1000
0000
,
0001
0000
0010
0000
,
0010
0000
0100
0000
,
1000
0000
0100
0000
,
0010
0000
0001
0000
,
1000
0000
1000
0000
,
0010
0000
0100
0000
,
0001
0000
0010
0000
,
0100
0000
1000
0000
,
0001
0000
0100
0000
,
0010
0000
0010
0000
,
0110
0000
0000
0000
,
0100
0000
0001
0000
,
1000
0000
0100
0000
,
0010
0000
0000
0000
,
0010
0000
0001
0000
,
1000
0000
0010
0000
,
1000
0000
0100
0000
,
0010
0000
0010
0000
,
0001
0000
0100
0000
,
0100
0000
0010
0000
,
1000
0000
1000
0000
,
0100
0000
0010
0000
,
0110
0000
0000
1001
,
0000
0001
1000
0100
,
1000
0001
0000
1000
,
0001
0100
0001
1000
,
0000
0001
0010
0010
,
0001
1000
0000
1000
,
0010
0010
1000
0001
,
0000
1000
0010
0100
,
0010
1000
0000
0001
,
0010
0100
0010
0001
,
0000
1000
0100
0100
,
1000
0001
0000
0001
,
0100
0100
0001
1000
,
0000
1000
0010
0000
,
0010
0100
0000
0100
,
0001
0000
0001
1000
,
0000
0000
1001
0000
,
0000
0110
0000
0000
,
0000
0000
0000
1001
,
0000
1000
0000
0000
,
0000
1001
0000
0001
,
0000
0000
0000
1001
,
0000
1000
0001
0000
,
0001
0100
0000
0000
,
0000
0000
0000
0010
,
0010
0010
0100
0100
,
0100
0000
0000
0000
,
1001
0000
1000
0100
,
0010
0100
1000
0000
,
0001
0100
0010
0100
,
0001
0001
0010
0100
,
1000
0001
1000
1000
,
0010
0100
0001
1000
,
0001
0000
1000
0100
,
1000
0001
0000
0001
,
0100
0001
1000
1000
,
0010
0100
0001
1000
,
1000
0100
0010
0001
,
1001
0000
0001
0100
,
0010
1000
0001
0000
,
1000
0100
0010
0001
,
1000
1000
0010
0100
,
0001
1000
0001
0001
,
0010
0100
1000
0001
,
1000
0000
0001
0100
,
0100
0010
1000
0000
,
1000
0100
0100
0010
,
0001
0001
0100
0010
,
1000
0001
1000
1000
,
0100
0010
0001
1000
,
0001
0000
0000
1001
,
0000
0000
0001
0001
,
1001
0000
0000
1000
,
1000
1001
0001
1000
,
1000
0001
0001
1001
,
0000
0000
1001
0000
,
0000
1001
0000
0000
;

//---------------dance-single - ----------------
#NOTEDATA:;
#CHARTNAME:;
#STEPSTYPE:dance-single;
#DESCRIPTION:;
#CHARTSTYLE:;
#DIFFICULTY:Medium;
#METER:6;
#RADARVALUES:0.441,0.508,0.166,0.018,0.000,332.000,19.000,2.000,0.000,0.000,0.000,0.000,0.000,0.441,0.508,0.166,0.018,0.000,332.000,19.000,2.000,0.000,0.000,0.000,0.000,0.000;
#CREDIT:;
#NOTES:
0000
0000
0000
0000
,
0000
0000
0000
0000
,
0000
0000
0000
0000
,
0000
0000
0000
0000
,
0000
0000
0000
0000
,
0001
0100
0001
0100
,
0001
1000
0001
1000
,
0010
0010
1000
1000
,
0001
0001
0100
0100
,
0001
1000
0001
1000
,
0001
0010
0001
0010
,
0100
0100
0010
0010
,
0001
1000
0001
0000
,
1000
0100
1000
0100
,
1000
0001
1000
0001
,
0010
0010
0001
0001
,
1000
1000
0100
0100
,
1000
0001
1000
0001
,
1000
0010
1000
0010
,
0100
0100
0010
0010
,
1000
0001
1000
0000
,
2001
0000
3000
0000
,
1000
0000
0100
0100
,
0100
0000
0010
0000
,
0002
0000
0003
0000
,
0001
0000
0100
0100
,
0100
0000
0010
0000
,
1000
0000
1000
0000
,
0100
0000
0001
0000
,
0001
0000
0100
0000
,
1000
0001
1000
0001
,
1000
0001
0100
0100
,
0100
0010
0010
0010
,
0000
0000
0000
1001
,
1000
0001
1000
0000
0001
0000
0100
0000
,
0010
0000
1000
0000
0001
1000
0001
0000
,
1000
0100
0010
0001
,
0100
0010
1000
0100
,
0010
0100
0010
0000
0100
0010
0000
0010
,
0100
1000
0001
1001
,
0001
1000
0001
0000
1000
0000
0010
0000
,
0100
0000
0001
0000
1000
0001
1000
0000
,
0001
0010
0100
1000
,
0001
1000
0100
0000
0010
0000
0001
0000
,
1000
0000
0010
0000
1000
0001
0100
0000
,
0010
0010
0100
1001
,
0000
0001
0100
0000
0100
0000
0000
1000
,
0100
0000
0100
0000
0000
0001
0010
0000
,
0010
0000
0000
0100
0000
0000
0100
0000
,
0000
1000
0100
0000
,
0010
0000
0001
0000
0001
1000
0000
1000
,
0000
1000
0000
1000
0000
1000
0100
0000
,
0000
0010
0001
1000
0000
0000
0000
0000
,
0000
0000
1001
0000
0000
0010
1000
0001
,
0000
0000
0000
1100
,
1000
1000
1001
0001
,
0001
0000
0101
0000
0000
0100
0000
0000
,
0010
0000
0000
0010
0000
0000
0100
0000
,
0001
1000
0010
0100
,
0001
0000
0000
0000
,
1001
0000
1000
0001
0100
0000
0010
0000
,
1000
0000
0010
0000
0100
0000
0001
1000
,
0100
0010
0001
0010
,
0100
1000
0001
1000
0100
0000
1000
0000
,
0010
0000
0100
0000
0001
0100
0001
0100
,
0001
0010
0010
0100
,
1001
0000
0001
1000
0010
0000
0100
0000
,
0010
0000
1000
0000
1000
0001
0010
0000
,
0100
0000
0010
0000
0001
0010
0001
0010
,
0001
0000
0100
0000
0010
0000
1000
0010
,
1000
0010
1000
0000
0100
0000
0010
0000
,
1001
0000
0001
1000
0010
0000
0100
0000
,
0001
0000
0100
0000
0010
0000
1000
0001
,
0010
0100
1000
0100
,
0010
0001
1000
0001
0010
0000
0001
0000
,
0100
0000
0010
0000
1000
0010
1000
0010
,
1000
0100
0010
0010
,
0011
0000
0001
0000
1000
0100
1000
0000
,
0001
0001
1010
1000
,
0001
0100
0001
0000
1000
0000
1000
0000
,
0001
1000
0100
1000
0100
1000
0100
0000
,
0010
0000
0001
0000
1000
0001
0100
0001
,
0100
0001
0100
0000
0010
0000
0010
0000
,
0110
0000
0000
1001
,
0000
1000
0000
0000
0100
0000
0010
0000
,
0110
0000
0000
0010
0000
0000
0001
0000
,
1000
1001
1000
0010
,
0100
0001
0010
0110
,
0000
0100
0000
0000
1000
0000
0000
0010
,
0000
0110
0000
0000
;

//---------------dance-single - ----------------
#NOTEDATA:;
#CHARTNAME:;
#STEPSTYPE:dance-single;
#DESCRIPTION:;
#CHARTSTYLE:;
#DIFFICULTY:Hard;
#METER:8;
#RADARVALUES:0.546,0.625,0.376,0.018,0.000,392.000,43.000,2.000,0.000,0.000,0.000,0.000,0.000,0.546,0.625,0.376,0.018,0.000,392.000,43.000,2.000,0.000,0.000,0.000,0.000,0.000;
#CREDIT:;
#NOTES:
0000
0000
0000
0000
,
0000
0000
0000
0000
,
0000
0000
0000
0000
,
0000
0000
0000
0000
,
0000
0000
0000
0000
,
1000
0001
0100
0001
,
1000
0100
1000
0001
,
1000
0001
0100
0000
0001
0100
0010
0000
,
0100
0010
1000
0000
0010
1000
0001
0000
,
1000
0010
0100
0001
,
1000
0100
0010
0001
,
0010
0001
1000
0000
0001
1000
0010
0000
,
1000
0010
0100
0000
0010
0100
0001
0000
,
0101
0100
1000
0100
,
0001
0010
0100
1000
,
0100
1000
0100
0000
0100
0010
0100
0000
,
0100
0001
0100
0000
0100
0010
0100
0000
,
0110
0100
1000
0001
,
0100
0010
1000
0010
,
1010
0010
0100
0010
,
0100
0001
0100
0001
1000
0010
1000
0000
,
2001
0000
0000
0100
,
3100
1000
0010
0100
,
0010
0001
0010
0100
,
0002
0000
0000
0010
,
0013
0001
0010
0100
,
0010
1000
0010
0001
,
1000
0000
0010
1000
0010
0000
1000
0000
,
0100
0010
0001
0100
,
1000
0100
0001
0100
,
0010
1000
0010
0100
,
0010
1000
0100
0010
,
0001
0100
0010
1000
,
0000
0000
0000
1010
,
0010
1000
0001
1000
0001
0000
0010
0000
,
0100
0000
0010
0000
0010
0001
1000
0001
,
1000
0010
0100
0001
,
0100
1000
0100
0001
,
1000
0100
1000
0000
0100
0010
0000
0010
,
0100
0010
0001
0011
,
0001
1000
0100
1000
0100
0000
0010
0000
,
0100
0000
1000
0000
1000
0001
0100
0001
,
0100
0010
0100
0001
,
0010
0100
1000
0100
1000
0000
0001
0000
,
1000
0000
0010
0000
0010
0100
0001
0100
,
0001
0010
0001
1001
,
0000
0001
0100
0010
1000
0000
0000
1000
,
0010
0100
0001
0000
0000
1000
0100
0010
,
0001
0000
0000
0011
0000
0000
1100
0000
,
0000
1000
0100
0000
0010
0000
0000
0100
,
0010
0000
0011
0000
0001
1000
0000
0100
,
0000
1000
0000
0001
0000
0100
0001
0000
,
0000
0001
0100
0010
0000
0000
0000
0000
,
0000
0000
1001
0000
0000
1000
0100
0010
,
0000
0000
0000
1100
,
1000
0001
0101
0001
,
1000
0000
1001
0000
0001
0010
0000
0010
,
0001
0000
1000
0010
0000
0010
1000
0000
,
1010
1001
0011
1001
,
0110
0000
0000
0000
,
1010
0000
1000
0010
1000
0001
1000
0000
,
0010
0000
0100
0000
0001
0000
0001
0010
,
0001
1000
0001
0000
0100
0000
0010
0000
,
1000
0010
0100
0001
0010
0100
1000
0000
,
0001
0000
1000
0000
0001
0010
0100
1000
,
0100
0010
0001
0000
0001
0000
0100
0000
,
0101
0000
0001
1000
0100
1000
0001
0000
,
0100
0000
0010
0000
1000
0001
0010
0001
,
1000
0000
0100
0000
0001
0100
0001
0100
,
1000
0100
1000
0000
0010
0000
1000
0010
,
1000
0010
0100
0001
0010
0100
1000
0000
,
0011
0000
0010
0001
0010
0100
0010
0000
,
0001
0000
0100
0000
0010
0000
0010
1000
,
0010
0100
0010
0000
1000
0000
0001
0000
,
1000
0100
0010
0001
0100
0010
1000
0000
,
0001
0000
1000
0000
0001
0010
0100
1000
,
0100
0010
0001
0000
0001
0000
1000
0000
,
1100
0000
0100
0000
1000
0001
0100
0000
,
0010
0100
0101
0100
,
0001
1000
0100
0000
0010
0000
0100
0000
,
0001
0100
1000
0010
1000
0001
0100
0000
,
0010
0000
0100
0000
1000
0100
0001
0010
,
0001
1000
0100
0000
0010
0000
0001
0000
,
1000
0000
0000
1010
,
0000
1100
0000
0000
0110
0000
0110
0000
,
0011
0000
0000
0101
0000
0000
0110
0000
,
0110
1010
1100
0101
,
0011
1010
1100
0101
,
0000
1010
0000
0000
1100
0000
0000
0011
,
0000
0110
0000
0000
;

//---------------dance-single - ----------------
#NOTEDATA:;
#CHARTNAME:;
#STEPSTYPE:dance-single;
#DESCRIPTION:;
#CHARTSTYLE:;
#DIFFICULTY:Challenge;
#METER:10;
#RADARVALUES:0.689,0.820,0.350,0.053,0.249,505.000,40.000,6.000,0.000,0.000,0.000,0.000,0.000,0.689,0.820,0.350,0.053,0.249,505.000,40.000,6.000,0.000,0.000,0.000,0.000,0.000;
#CREDIT:;
#NOTES:
0000
0000
0000
0000
,
0000
0000
0000
0000
,
0000
0000
0000
0000
,
0000
0000
0000
0000
,
0000
0000
0000
0000
,
1000
0100
0010
0001
,
0100
0010
1000
0001
,
1000
0010
1000
0000
0010
0100
0010
0000
,
0100
0001
0100
0000
0001
1000
0001
0000
,
1000
0010
0100
0001
,
0010
0100
1000
0001
,
0100
0001
1000
0000
0001
1000
0010
0000
,
1000
0010
0100
0000
0010
0100
0001
0000
,
1001
0001
0100
0010
,
1000
0001
0010
0001
,
1000
0001
0010
0000
0001
1000
0100
0000
,
1000
0001
0100
0000
0001
1000
0010
0000
,
0110
0100
0001
1000
,
0100
0010
0001
0010
,
0100
0010
0100
0000
1000
0001
1000
0000
,
0001
0100
0010
1000
0100
0010
0001
0000
,
0021
0100
0130
0010
,
0001
0100
1000
0100
,
0010
0100
0001
1000
,
0200
0010
0310
0100
,
1000
0010
0100
0010
,
0001
0010
1000
0001
,
1001
0000
0001
0100
0001
0000
0100
0000
,
0010
1000
0100
0001
,
0100
1000
0100
0010
,
0001
0010
1000
0010
,
0001
0000
0100
0000
0010
1000
0001
0010
,
0100
1000
0001
0100
0010
1000
0010
0100
,
0001
0000
0000
1001
,
0001
0100
0001
0100
0001
0000
0100
0000
0010
0000
0000
0000
1010
0000
0000
0000
,
1000
0000
0000
0000
1001
0000
0000
0000
1000
0100
1000
0100
1000
0000
0100
0000
,
0010
0011
0001
1001
,
1000
0010
0100
0000
0001
0000
1000
0000
,
0100
0010
0100
0000
0010
0001
0000
0001
,
0100
0010
0010
1001
,
0001
0010
0001
0010
0001
0000
0010
0000
0100
0000
0000
0000
1100
0000
0000
0000
,
1000
0000
0000
0000
1010
0000
0000
0000
1000
0010
1000
0010
1000
0000
0010
0000
,
0100
0101
0001
1001
,
1000
0000
0010
1000
0010
0000
1000
0000
0100
0000
0000
0000
0010
0000
0000
0000
,
0100
0000
0000
0000
1001
0000
0000
0000
0001
0000
0010
0001
0010
0000
0001
0000
,
0100
0010
0100
1001
,
0001
0100
1000
0100
0001
0000
0001
1000
,
0100
1000
0001
0000
1000
0100
0001
0100
,
1000
0000
1000
0010
0000
0010
0100
0000
,
0001
1000
0100
0000
0010
0000
0100
1000
,
0001
0000
1001
0000
0001
0100
0000
0010
,
0000
0001
0000
0010
0000
0100
0001
0000
,
0001
0100
0010
1000
0000
0000
0000
0000
,
0000
0000
1001
0000
1000
0100
0010
0001
,
0000
0000
0000
0000
0000
0000
0001
0010
,
0100
0000
1000
0000
0010
0000
0100
0000
0001
0000
1000
0000
0010
0100
0010
0100
,
0010
0100
0101
0000
0001
0100
0000
0100
,
1000
0000
1000
0100
0000
0100
0001
0000
,
0101
1100
1010
0011
,
1001
0220
0000
0330
,
1001
0000
0000
0000
1000
0100
1000
0100
1000
0000
0100
0000
0010
0000
0001
0000
,
0100
0000
0010
0000
1000
0000
0001
0000
1000
0000
0000
0000
0001
0100
0001
0100
,
0001
0100
0010
1000
0100
0010
0001
0100
,
0010
0100
0010
0100
0010
0000
1000
0000
0001
0000
1000
0000
0100
0000
0000
0000
,
1100
0000
0000
0000
0011
0000
0000
0000
0001
0010
0001
0010
0001
0000
1000
0000
,
0010
0000
0100
0001
0100
0000
0000
0000
0001
0000
0000
0000
0101
0000
0000
0000
,
1100
0000
0000
0000
1000
0000
0100
1000
0001
0000
0100
0000
0010
0000
0000
0000
,
0010
0000
0000
0000
0100
0000
0000
0000
0001
0000
0100
0001
1000
0000
0100
0000
,
0010
0000
0000
0000
0001
0000
0000
0000
0010
0001
0010
0001
1000
0000
0010
0000
,
0100
0000
0001
0000
1000
0000
0000
0000
1001
0000
0000
0000
0010
1000
0010
1000
,
0001
0000
0010
0000
0100
0000
1000
0000
0001
1000
0001
0000
1000
0000
0000
0000
,
1100
0000
0000
0000
0100
1000
0100
1000
0001
0000
0100
0000
0010
0000
0100
0000
,
0001
0000
0100
0000
0010
0000
1000
0000
0001
0000
0000
0000
0001
0010
0001
0010
,
0100
1000
0001
0100
0001
1000
0001
0010
,
0001
1000
0001
1000
0100
0000
1000
0000
0100
0000
0010
0000
0001
0000
0010
0000
,
0100
0000
0010
0000
0001
0000
0000
0000
1000
0001
1000
0001
0100
0000
0010
0000
,
0100
0000
0001
1000
0100
0000
0000
0000
1100
0000
0000
0000
0101
0000
0000
0000
,
1100
0000
1000
0100
0001
0100
1000
0000
,
0010
0100
0001
0000
0101
0000
0001
0100
,
1000
0100
0001
0000
0010
0100
1000
0000
,
0100
1000
0100
1000
0100
0010
0100
0010
0100
0000
1000
0000
0001
0000
0000
0000
,
0100
0000
0000
0000
0010
0000
0000
0000
0100
0001
0100
0001
0100
0010
0100
0010
,
0100
0001
0010
0000
0100
0000
1000
0000
,
2200
0000
3300
1100
,
1000
0100
0000
0100
0010
0000
0001
0000
,
0011
0000
0001
0100
0000
0100
0010
0000
,
1000
0000
0000
1000
0010
0100
0001
0010
0100
1000
0010
0100
,
0001
0010
0100
1000
0010
0100
0001
0010
0100
1000
0000
0000
,
1000
0100
0000
0010
0001
0000
1000
0010
,
0000
0100
0110
0000
0000
0000
0000
0000
;

//---------------dance-double - ----------------
#NOTEDATA:;
#CHARTNAME:;
#STEPSTYPE:dance-double;
#DESCRIPTION:;
#CHARTSTYLE:;
#DIFFICULTY:Easy;
#METER:3;
#RADARVALUES:0.208,0.312,0.070,0.070,0.000,150.000,8.000,8.000,0.000,0.000,0.000,0.000,0.000,0.208,0.312,0.070,0.070,0.000,150.000,8.000,8.000,0.000,0.000,0.000,0.000,0.000;
#CREDIT:;
#NOTES:
00000000
00000000
00000000
00000000
,
00000000
00000000
00000000
00000000
,
00000000
00000000
00000000
00000000
,
00000000
00000000
00000000
00000000
,
00000000
00000000
00000000
00000000
,
00000001
00000000
00000000
00000000
,
00001000
00000000
00000000
00000000
,
00000010
00000000
00000000
00000000
,
00000100
00000000
00000000
00000000
,
00000001
00000000
00000000
00000000
,
00000100
00000000
00000000
00000000
,
00001000
00000000
00000000
00000000
,
00010000
00000000
00000000
00000000
,
00100000
00000000
00000000
00000000
,
01000000
00000000
00000000
00000000
,
00010000
00000000
00000000
00000000
,
10000000
00000000
00000000
00000000
,
01000000
00000000
00000000
00000000
,
00100000
00000000
00000000
00000000
,
01000000
00000000
00000000
00000000
,
00010000
00000000
00000000
00000000
,
00001000
00000000
00000000
00000000
,
00000000
00000000
00000010
00000000
,
00000010
00000000
00000001
00000000
,
00000001
00000000
00000000
00000000
,
00000000
00000000
00000100
00000000
,
00000100
00000000
00001000
00000000
,
00001000
00000000
00000000
00000000
,
00100000
00000000
00100000
00000000
,
00000000
00000000
10000000
00000000
,
10000000
00000000
00000000
00000000
,
00010000
00000000
00010000
00000000
,
00000000
00000000
00100000
00000000
,
00100000
00000000
00000000
01000000
,
00000000
00000000
01000000
00010000
,
00001000
00000010
00000000
00000000
,
00000010
00000001
00000100
00001000
,
00000000
00000000
00000100
00000000
,
00000000
00000001
00000000
00000000
,
00001000
00000000
00000000
00000001
,
00000000
00000000
00000100
00001000
,
00010000
00100000
00000000
00000000
,
00100000
10000000
01000000
00010000
,
00000000
00000000
01000000
00000000
,
00000000
10000000
00000000
00000000
,
00010000
00000000
00000000
00100000
,
00000000
00000000
10000000
00000000
,
00000000
00100000
00000000
00000000
,
00010000
00000000
00000000
00001000
,
00000000
00000000
00000100
00000000
,
00000000
00000110
00000000
00000000
,
00000000
00000000
00000000
00000010
,
00000000
00000010
00000000
00000000
,
00000000
00000001
00000000
00000001
,
00000000
00000000
00000000
00001001
,
00000000
00000000
00011000
00000000
,
00000000
10010000
00000000
00000000
,
00000000
00000000
00000000
00010000
,
00010000
01000000
00100000
10000000
,
10000000
01000000
00000000
00000000
,
10000000
00000000
00000000
01000000
,
00010000
00001000
00000010
00000000
,
00000000
00000010
00000001
00000100
,
00002000
00000000
00003000
00000100
,
00000001
00000100
00000020
00000000
,
00000030
00000100
00000001
00000100
,
00000010
00000000
00000000
00000100
,
00001000
00010000
00000000
00000000
,
00001000
00010000
02000000
00000000
,
03000000
10000000
00010000
02000000
,
00000000
03000000
00010000
10000000
,
01000000
00000000
00000000
01000000
,
00010000
00001000
00000010
00000000
,
00000000
00000010
00000001
00000100
,
00002000
00000000
00003000
00000100
,
00000001
00000100
00000020
00000000
,
00000030
00000100
00000001
00000001
,
00000100
00000000
00000000
00000100
,
00001000
00010000
00100000
00000000
,
00000000
00100000
10000000
01000000
,
00020000
00000000
00030000
01000000
,
10000000
01000000
00200000
00000000
,
00300000
01000000
10000000
00010000
,
01000000
00000000
00000000
10010000
,
00000000
00000000
00000000
00000000
,
00011000
00000000
00000000
00000000
,
00000000
00001001
00000001
00000100
,
00001000
00010000
01000000
10000000
,
00000000
00000000
00010000
00000000
,
00000000
10010000
00000000
00000000
;

//---------------dance-double - ----------------
#NOTEDATA:;
#CHARTNAME:;
#STEPSTYPE:dance-double;
#DESCRIPTION:;
#CHARTSTYLE:;
#DIFFICULTY:Medium;
#METER:6;
#RADARVALUES:0.421,0.508,0.158,0.018,0.000,317.000,18.000,2.000,0.000,0.000,0.000,0.000,0.000,0.421,0.508,0.158,0.018,0.000,317.000,18.000,2.000,0.000,0.000,0.000,0.000,0.000;
#CREDIT:;
#NOTES:
00000000
00000000
00000000
00000000
,
00000000
00000000
00000000
00000000
,
00000000
00000000
00000000
00000000
,
00000000
00000000
00000000
00000000
,
00000000
00000000
00000000
00000000
,
00000001
00000001
00000100
00000100
,
00000010
00000010
00000001
00000001
,
00000010
00000100
00000001
00000100
,
00001000
00010000
00100000
00000000
,
00100000
00100000
10000000
10000000
,
01000000
01000000
00100000
00100000
,
10000000
00100000
01000000
00100000
,
00010000
00001000
00000100
00000000
,
00000010
00000010
00000001
00000001
,
00001000
00001000
00000010
00000010
,
00000100
00000001
00000100
00001000
,
00010000
01000000
10000000
00000000
,
01000000
01000000
10000000
10000000
,
00010000
00010000
01000000
01000000
,
00100000
01000000
00010000
00100000
,
01000000
00010000
00001000
00000000
,
00000020
00000000
00000030
00000000
,
00000010
00000000
00000001
00000100
,
00001000
00000000
00010000
00000000
,
00200000
00000000
00300000
00000000
,
00100000
00000000
10000000
01000000
,
00010000
00000000
00001000
00000000
,
00000010
00000000
00000001
00000000
,
00000100
00000000
00000001
00000000
,
00000100
00000000
00001000
00000000
,
00010000
00000000
00100000
00000000
,
01000000
00000000
00100000
00100000
,
10000000
01000000
00100000
00100000
,
00010000
00000000
00000000
00110000
,
00100000
00001000
00010000
00000010
,
00000100
00000100
00000001
00000100
,
00000010
00000001
00000010
00001000
,
00001000
00010000
01000000
01000000
,
00100000
10000000
00000000
10000000
,
01000000
00010000
00001000
00001100
,
00000100
00010000
00001000
01000000
,
00100000
00100000
10000000
00100000
,
01000000
10000000
01000000
00010000
,
10000000
01000000
10000000
00000000
01000000
00000000
00010000
00000000
,
00001000
00000000
00000010
00000000
00000001
00000010
00000001
00000000
,
00000100
00001000
00000100
00000001
,
00000000
00000000
00000001
00000100
00000010
00000000
00000000
00000000
,
00000010
00000100
00001000
00000000
00000000
00000000
00001000
00000000
,
00010000
00000000
00010000
01000000
,
00000000
00000000
01100000
00000000
,
00000000
00000000
10010000
00000000
00000000
10000000
00000000
00010000
,
00000000
10000000
00000000
00010000
00000000
00010000
10000000
00000000
,
00000000
10000000
01000000
00100000
00000000
00000000
00000000
00000000
,
00000000
00000000
01100000
00000000
00000000
01000000
00100000
00010000
,
00000000
00000000
00000000
00100000
,
00010000
00001000
01000000
00010000
,
00001000
00000000
00000010
00000000
00000000
00000010
00000000
00000000
,
00000001
00000000
00000000
00000001
00000000
00000000
00000100
00000000
,
00000100
00001000
00010000
00100000
,
00100000
00000000
00000000
00000000
,
10100000
00000000
10000000
00010000
00100000
00000000
01000000
00000000
,
00010000
00000000
00001000
00000000
00000010
00000000
00000001
00001000
,
00000010
00000100
00001000
00010000
,
00100000
01000000
00100000
01000000
00010000
00000000
00100000
00000000
,
01000000
00000000
10000000
00000000
01000000
00100000
01000000
00100000
,
10000000
00100000
00010000
00001000
,
00011000
00000000
00010000
00001000
00000100
00000000
00000010
00000000
,
00000001
00000000
00001000
00000000
00000010
00000100
00000001
00000000
,
00000100
00000000
00001000
00000000
00010000
00001000
00010000
00001000
,
00010000
00000000
00001000
00000000
00010000
00000000
00100000
01000000
,
00100000
01000000
00100000
00000000
01000000
00000000
00100000
00000000
,
10100000
00000000
10000000
00010000
00100000
00000000
01000000
00000000
,
00010000
00000000
00001000
00000000
00000010
00000000
00000001
00001000
,
00000010
00000100
00001000
00010000
,
00100000
01000000
00100000
01000000
00010000
00000000
00100000
00000000
,
01000000
00000000
10000000
00000000
01000000
00100000
01000000
00100000
,
10000000
00100000
01000000
00010000
,
01010000
00000000
01000000
00000000
01000000
00010000
00001000
00000000
,
00000010
00000001
00001001
00000001
,
00000100
00001000
00010000
00000000
00100000
00000000
01000000
00000000
,
01000000
00001000
01000000
00001000
01000000
00001000
00010000
00000000
,
00000100
00000000
00000010
00000000
00000010
00010000
00000010
00010000
,
00000010
00010000
00000010
00000000
00000001
00000000
00000100
00000000
,
00000010
00000000
00000000
00000110
,
00000000
00000100
00000000
00000000
00001000
00000000
00010000
00000000
,
00011000
00000000
00000000
00010000
00000000
00000000
01000000
00000000
,
00100000
01100000
01000000
00010000
,
00001000
00000010
00000001
00000011
,
00000000
00001010
00000000
00000000
00011000
00000000
00000000
00110000
,
00000000
10100000
00000000
00000000
;

//---------------dance-double - ----------------
#NOTEDATA:;
#CHARTNAME:;
#STEPSTYPE:dance-double;
#DESCRIPTION:;
#CHARTSTYLE:;
#DIFFICULTY:Hard;
#METER:9;
#RADARVALUES:0.548,0.586,0.315,0.018,0.000,400.000,36.000,2.000,0.000,0.000,0.000,0.000,0.000,0.548,0.586,0.315,0.018,0.000,400.000,36.000,2.000,0.000,0.000,0.000,0.000,0.000;
#CREDIT:;
#NOTES:
00000000
00000000
00000000
00000000
,
00000000
00000000
00000000
00000000
,
00000000
00000000
00000000
00000000
,
00000000
00000000
00000000
00000000
,
00000000
00000000
00000000
00000000
,
00000001
00000010
00001000
00000010
,
00000001
00000100
00001000
00010000
,
00100000
00010000
00100000
00000000
01000000
00100000
01000000
00000000
,
00010000
01000000
00010000
00000000
10000000
00010000
10000000
00000000
,
01000000
00100000
00010000
10000000
,
00100000
00010000
00001000
00000010
,
00000001
00000010
00000001
00000000
00000010
00000100
00000010
00000000
,
00001000
00000100
00001000
00000000
00000001
00001000
00000001
00000000
,
00000100
00000010
00001000
00000010
,
00000100
00001000
00010000
01000000
,
01000000
10000000
01000000
00000000
01000000
00100000
01000000
00000000
,
01000000
00010000
01000000
00000000
01000000
00100000
01000000
00000000
,
01100000
00100000
00010000
10000000
,
01000000
00010000
00001000
00000010
,
00000010
00001000
00000010
00000000
00000010
00000100
00000010
00000000
,
00000010
00000001
00000100
00000010
00000001
00000010
00000100
00000000
,
00000210
00000000
00000310
00000010
,
00001000
00000010
00000100
00001000
,
00010000
00001000
00010000
00100000
,
02000000
00000000
03100000
00100000
,
10000000
01000000
00010000
01000000
,
00010000
00001000
00000010
00000001
,
00000100
00000000
00000010
00000100
00000010
00000000
00001000
00000000
,
00000010
00000100
00000001
00000100
,
00001000
00010000
01000000
10000000
,
01000000
00100000
01000000
00010000
,
01000000
00010000
00001000
00000010
,
00001000
00000010
00000100
00001000
,
00000000
00000000
00000000
00001100
,
00000100
00010000
00000010
00010000
00000100
00000000
00010000
00000000
,
00001000
00000000
01000000
00000000
01000000
00001000
00100000
00001000
,
01000000
00001000
00010000
00010100
,
00000100
00000010
00000011
00000001
,
00000100
00000000
00000110
00000000
00000010
00001000
00000000
00001000
,
00000100
00010000
00001000
00101000
,
00100000
00001000
01000000
00001000
00100000
00000000
00001000
00000000
,
00010000
00000000
00000010
00000000
00000010
00010000
00000100
00010000
,
00000010
00010000
00001000
01000000
,
00010000
01000000
00100000
10000000
00010000
00000000
00100000
00000000
,
01000000
00000000
10000000
00000000
01000000
00010000
00001000
00000010
,
00000001
00000100
00000010
00000110
,
00000010
00000100
00001000
00000000
00001100
00000000
00000100
00001000
,
00010000
00000000
00011000
00000000
00001000
00010000
00100000
00000000
,
01100000
00000000
01000000
00010000
00000000
00010000
10000000
00000000
,
10000000
01000000
10000000
00000000
00100000
00000000
01000000
00010000
,
01000000
00000000
01010000
00000000
00010000
10000000
00000000
01000000
,
00000000
00100000
00000000
10000000
00000000
00100000
00010000
00000000
,
00100000
00010000
00001000
00000100
00000000
00000000
00000000
00000000
,
00000000
00000000
00000110
00000000
00000001
00000100
00000010
00001000
,
00000000
00000000
00000000
00000101
,
00000100
00001000
00001100
00001000
,
00010000
00000000
00011000
00000000
00000000
01001000
00000000
00000000
,
01010000
00000000
00000000
01100000
00000000
00000000
00100000
00000000
,
00100000
10000000
01000000
00010000
,
00001000
00000000
00000000
00000000
,
00010100
00000000
00000100
00010000
00000010
00000100
00010000
00000000
,
00000100
00000000
00010000
00000000
01000000
00000000
01000000
00001000
,
00100000
01000000
00001000
00000000
01000000
00000000
10000000
00000000
,
01000000
00100000
00010000
00100000
01000000
00010000
00001000
00000000
,
00000010
00000000
00000001
00000000
00001000
00000010
00000100
00000001
,
00000010
00000100
00001000
00000000
00000001
00000000
00000100
00000000
,
00000101
00000000
00000100
00001000
00010000
00001000
00000100
00000000
,
00001000
00000000
00010000
00000000
00001000
00010000
01000000
00010000
,
00001000
00000000
00010000
00000000
01000000
10000000
01000000
00100000
,
01000000
00000000
10000000
00000000
00010000
00000000
01000000
00010000
,
00100000
01000000
10000000
00100000
01000000
00010000
10000000
00000000
,
01001000
00000000
01000000
00001000
00100000
01000000
00001000
00000000
,
01000000
00000000
00001000
00000000
00000100
00000000
00000100
00010000
,
00000010
00000100
00010000
00000000
00000100
00000000
00000001
00000000
,
00000100
00000010
00001000
00000010
00000100
00001000
00010000
00000000
,
00100000
00000000
10000000
00000000
00010000
00100000
01000000
10000000
,
00100000
01000000
00010000
00000000
10000000
00000000
01000000
00000000
,
01100000
00000000
00100000
00000000
01000000
00010000
00001000
00000000
,
00000100
00000010
00000110
00000100
,
00001000
00010000
01000000
00000000
00100000
00000000
01000000
00000000
,
01000000
00010000
00001000
00010000
01000000
00010000
00001000
00000000
,
00000010
00000000
00000100
00000000
00000100
00001000
00010000
00001000
,
00000100
00001000
00010000
00000000
00100000
00000000
01000000
00000000
,
10000000
00000000
00000000
11000000
,
10000000
01000000
00000000
01000000
00100000
00000000
00010000
00000000
,
10000000
00000000
10000000
01000000
00000000
01000000
00010000
00000000
,
00001000
00011000
00001100
00011000
,
00001010
00011000
00001100
00011000
,
00000000
00010100
00000000
00000000
00001100
00000000
00000000
00000110
,
00000000
00000011
00000000
00000000
;
