#TITLE:Devilz Sacrifice;
#SUBTITLE:;
#ARTIST:OSTER Project;
#TITLETRANSLIT:;
#SUBTITLETRANSLIT:;
#ARTISTTRANSLIT:;
#GENRE:;
#CREDIT:rikame;
#BANNER:Devilz Sacrifice.png;
#BACKGROUND:Devilz Sacrifice - bg.png;
#LYRICSPATH:;
#CDTITLE:cd-rikame.png;
#MUSIC:Devilz Sacrifice.ogg;
#OFFSET:-0.320;
#SAMPLESTART:12.435;
#SAMPLELENGTH:18.316;
#SELECTABLE:YES;
#BPMS:0.000=175.000;
#STOPS:198.500=0.171
;
#BGCHANGES:;
#KEYSOUNDS:;

//---------------dance-single - Rikame----------------
#NOTES:
     dance-single:
     Rikame:
     Challenge:
     13:
     1.000,1.000,0.325,0.631,1.000:
0000
0000
0000
0000
,
0000
0000
0000
0000
,
0000
0000
0000
0000
,
0000
0000
0000
0000
,
0101
0100
0010
1010
1000
0001
0011
0010
,
0100
1100
1000
0010
0110
1000
0011
0100
,
1001
0000
0001
0100
0001
0010
0001
0100
0010
1000
0100
1000
0010
1000
0100
1000
,
0001
0000
0000
0010
0000
0000
0001
0000
0000
0100
0000
0000
0010
0000
0000
1000
0000
0000
0010
0000
0000
0100
0000
0000
0001
0000
1000
0000
0001
0000
0010
0000
0100
0000
1000
0000
0001
0000
1000
0000
0001
0000
0010
0000
0100
0000
1000
0000
,
0001
0000
0000
0000
0100
0000
0000
0000
1000
0000
0000
0000
0001
0000
0000
0000
0010
0000
0000
0000
1000
0000
0000
0000
0002
0000
0000
0000
0000
0000
0000
0000
0000
1000
0000
0000
0000
0000
0000
0000
0000
0000
1003
0000
0000
0000
0000
0000
,
1002
0023
2030
3020
,
0230
0000
1300
0010
0002
0000
0013
0100
,
0002
0000
2003
0000
3200
0000
0310
1000
,
0010
0001
0200
0000
0310
1000
0100
0010
,
0021
0230
0302
0203
,
2300
0000
3010
0100
2000
0000
3100
0001
,
2000
0000
3200
0000
0320
0000
0031
1000
,
0001
0010
0001
1000
0100
1000
0001
0100
0010
1000
0010
1000
0001
0010
0001
0010
,
0001
1000
0100
0010
0001
1000
0100
0010
0001
1000
0100
0010
0001
1000
0100
0010
,
0001
0100
0010
1000
0001
0100
0010
1000
0001
0100
0010
1000
0001
0100
0010
1000
,
0001
0010
0100
1000
0001
0010
0100
1000
0001
0010
0100
1000
0001
0010
0100
1000
,
0010
1000
0001
0100
0010
1000
0001
0100
0010
1000
0001
0100
0010
1000
0001
0100
,
0010
1000
0001
1000
0010
1000
0001
1000
0010
1000
0001
1000
0010
1000
0001
1000
,
0100
0010
0100
1000
0100
0010
0100
1000
0100
0010
0100
1000
0100
0010
0100
1000
,
0001
1000
1010
0010
0100
0001
0011
0010
,
0100
0000
0000
0000
1000
0000
0000
0000
0100
0000
0000
0000
1000
0000
0000
0000
0001
0000
0000
0000
0100
0000
0000
0000
0001
0000
0000
0000
0100
0000
0000
0000
0040
0000
0000
0000
0000
0000
0000
0000
0000
0000
0000
0000
0000
0000
0000
0000
0000
0000
0000
0000
0000
0000
0000
0000
0000
0000
0000
0000
0000
0000
0000
0030
,
1001
0000
1000
0100
0010
0000
0100
1000
0010
0000
0100
0010
1000
0000
1001
0000
,
0000
0000
0000
0021
0000
0000
0000
0000
0000
0130
0000
0000
1100
0000
1000
0000
0001
0000
0100
0000
0010
0000
1000
0000
,
0001
0000
0010
0000
0100
0000
1100
0000
1000
0000
0001
0000
0201
0000
0000
0000
0000
0000
0310
0000
0000
1010
0000
0000
,
1000
0000
0000
0000
0000
0000
0100
0000
0000
0010
0000
0000
0001
0000
0000
0000
0000
0000
0001
0000
0000
0000
0000
0000
0100
0000
0010
0000
1000
0000
0100
0000
0000
0000
0000
0000
1000
0000
0000
0000
0000
0000
1001
0000
0000
0000
0000
0000
,
0001
0000
0100
0000
0010
0000
1000
0000
0100
0010
0100
0000
1000
0000
0001
0000
,
0100
0000
0000
0000
0000
0000
0001
0000
0000
1000
0000
0000
0010
0000
0000
0000
0000
0000
0010
0000
0000
0000
0000
0000
0100
0000
0001
0000
0010
0000
0100
0000
0000
0000
0000
0000
0010
0000
0000
0000
0000
0000
0001
0000
0000
0000
1000
0000
,
0000
0010
0000
0100
0000
0001
0000
1000
0000
0100
0000
0010
0000
0001
0000
1000
0000
0010
0000
0100
0000
1002
0000
0000
,
0000
0000
0013
0100
0010
0100
1000
0001
1000
0001
0010
0100
1000
0001
1000
0000
,
1000
0000
0001
0100
0001
0100
0010
1000
0010
1000
0001
0100
0010
1000
0001
0000
,
1000
0100
0010
0001
0010
0001
1000
0010
1000
0010
0100
0001
1000
0100
0010
0000
,
0010
0000
0100
1000
0100
1000
0001
0100
0001
0100
0010
1000
0001
0010
0100
0000
,
1000
0001
0100
0010
0100
0010
1000
0001
1000
0001
0010
0100
1000
0001
0100
0000
,
0100
0000
0010
1000
0010
1000
0001
0100
0001
0100
0010
1000
0100
0010
0100
0000
,
1000
0001
0100
0010
0100
0010
1000
0100
1000
0100
0010
0001
0100
0010
1000
0000
,
1000
0000
0100
0010
0100
0010
0001
0100
0001
0100
0010
1000
0100
0010
0002
0000
,
0000
0000
0000
0000
0000
0000
0103
0000
0000
0010
0000
0000
1000
0000
0000
0001
0000
0000
0010
0000
0100
0000
0010
0000
0100
0000
0000
1000
0000
0000
0002
0000
0000
0000
0000
0000
0000
0000
0000
0000
0000
0000
0203
0000
0000
0000
0000
0000
,
0000
0000
0000
0000
0000
0000
0301
0000
0000
1000
0000
0000
0100
0000
0000
0010
0000
0000
0001
0000
1000
0000
0001
0000
1000
0000
0000
0010
0000
0000
0100
0000
0000
0000
0000
0000
0001
0000
0000
0000
0000
0000
0020
0000
0000
0000
0000
0000
,
0000
0000
0000
0000
0000
0000
0130
0000
0000
1000
0000
0000
0001
0000
0000
0100
0000
0000
0010
0000
1000
0000
0010
0000
1000
0000
0000
0001
0000
0000
0010
0000
0000
0000
0000
0000
0001
0000
0000
0000
0000
0000
2000
0000
0000
0000
0000
0000
,
0000
0000
0000
0000
0000
0000
3100
0000
0000
0010
0000
0000
0001
0000
0000
1000
0000
0000
0001
0000
0100
0000
0001
0000
0100
0000
0000
0010
0000
0000
1000
0000
0000
0100
0000
0000
0010
0000
0000
0001
0000
0000
2000
0000
0000
0000
0000
0000
,
0000
0000
0000
3010
0000
0100
0000
0010
0000
0200
0000
0000
0000
0000
0000
0301
0000
0000
0001
0000
0000
0020
0000
0000
,
0000
0000
0000
0130
0000
1000
0000
0100
0000
1000
0000
0000
1000
0000
0000
0010
0000
0000
0010
0000
0000
0210
0000
0000
,
0000
0000
0000
0301
0000
0010
0000
0001
0000
1000
0000
0100
0000
1000
0000
0010
0000
0100
0000
0001
0000
0010
0000
0000
,
0010
0000
0110
0000
0100
1000
0001
0000
0001
0000
1001
0000
1000
0000
0010
0000
,
0010
0000
0110
0000
0100
0001
1000
0010
1000
0010
1000
0001
1000
0001
0040
0000
,
0000
0000
0000
0000
0000
MM3M
1002
0000
,
0203
2300
3200
0320
,
1030
0100
0002
0000
0103
1000
0020
0000
,
0430
0000
0301
0010
0400
0000
2300
0000
,
0000
0000
3001
0000
0002
0000
0000
0103
0010
0000
0010
0000
1001
0000
1000
0000
,
0010
0001
0020
0000
0130
0001
0020
0000
,
0230
2300
3002
0203
,
0000
0000
0301
0010
0200
0000
0000
2300
0000
0000
3010
0000
0100
0001
0100
0001
,
1000
0010
1000
0010
1000
0100
1000
0100
0010
0001
0010
0001
2000
0000
0000
0000
,
3020
0000
0000
0130
0002
0000
0000
0000
0023
0000
0000
0000
0230
0000
0000
0000
,
0310
0001
0200
0000
0320
0000
0032
0000
,
0023
2030
3200
0302
,
0103
0000
0000
0010
0000
0000
0200
0000
0000
0000
0000
0000
2300
0000
0000
0000
0000
0000
3001
0000
0010
0000
0001
0000
,
0100
0001
1000
0010
1000
0100
1000
0001
0100
0010
1000
0010
,
0100
0000
0000
0000
0001
0000
0000
0000
0010
0000
0000
0000
0001
0000
0000
0000
0100
0000
0000
0000
0010
0000
0000
0000
1000
0000
0000
0000
0100
0000
0000
0000
1000
0000
0000
0000
0001
0000
0000
0010
0000
0000
0100
0000
0000
1000
0000
0000
,
0001
0100
0001
1000
0001
0010
0100
1000
0001
0100
0001
1000
0001
0010
0100
1000
,
0001
0100
0001
1000
0100
0010
0001
1000
0010
1000
0001
0100
0010
1000
0001
0100
,
0010
1000
0001
0100
0010
1000
0001
0100
0010
1000
0001
0100
0001
0010
0100
1000
,
0001
0010
0100
1000
0001
0010
0100
1000
0001
0010
0100
1000
0010
0000
0100
0000
,
1000
0100
0001
0010
0110
1100
0010
1001
,
1000
0000
0100
0000
0001
0000
0100
0000
1000
0001
1000
0001
0100
0000
0110
0000
,
0010
0001
0010
1000
1100
1010
0100
1001
,
0001
0010
1000
0010
0002
1003
0100
0100
,
0010
0000
0000
0000
0000
0000
0010
0000
0000
0000
0000
0000
0001
0000
0000
1000
0000
0000
0001
0000
0000
1000
0000
0000
0001
0000
1000
0000
0001
0000
1000
0000
0001
0000
1000
0000
0001
0000
0000
0000
0000
0000
0000
0000
0000
0000
0000
0000
,
0000
0000
0000
0000
0110
0000
0000
0000
0000
0000
0000
2000
0002
0000
0000
0000
,
0000
0000
0000
0000
,
0000
0000
0000
0000
0000
0000
0000
3003
;

//---------------dance-single - Rikame----------------
#NOTES:
     dance-single:
     Rikame:
     Hard:
     9:
     0.717,0.834,0.086,0.679,0.225:
0000
0000
0000
0000
,
0000
0000
0000
0000
,
0000
0000
0000
0000
,
0000
0000
0000
0000
,
0001
1000
1000
0100
0010
0010
0001
1000
,
1000
0010
0100
0100
0001
1000
0100
1000
,
0010
0100
0100
0001
0010
0010
0100
1000
,
1000
0010
0001
0010
1000
0100
0001
0100
,
1000
0000
0000
0000
0001
0000
0000
0000
1000
0000
0000
0000
0010
0000
0000
0000
0100
0000
0000
0000
0010
0000
0000
0000
2000
0000
0000
0000
0000
0000
0000
0000
0000
0001
0000
0000
0000
0000
0000
0000
0000
0000
3001
0000
0000
0000
0000
0000
,
1002
0203
2300
3200
,
0320
0000
1030
0100
0002
0000
0103
0010
,
0002
0000
0203
0000
0320
0000
1030
0001
,
0100
0010
0002
0000
0013
0100
0001
0001
,
2001
3200
0302
0203
,
0320
0000
0031
0100
2000
0000
3100
0010
,
2000
0000
3002
0000
0023
0000
1030
0001
,
0200
0320
0032
0203
,
0310
1000
0001
0100
0010
1000
0001
0100
,
0010
0100
0001
1000
0010
0100
0001
1000
,
0100
0010
0001
1000
0100
0010
0001
1000
,
0001
0010
0100
1000
0001
0010
0100
0100
,
1000
0001
0100
0010
1000
0001
0100
0010
,
1000
0100
0010
0001
1000
0100
0010
0001
,
1000
0010
0100
0100
0001
0010
0100
0100
,
2000
0000
3100
0010
0002
0000
0203
0000
,
0310
1000
1000
0010
0010
0100
0100
0001
,
0000
0000
0000
2001
0000
0000
0000
0000
0000
3100
0000
0000
0010
0000
0001
0000
0010
0000
0001
0000
1000
0000
0010
0000
,
1000
0000
0010
0000
0100
0000
0001
0000
0000
0000
0000
0000
0021
0000
0000
0000
0000
0000
0130
0000
0000
0100
0000
0000
,
1000
0000
0001
0010
0001
0000
1000
0000
0100
0010
0100
0000
1000
0000
0010
0000
,
0100
0001
1000
0001
0010
0100
0100
0010
,
0001
0000
0000
0000
0000
0000
1000
0000
0000
0010
0000
0000
1000
0000
0000
0000
0000
0000
0001
0000
0000
0000
0000
0000
0100
0000
0000
0010
0000
0000
0100
0000
0000
0000
0000
0000
0001
0000
0000
0000
0000
0000
1000
0000
0000
0000
0010
0000
,
0000
1000
0000
0010
0000
0100
0000
0010
0000
0100
0000
0010
0000
0100
0000
0001
0000
0100
0000
0001
0000
0010
0000
0000
,
0000
0110
0000
0000
0010
0001
0000
0100
,
0001
1000
0000
0000
0100
1000
0000
0010
,
0000
0100
0001
0000
0001
0010
0000
0100
,
0010
0000
0001
0000
0000
0000
0000
0000
0100
0000
0001
1000
0000
0000
0010
0000
,
0000
0110
0000
0000
0100
0001
0000
0010
,
0001
1000
0000
0000
0010
1000
0000
0001
,
0000
0011
0000
0000
0010
0100
0000
0010
,
0001
0100
0010
0000
0010
1000
0001
2001
,
0000
3200
0000
0302
0000
0203
0000
0320
,
0000
0000
0000
0000
0000
0000
0000
0000
0000
0000
0000
0000
0000
0000
0000
0031
0000
0000
0000
1000
0000
0002
0000
0000
,
0000
0023
0000
2030
0000
3020
0000
0032
,
0000
0203
0000
2300
0000
3200
0000
0310
,
0000
0000
0000
1000
0000
0100
0000
1000
0000
0100
0000
0000
0000
0000
0000
0010
0000
0000
0001
0000
0000
1000
0000
0000
,
0000
0000
0000
0001
0000
0100
0000
0001
0000
0100
0000
0000
0010
0000
0000
1000
0000
0000
0001
0000
0000
0020
0000
0000
,
0000
0000
0000
0000
0000
0230
0000
1300
,
1000
0001
1000
0000
1000
0001
0010
0100
,
0100
0010
0100
2000
0000
0000
0000
3000
,
0000
0000
0000
0000
0000
MMMM
0002
0000
,
0023
2030
3020
0032
,
0103
0010
2000
0000
3100
0010
0002
0000
,
0203
0000
0310
1000
0001
0010
0200
0000
,
0000
0000
0000
0000
0310
0001
1000
0010
,
0100
0001
2000
0000
3001
0100
0020
0000
,
0032
2003
3200
0320
,
0000
0000
1030
0000
0001
0000
0000
0010
0000
0000
0100
0000
2000
0000
0000
0000
,
0000
3001
0200
0000
0000
0000
0310
0000
,
1000
0100
0010
0001
,
0100
0001
0010
0000
0100
0000
1000
0000
,
0010
0100
0001
1000
,
0100
0000
0000
1000
0000
0000
0010
0000
0000
0000
0000
0000
0100
0000
0000
0000
0000
0000
0001
0000
1000
0000
0001
0000
,
1000
0100
0010
0001
0100
0001
0100
0010
1000
0100
0010
0100
,
0010
0000
0001
0000
1000
0000
0010
0000
0100
0000
0010
0000
0100
0000
0001
0000
1000
0000
0001
0000
0000
0010
0000
0000
,
0100
1000
0010
0100
0010
1000
0001
0010
,
0100
1000
0010
0100
0001
1000
0100
0010
,
0100
1000
0100
0010
0100
1000
0001
0100
,
0010
0100
0001
0100
0010
0100
0001
0010
,
1000
0010
0001
0100
0010
0010
0100
0010
,
1000
0100
0010
1000
0010
0100
1000
1000
,
0001
0100
1000
0100
0010
0010
0100
0010
,
1000
0000
0000
0000
0000
0000
0000
0000
0001
0000
0000
0000
0000
0000
0000
0000
0010
0000
0000
0000
0000
0000
0000
0000
0100
0000
0000
0000
0000
0000
0000
0000
0001
0000
0000
0000
0000
0000
0000
0000
0100
0000
0000
0000
0000
0000
0000
0000
1000
0000
0000
0000
0000
0000
0000
0000
0002
0003
0000
0000
0000
0000
0000
0000
,
2000
0000
3000
0000
0000
0000
0000
0000
0002
0000
0000
0003
0000
0000
0000
0000
2000
0000
0000
0000
3000
0000
0000
0000
0002
0000
0000
0000
0000
0003
0000
0000
2000
0000
0000
0000
0000
0000
3000
0000
0002
0000
0000
0000
0000
0000
0000
0000
1003
0000
0000
0000
0000
0000
0000
0000
0000
0000
0000
0000
0000
0000
0000
0000
,
0000
0000
0000
0000
0110
0000
0000
0000
0000
0000
0000
0002
2000
0000
0000
0000
,
0000
0000
0000
0000
,
0000
0000
0000
0000
0000
0000
0000
3003
;

//---------------dance-single - Rikame----------------
#NOTES:
     dance-single:
     Rikame:
     Beginner:
     2:
     0.117,0.176,0.086,0.000,0.000:
0000
0000
0000
0000
,
0000
0000
0000
0000
,
0000
0000
0000
0000
,
0000
0000
0000
0000
,
0010
0000
0000
0000
,
0000
0000
0000
0000
,
0010
0000
0000
0000
,
0000
0000
0000
0000
,
0100
0000
0000
0000
,
1001
0000
0000
0000
,
0001
0000
0000
0000
,
0100
0000
0000
0000
,
0010
0000
0000
0000
,
1000
0000
0000
0000
,
0001
0000
0000
0000
,
0010
0000
0000
0000
,
0100
0000
0000
0000
,
1000
0000
1000
0000
,
0001
0000
0001
0000
,
1000
0000
1000
0000
,
0001
0000
0001
0000
,
0010
0000
0010
0000
,
0100
0000
0100
0000
,
1000
0000
0000
0000
,
0010
0000
0000
0000
,
0110
0000
0000
0000
,
0000
0000
0001
0000
,
0000
0000
0000
0000
0000
0000
0000
1000
,
0000
0000
0000
0000
0000
0000
0000
0001
,
0000
0000
0000
0000
0000
0000
0000
0100
,
0000
0000
0000
0000
0000
0000
0000
0010
,
0000
0000
0000
0000
0000
0000
0000
1000
,
0000
0000
0000
0000
,
0000
0000
0000
0000
0000
0000
0000
0001
,
0000
0000
0000
0000
0000
0000
0000
0010
,
0000
0000
0000
0000
0000
0000
0000
0001
,
0000
0000
0000
0000
,
0000
0000
0000
0100
0000
0000
0000
0000
,
0000
0000
0000
0000
0000
0000
0000
0010
,
0000
0000
0000
0000
0000
0000
0000
1001
,
0000
0000
0000
0000
0000
0000
0000
0010
,
0000
0000
0000
0000
0000
0000
0000
0100
,
0000
0000
0000
0000
0000
0000
0000
0001
,
0000
0000
0000
0001
0000
0000
0000
1001
,
0000
0000
0000
0000
0000
0000
0000
0100
,
0000
0000
0000
0000
0000
0000
0000
0110
,
0000
0000
0000
0000
0000
0000
0000
1001
,
0000
0000
0000
0000
0000
0000
0000
0100
,
0000
0000
0000
0000
,
0000
0000
0000
0000
,
0000
0000
0000
0001
,
0000
0000
0000
1000
,
0000
0000
0000
0010
,
0000
0000
0000
0100
,
0000
0000
0000
0010
,
0000
0000
0000
1000
,
0000
0000
0000
0001
,
0000
0000
0000
0001
,
0000
0000
0000
0010
,
0000
0000
0000
0100
,
0000
0000
0000
1000
,
0000
0000
0000
0001
,
0000
0001
0000
1000
,
0000
1000
0000
0010
,
0000
0000
0000
0010
,
0000
0000
0000
0100
,
0000
0100
0000
0100
,
0000
0100
0000
1001
,
0000
0000
0001
0000
,
0000
0000
0000
0110
,
0000
0000
1000
0000
,
0000
0000
0000
0001
,
0000
0001
0000
1000
,
0000
0010
0000
1001
;

//---------------dance-single - Rikame----------------
#NOTES:
     dance-single:
     Rikame:
     Easy:
     5:
     0.223,0.290,0.038,0.258,0.000:
0000
0000
0000
0000
,
0000
0000
0000
0000
,
0000
0000
0000
0000
,
0000
0000
0000
0000
,
0001
0000
0000
1000
0000
0000
0001
0000
,
0000
1000
0000
0000
0001
0000
1000
0000
,
0010
0000
0000
0100
0000
0000
0010
0000
,
0000
2000
0000
0000
0000
0000
0000
0000
,
3002
0000
0103
0000
,
0110
0000
0010
0000
,
1000
0000
0100
0000
,
0010
0000
0001
0000
,
1000
0000
0010
0000
,
0100
0000
0001
0000
,
1000
0000
0100
0000
,
1000
0000
0010
0000
,
0100
0000
0001
0000
,
2000
0000
0000
0000
,
3020
0000
0000
0000
,
0230
0000
0000
0000
,
0302
0000
0000
0000
,
0023
0000
0000
0000
,
0230
0000
0000
0000
,
2300
0000
3002
0000
,
0023
0000
0230
0000
,
1300
0000
0000
0001
0000
0000
0000
1000
,
0000
1000
0000
0000
0020
0000
0000
0000
,
0000
0130
0100
0100
,
0000
0001
0000
0000
0000
1000
0000
0020
,
0000
0000
0000
0000
,
0000
0031
0000
0000
0000
1000
0000
0020
,
0000
0000
0000
0000
0000
0000
0000
0130
,
0000
0000
0000
0001
0000
0000
0000
0000
,
0000
0000
0000
0010
0000
0000
0000
0100
,
0000
0000
0000
0010
0000
0000
0000
0000
,
0000
0000
0000
0000
0000
0000
0000
0001
,
0000
0000
0000
0100
0000
0000
0000
0000
,
0000
0000
0000
0010
0000
0000
0000
1000
,
0000
0000
0000
0000
0000
0000
0000
0002
,
0000
0000
0000
2000
0000
0000
3003
1001
,
0000
0000
0000
0001
0000
0000
0000
0100
,
0000
0000
0000
0000
0000
0000
0000
0010
,
0000
0000
0000
1000
0000
0000
0000
0100
,
0000
0000
0000
0010
0000
0000
0000
1002
,
0000
0000
0000
0000
0000
0103
0000
0020
,
0000
0000
0000
2030
0000
0000
0000
3001
,
0000
0000
0000
0000
0000
0100
0000
0010
,
0000
0000
0000
1000
0000
0000
0000
0001
,
0000
0000
0000
0010
0000
0000
0000
0000
,
0000
0000
0000
0001
,
0000
1000
0000
0010
,
0000
0100
0000
0001
,
0000
0010
0000
0100
,
0000
0000
0000
0010
,
0000
0001
0000
0100
,
0000
0020
0030
1000
,
0000
0001
0000
0010
,
0000
0100
0000
1000
,
0000
1000
0000
0010
,
0000
0100
0000
0001
,
0000
0010
0000
0001
,
0000
0100
0000
0020
,
0000
0000
0000
0230
,
0000
0000
0000
0301
,
1000
0001
1000
0001
,
1000
0001
1000
0001
,
1000
0001
1000
0001
,
1000
0001
1000
0001
,
0000
0000
0000
0000
0100
0000
0000
0010
,
0000
0000
2000
3001
,
0000
0000
0000
0000
0010
0000
0000
0100
,
0000
0000
0000
2000
,
0000
0000
0000
3001
,
0000
0100
0000
2002
,
0000
0000
0000
0000
,
0000
0000
0000
0000
0000
0000
0000
3003
;

//---------------dance-single - Rikame----------------
#NOTES:
     dance-single:
     Rikame:
     Medium:
     7:
     0.444,0.544,0.124,0.258,0.005:
0000
0000
0000
0000
,
0000
0000
0000
0000
,
0000
0000
0000
0000
,
0000
0000
0000
0000
,
0001
0000
0000
0100
0000
0000
0010
0000
,
0000
1000
0000
0000
0001
0000
0010
0000
,
0001
0000
0000
0100
0000
0000
0010
0000
,
0000
1000
0000
0000
0100
0000
0010
0000
,
0002
0000
0000
0000
2000
0000
0000
3003
,
1001
1000
0010
0100
,
0001
0010
0100
0010
,
0001
1000
0010
0100
,
0001
0010
0001
0100
,
0010
1000
0100
1000
,
0001
0100
0010
1000
,
0100
0010
0001
1000
,
0001
0010
0100
1000
,
0010
0100
0010
1000
,
0001
0000
0010
0001
0010
0000
0100
1000
,
0100
0000
0010
0000
0001
0000
1000
0010
,
1000
0010
0100
0000
0001
1000
0001
0000
,
0010
0100
0010
0001
,
1000
0000
0010
1000
0010
0000
0100
0001
,
0200
0320
2030
3002
,
0023
0000
0130
1000
0001
0000
0100
0000
,
1010
0000
0000
0101
0000
0000
0000
0011
,
0000
2100
0000
3010
0200
0000
0000
0000
,
0000
0000
0301
0000
1000
0000
0100
0010
,
0000
0001
1000
0001
0100
0010
1000
0001
,
0000
0000
0000
0000
,
0000
0001
0010
0100
1000
0100
0010
0002
,
0000
0000
0000
0000
0000
0000
0000
1003
,
0000
0100
0000
1000
0001
1000
0000
0001
,
0100
0001
0000
0000
0100
0010
0000
1000
,
0000
0100
0010
0000
0010
0001
0000
1000
,
0001
1000
0000
0100
1000
0100
0000
0010
,
0000
0001
0000
1000
0010
1000
0000
0001
,
0100
0001
0000
0000
0010
0100
0000
0010
,
0000
0001
0000
0000
1000
0001
0000
0100
,
0010
0100
0001
0000
0001
1000
0000
1002
,
0000
0023
0000
0230
0000
2300
0000
3020
,
0000
0000
0000
0000
0000
0130
0000
0001
,
0000
1000
0000
0100
0000
0010
0000
0002
,
0003
0100
0000
0010
0000
1000
0000
1100
,
0000
0200
0000
0000
0300
0010
0000
0001
,
0000
2000
0000
0000
3000
0010
0000
0110
,
0000
0002
0000
0000
0000
1003
0000
0100
,
0000
0000
0000
0010
0000
0000
0000
0001
,
0000
0000
0000
0100
0000
0000
0000
0020
,
0000
0000
0000
0000
0000
0M30
1001
0000
,
1000
0010
0100
0001
,
0010
0100
0010
0000
0001
1000
0001
0000
,
0110
0000
1000
0001
0110
0000
1000
0000
,
0100
0010
0100
1000
0010
0100
0001
1000
,
0001
1000
0010
0000
0100
0001
1000
0000
,
0100
0001
0100
0010
,
0000
0000
0001
0000
1000
0000
0000
0010
0000
0000
0100
0000
0002
0000
0000
0000
,
0000
2003
0000
3100
,
0010
0001
0100
0010
,
1000
0001
0100
0000
0001
0000
0010
0000
,
0100
1000
0010
1000
,
0010
1000
0001
0000
0100
0000
0020
0000
,
0000
0000
0000
0230
,
0000
0000
0000
0301
,
0010
0100
1000
0010
,
0100
0000
0001
0000
0010
0000
0100
1000
,
0100
1000
0001
0100
0001
0100
0010
1000
,
0010
1000
0001
0010
0001
0010
0100
0000
,
1000
0000
0010
0000
0100
0001
0000
1000
,
0000
0100
0000
0010
0000
0001
1000
0000
,
0010
0000
0100
0000
0001
0010
0000
0100
,
0000
0010
0000
0001
1000
0001
0200
0000
,
0000
0000
0000
0300
,
0000
0110
0000
2002
,
0000
0000
0000
0000
,
0000
0000
0000
0000
0000
0000
0000
3003
;
